#TITLE:Our Love;
#SUBTITLE:;
#ARTIST:lapix;
#TITLETRANSLIT:;
#SUBTITLETRANSLIT:;
#ARTISTTRANSLIT:;
#GENRE:;
#CREDIT:;
#BANNER:;
#BACKGROUND:Our Love-bg.png;
#LYRICSPATH:;
#CDTITLE:;
#MUSIC:Our Love.ogg;
#OFFSET:-0.817000;
#SAMPLESTART:93.028000;
#SAMPLELENGTH:10.000000;
#SELECTABLE:YES;
#BPMS:0.000000=190.000000
;
#STOPS:
;
#BGCHANGES:;
#KEYSOUNDS:;
#ATTACKS:;

//---------------dance-single - ----------------
#NOTES:
     dance-single:
     :
     Hard:
     13:
     0.730683,0.770598,0.525001,0.342046,0.075568,643.000000,577.000000,66.000000,43.000000,0.000000,0.000000,0.730683,0.770598,0.525001,0.342046,0.075568,643.000000,577.000000,66.000000,43.000000,0.000000,0.000000:
// measure 0
0000
0000
0000
0000
,  // measure 1
0000
0000
0000
0000
,  // measure 2
0000
0000
0000
0000
,  // measure 3
0000
0000
0000
0000
,  // measure 4
0000
0000
0000
0000
,  // measure 5
0201
0010
0001
0300
,  // measure 6
1000
0100
0010
0001
0010
0000
1001
0000
,  // measure 7
1000
0100
0010
0001
0020
0000
0000
0130
,  // measure 8
0000
1000
0001
0100
1000
0100
0001
0000
,  // measure 9
1001
0000
0010
0000
0010
0000
1000
0001
,  // measure 10
1001
0010
0010
0010
,  // measure 11
0100
1000
0010
0100
0001
0010
0200
0000
,  // measure 12
1300
0000
1000
0000
1000
0000
0001
1000
,  // measure 13
1001
0001
0100
0001
1000
0010
1000
0010
,  // measure 14
1000
0100
1000
0100
0010
0001
0010
0001
,  // measure 15
0100
0010
1000
0100
0010
0001
0100
0010
,  // measure 16
2000
0001
3001
0110
,  // measure 17
0201
0000
0000
0000
0310
0000
0000
0000
1010
0000
0000
0100
0010
0000
0100
0000
,  // measure 18
0000
0001
0100
0000
0100
0000
0001
0000
0100
0000
0001
0000
0010
0000
0000
0000
,  // measure 19
1200
0000
0000
0000
0310
0000
0000
0000
0011
0000
0000
0100
0010
0000
0100
0000
,  // measure 20
0000
1000
0100
0000
0100
0000
0010
0000
0001
0000
0100
0000
0001
0000
0010
0000
,  // measure 21
0100
0001
0100
1000
0100
0000
0021
0000
,  // measure 22
0100
0031
0110
1100
,  // measure 23
1000
0010
0100
0001
1000
0000
1000
0010
,  // measure 24
0100
0001
1000
0000
0100
0010
0001
0010
,  // measure 25
0200
0000
0000
0000
1300
0000
0000
0000
1100
0000
0000
0001
1000
0000
0100
0000
,  // measure 26
0000
1000
0100
0000
0100
0000
0010
0000
0001
0000
0100
0000
1000
0000
0100
0000
,  // measure 27
0001
0100
0001
0000
0101
0000
0000
0000
0110
0000
0000
1000
0001
0000
0100
0000
,  // measure 28
0000
0001
0100
0000
0100
0000
0010
0000
2000
0000
3002
0000
2003
0000
3002
0000
,  // measure 29
0013
0100
0010
0100
1000
0000
0011
0000
,  // measure 30
1010
0011
1010
0110
,  // measure 31
0001
0100
0001
0100
0010
1000
0001
0000
,  // measure 32
0020
0130
0011
1010
,  // measure 33
2001
0000
0000
0000
3010
0000
0000
0000
0011
0000
0000
1000
0010
0000
0100
0000
,  // measure 34
0001
0010
1000
0010
0001
0010
0100
1000
,  // measure 35
0010
0000
0100
0000
0001
0000
0000
0000
1010
0000
0000
0001
0100
0000
0010
0000
,  // measure 36
1000
0100
0010
0100
0001
0100
0010
0001
,  // measure 37
2000
0000
0000
0000
3001
0000
0000
0000
0101
0000
0000
1000
0100
0000
0010
0000
,  // measure 38
0001
0100
1000
0100
0001
0010
0100
1000
,  // measure 39
0010
0000
0100
0000
0001
0000
0000
0000
1010
0000
0000
0001
0100
0000
0010
0000
,  // measure 40
1000
0100
0001
1000
0010
0001
1000
0010
,  // measure 41
0100
0000
0100
0000
1001
0000
0000
0000
0101
0000
0000
1000
0010
0000
0100
0000
,  // measure 42
0001
0010
0001
1000
0010
0001
0010
0100
,  // measure 43
1000
0000
0100
0000
0001
0000
0000
0001
0100
0000
0000
0010
1000
0000
0010
0000
,  // measure 44
0100
0001
0010
0100
2000
3002
2003
3002
,  // measure 45
0103
0000
0000
0001
0010
0000
0000
1000
0010
0000
0000
0001
0010
0000
0001
0000
,  // measure 46
0100
0100
0010
1000
0100
0100
0010
0001
,  // measure 47
1000
0010
0001
0010
1000
0100
0001
0100
,  // measure 48
1000
0000
0110
0001
0000
0110
1000
0000
,  // measure 49
2002
0000
3000
0000
,  // measure 50
1003
0010
0100
0001
0100
0000
1001
0000
,  // measure 51
1000
0010
0100
0001
0200
0000
0000
0010
,  // measure 52
0000
1000
0000
0000
0310
0100
0001
0000
,  // measure 53
2002
0000
0000
3003
0000
0011
0000
0000
,  // measure 54
1001
0000
0000
1010
0000
0000
1001
0000
,  // measure 55
0210
0000
1300
0000
0210
0000
0301
0001
,  // measure 56
0000
0100
0010
0000
1000
1000
1000
0000
,  // measure 57
1001
0000
0001
0000
0100
0000
0010
1000
,  // measure 58
1001
0000
1000
0000
0100
0000
0010
0001
,  // measure 59
0100
0010
1000
0100
0010
0001
0200
0000
,  // measure 60
1000
0000
0001
0000
1000
0000
0301
1000
,  // measure 61
0001
0010
0001
0010
0100
1000
0100
1000
,  // measure 62
0010
1000
0010
1000
0001
0100
0001
0100
,  // measure 63
0010
1000
0100
0010
0001
0100
0010
1000
,  // measure 64
0200
0000
0301
0100
2000
0000
3001
0100
,  // measure 65
1000
0100
0010
0000
0001
0100
0010
0000
,  // measure 66
1000
0010
1000
0010
0100
1000
0100
0001
,  // measure 67
1000
0001
0100
0000
0001
1000
0100
0000
,  // measure 68
0010
0001
0010
0001
1000
0100
0010
0100
,  // measure 69
1000
1000
0010
0010
0100
0100
0001
0001
,  // measure 70
1000
1000
0100
0100
0010
0010
0001
0001
,  // measure 71
0100
0010
1000
0100
0010
0001
0100
0010
,  // measure 72
1000
0000
1000
0000
1000
0001
1001
0000
,  // measure 73
0110
0010
1010
0000
0101
0000
0010
1000
,  // measure 74
0100
0010
0011
0000
1100
0000
0010
0001
,  // measure 75
0100
0010
1000
0010
2000
3000
0100
0001
,  // measure 76
0100
0001
0020
0030
1000
0100
0002
0003
,  // measure 77
0100
1000
1010
0000
0101
0000
0010
1000
,  // measure 78
0100
0010
0100
0000
1100
0000
1010
0000
,  // measure 79
0010
0100
0001
0100
0002
0000
0013
1000
,  // measure 80
0010
1000
0200
0000
0301
0010
1000
0010
,  // measure 81
0001
0100
0010
1010
0000
0001
1000
0100
,  // measure 82
0010
1000
0000
0010
0100
0010
0100
1000
,  // measure 83
0010
0011
1010
0011
,  // measure 84
1010
1000
0100
0000
0010
1000
0010
0001
,  // measure 85
1000
0001
0100
0001
0100
1000
0020
0000
,  // measure 86
0031
1000
0100
1000
0100
0001
0020
0000
,  // measure 87
1030
0010
1010
0000
0001
0010
0011
0000
,  // measure 88
1100
0101
2002
3003
,  // measure 89
0010
1000
1010
0000
0001
1000
0100
0000
,  // measure 90
0010
0001
0011
0000
1000
0001
0100
0000
,  // measure 91
1000
0100
0001
0100
2000
3000
0001
0010
,  // measure 92
1000
0010
0200
0300
0100
0001
2000
0000
,  // measure 93
3001
0010
1000
0000
0110
0000
0000
0000
,  // measure 94
1000
0010
1000
0000
0200
0000
0320
0000
,  // measure 95
0031
0100
0010
1000
0100
0000
0001
0100
,  // measure 96
0010
1000
0100
0000
1000
0001
0100
0010
;

//---------------dance-single - ----------------
#NOTES:
     dance-single:
     :
     Challenge:
     17:
     0.918184,1.117368,0.453410,0.310228,0.572729,808.000000,751.000000,57.000000,39.000000,0.000000,0.000000,0.918184,1.117368,0.453410,0.310228,0.572729,808.000000,751.000000,57.000000,39.000000,0.000000,0.000000:
// measure 0
0000
0000
0000
0000
,  // measure 1
0000
0000
0000
0000
,  // measure 2
0000
0000
0000
0000
,  // measure 3
0000
0000
0000
0000
,  // measure 4
0000
0000
0000
1100
,  // measure 5
2000
3020
0032
0003
,  // measure 6
0010
0100
0001
1000
0010
0000
1001
0000
,  // measure 7
0010
0100
1000
0001
0010
0000
1001
0000
,  // measure 8
0010
0100
1000
0100
0001
0010
0100
0000
,  // measure 9
1100
0000
1000
0000
0001
0000
0001
0100
,  // measure 10
0010
0000
0010
0000
0100
0000
0100
0001
,  // measure 11
0010
0100
1000
0010
0100
0001
0020
0000
,  // measure 12
1030
0010
0001
1000
,  // measure 13
0100
0010
0001
1000
0010
0100
0001
1000
,  // measure 14
0001
0100
0010
1000
0001
0010
0100
1000
,  // measure 15
0010
1000
0010
1000
0001
0100
0001
0100
0010
1000
0001
0100
0010
1000
0100
0010
,  // measure 16
0002
0010
0013
1001
,  // measure 17
0210
0000
0000
0000
0010
0000
0000
0000
0010
0000
0000
0310
1000
0000
0020
0000
,  // measure 18
0000
0130
0010
0000
0010
0000
1000
0000
0001
0100
0001
0100
0010
0000
0000
0000
,  // measure 19
1001
0000
0000
0000
0210
0000
0000
0000
0010
0000
0000
0310
0001
0000
0020
0000
,  // measure 20
0000
0130
0010
0000
0010
0000
0001
1000
0200
0000
1300
0000
0002
0000
0103
0000
,  // measure 21
0010
0100
0010
0100
0110
0000
0011
0000
,  // measure 22
1010
0000
0011
0000
1010
0001
0100
0010
,  // measure 23
1000
0100
0001
0100
2000
3000
0001
0010
,  // measure 24
1000
0000
0010
0000
0002
0000
0003
0000
1000
0000
0010
0000
0010
0100
0001
0100
,  // measure 25
0001
0000
0000
0000
1010
0000
0000
0000
0101
0000
0100
0001
0000
0100
0001
0000
,  // measure 26
0000
1000
0010
0000
0100
0000
0100
0000
0020
0000
2030
0000
3002
0000
0023
0000
,  // measure 27
0130
0010
0100
0010
0100
0000
0000
1000
0001
0000
0100
0000
1000
0100
0010
0000
,  // measure 28
0000
1000
0001
0000
0100
0000
0100
0000
0020
0000
1030
0000
0002
0000
0013
0000
,  // measure 29
0100
0100
0001
0100
1100
0000
1010
0000
,  // measure 30
0011
0000
0101
0000
1100
0010
0001
0100
,  // measure 31
0010
0100
0020
1030
0001
0010
1000
0000
,  // measure 32
0110
0011
1010
1010
,  // measure 33
2001
0000
0000
0000
3001
0000
0000
0100
0010
0000
0010
1000
0010
0000
0100
0000
,  // measure 34
0001
1000
0100
0000
1000
0001
0100
0000
0010
0000
1000
0010
1000
0010
1000
0000
,  // measure 35
0001
0000
0010
0100
1000
0000
0000
0000
0110
0000
0000
1000
0100
0000
0010
0000
,  // measure 36
0001
0000
0001
0010
0100
0000
0010
0100
1000
0000
0010
0100
0001
0000
1000
0000
,  // measure 37
1001
0000
0000
0000
1010
0000
0000
0001
0100
0000
0100
0010
1000
0000
0001
0000
,  // measure 38
0010
0001
0010
0001
0010
0000
0000
0100
1000
0000
1000
0010
1000
0000
0010
0000
,  // measure 39
1000
0001
1000
0001
1000
0000
0000
0010
0100
0000
0000
0001
0100
0000
0010
0000
,  // measure 40
1000
0100
0010
0000
0001
0100
0010
0000
1000
0100
0010
0000
0001
0100
0010
0100
,  // measure 41
0001
0000
0001
0000
1001
0000
0000
0010
1000
0000
1000
0001
0100
0000
0010
0000
,  // measure 42
1000
0100
1000
0000
0001
0100
0001
0000
1000
0000
0010
0100
0010
0100
0010
0000
,  // measure 43
1000
0001
1000
0001
1000
0000
0000
0001
0010
0000
0010
0100
1000
0000
0100
0000
,  // measure 44
0010
0100
1000
0000
0010
0100
0001
0000
0100
0000
1000
0000
0100
0000
0001
0000
,  // measure 45
0010
0000
0000
0000
1100
0000
0000
0001
0010
0000
0010
0100
1000
0000
0001
0000
,  // measure 46
1000
0010
0100
0000
0001
0100
0010
0000
1000
0100
0010
0100
0010
0000
0001
0000
,  // measure 47
0010
0001
0010
0001
0100
0010
0100
0010
1000
0100
1000
0100
0010
0001
1000
0010
,  // measure 48
0100
0000
1010
0101
0000
1001
1001
0000
,  // measure 49
2002
0000
0003
0000
,  // measure 50
3001
0010
0100
1000
0010
0000
1001
0000
,  // measure 51
0001
0010
0100
1000
0020
0000
0032
0000
,  // measure 52
0013
0100
0001
1000
0010
0100
0001
0010
,  // measure 53
0220
0000
0330
0000
0000
0110
0000
0001
,  // measure 54
1001
0000
0000
1010
0000
1000
0010
0100
,  // measure 55
0101
0000
0010
0000
1100
0000
0010
0101
,  // measure 56
0000
0001
0010
1000
0001
0100
1000
0001
,  // measure 57
1001
0010
2001
3100
,  // measure 58
1001
0010
1002
0103
,  // measure 59
0010
1000
0100
0010
0001
0100
0010
0000
,  // measure 60
1020
0000
0001
0000
1000
0000
0031
0010
,  // measure 61
1000
0001
1000
0001
0010
0100
0010
0100
,  // measure 62
1000
0010
0100
0001
1000
0100
0010
0001
,  // measure 63
0010
0100
0010
0100
1000
0000
0001
0000
0100
0010
0100
0010
1000
0000
0001
0000
,  // measure 64
0010
0001
0010
0001
1000
0100
1000
0100
0010
0001
1000
0010
0100
0001
1000
0100
,  // measure 65
0010
0000
0001
0100
0000
0001
0100
0000
0010
0000
1000
0001
0010
0100
1000
0000
,  // measure 66
0001
0000
1000
0010
0000
0100
0001
0000
1000
0000
0010
0000
0001
0000
0010
0000
,  // measure 67
1000
0000
0001
0100
0000
0001
0100
0000
0001
0000
0010
0000
1000
0010
0100
0000
,  // measure 68
1000
0000
0001
0010
0000
0100
1000
0000
0001
0000
0010
0000
1000
0000
0010
0000
,  // measure 69
0001
0001
1000
1000
0100
0100
0010
0010
,  // measure 70
0001
0001
1000
1000
0010
0010
0100
0100
,  // measure 71
0001
1000
0001
1000
0100
0010
0100
0010
0001
1000
0010
0100
0001
0010
0100
1000
,  // measure 72
0010
0000
0010
0000
0010
0010
0110
0000
,  // measure 73
1001
0000
0001
0000
0010
0000
0001
0000
0100
0001
1000
0000
0010
1000
0001
0000
,  // measure 74
0010
0000
0100
0000
1000
0000
0100
0000
0010
0001
1000
0000
0100
1000
0001
0000
,  // measure 75
1000
0000
0010
0000
0100
0001
0100
0000
0001
0010
0001
0000
1000
0000
0010
0000
,  // measure 76
0100
0001
0100
0000
0001
0010
0100
0000
1000
0100
1000
0000
0001
0100
0001
0000
,  // measure 77
1000
0000
0001
0000
0010
0000
0100
0000
1000
0001
1000
0000
0010
0100
0010
0000
,  // measure 78
1000
0000
0001
0000
0010
0000
0001
0000
0100
0001
0100
0000
0010
1000
0010
0000
,  // measure 79
1000
0000
0100
0000
0010
0001
0010
0100
2000
0000
0000
0000
3001
0000
0100
0000
,  // measure 80
0010
1000
0010
0100
0002
0000
0000
0000
1003
0100
1000
0000
0001
0100
0001
0000
,  // measure 81
1000
0000
0100
0000
0010
0001
0010
0000
0100
0000
0010
0000
1000
0000
0010
0000
,  // measure 82
0001
0000
0010
0100
1000
0000
0100
0000
1000
0100
0010
0000
0001
0010
0100
0000
,  // measure 83
2000
0000
3010
0001
0010
1000
0010
0001
,  // measure 84
0010
1000
0001
1000
0001
0000
1000
0000
0100
0010
0100
0000
0010
0100
0010
0000
,  // measure 85
0001
0100
1000
0100
0010
0100
2000
3020
,  // measure 86
1030
0100
0001
0100
0010
0100
0002
0023
,  // measure 87
0130
1000
0100
0000
0010
0001
0010
0000
0001
0100
0001
0000
1000
0010
1000
0000
,  // measure 88
0100
0010
0001
1000
0010
0100
0001
0010
0100
0000
1000
0000
0010
0000
0001
0000
,  // measure 89
0010
0100
0010
0000
0110
0100
0101
0000
,  // measure 90
0010
0100
0010
0000
0110
0100
2100
0000
,  // measure 91
3010
1000
0100
1000
0010
0000
0010
0001
,  // measure 92
0100
0001
1000
0000
0100
0001
0200
0000
,  // measure 93
1300
0010
0001
0000
0110
0001
1000
0000
,  // measure 94
0001
0010
0100
0000
1100
0000
1010
0000
,  // measure 95
0010
1000
0100
0001
0010
0000
0010
0001
,  // measure 96
0100
1000
0010
0000
0100
0010
1000
0001
;

//---------------dance-single - ----------------
#NOTES:
     dance-single:
     :
     Medium:
     10:
     0.547729,0.539419,0.127273,0.397728,0.000000,482.000000,466.000000,16.000000,50.000000,0.000000,0.000000,0.547729,0.539419,0.127273,0.397728,0.000000,482.000000,466.000000,16.000000,50.000000,0.000000,0.000000:
// measure 0
0000
0000
0000
0000
,  // measure 1
0000
0000
0000
0000
,  // measure 2
0000
0000
0000
0000
,  // measure 3
0000
0000
0000
0000
,  // measure 4
0000
0000
0000
0000
,  // measure 5
1010
0200
0301
0000
,  // measure 6
1000
0001
0100
0000
0200
0000
0300
0000
,  // measure 7
1000
0001
0100
0000
0200
0000
0300
0010
,  // measure 8
0000
1000
0001
0000
0100
0001
1000
0000
,  // measure 9
0100
0200
0010
0310
,  // measure 10
0001
0002
1000
1003
,  // measure 11
0010
1000
0001
0000
1000
0100
0020
0000
,  // measure 12
0100
0100
0130
0001
,  // measure 13
1000
0010
1000
0000
0001
0100
0001
0000
,  // measure 14
0010
0001
0010
0000
0100
1000
0100
0000
,  // measure 15
1000
0010
1000
0010
0100
0010
0200
0000
,  // measure 16
0302
0000
2000
3003
,  // measure 17
1002
0000
0013
0000
0010
0000
0001
0010
,  // measure 18
0000
0010
0100
0010
0100
1000
0001
0000
,  // measure 19
2001
0000
3010
0000
0010
0000
1000
0010
,  // measure 20
0000
0010
0100
0010
0200
0300
0200
0300
,  // measure 21
0001
0100
0001
0100
0001
0000
0010
0000
,  // measure 22
1000
0010
0001
0010
,  // measure 23
0100
1000
0001
0000
0100
0000
0100
1000
,  // measure 24
0001
0000
0100
0000
1000
0001
1000
0000
,  // measure 25
1002
0000
0100
0000
0103
0000
0001
0100
,  // measure 26
0000
0010
0010
1000
0002
0000
0203
0000
,  // measure 27
0301
1000
0100
0000
0100
0000
1000
0100
,  // measure 28
0000
0010
0010
0001
2000
3000
2000
3000
,  // measure 29
0001
0100
0010
0000
0110
0000
0200
0000
,  // measure 30
0001
0010
1000
0010
,  // measure 31
0301
1000
0001
1000
0100
0010
0001
0000
,  // measure 32
0001
0000
1000
0010
0200
0300
0200
0300
,  // measure 33
1001
0000
0001
0000
0001
0000
0010
0100
,  // measure 34
1000
0010
0100
0000
0001
0100
0010
0000
,  // measure 35
1000
1000
0001
0000
0010
0000
0100
0010
,  // measure 36
0001
1000
0100
0010
,  // measure 37
1001
0000
1000
0000
1000
0000
0100
0010
,  // measure 38
0001
0100
0010
0000
1000
0010
0100
0000
,  // measure 39
0001
0001
1000
0000
0100
0000
0010
0001
,  // measure 40
0020
0032
0203
0310
,  // measure 41
1000
0001
1000
0000
0100
0000
0010
0100
,  // measure 42
1000
0100
0010
0000
0010
0001
1000
0000
,  // measure 43
1000
0010
0001
0000
0010
0000
0010
0100
,  // measure 44
0001
1000
0002
0203
,  // measure 45
0310
0100
0010
0000
1000
0000
0001
0000
,  // measure 46
0010
0001
0010
0000
0100
1000
0100
0000
,  // measure 47
0010
0001
0010
0100
1000
0100
0010
0000
,  // measure 48
0001
0000
0100
0010
0000
2000
0000
0000
,  // measure 49
3001
0000
0000
0000
,  // measure 50
0001
1000
0100
0000
0200
0000
0300
0000
,  // measure 51
0001
1000
0100
0000
0200
0000
0300
1000
,  // measure 52
0000
0002
0000
0000
0003
0000
0100
0000
,  // measure 53
0110
0000
0000
0000
0000
1010
0000
0000
,  // measure 54
1001
0000
0000
0101
0000
0000
0110
0000
,  // measure 55
0100
0000
0010
0000
1000
0000
0001
0010
,  // measure 56
0000
0100
1000
0000
0001
0010
0100
0000
,  // measure 57
1000
2000
0010
3010
,  // measure 58
0001
0002
0100
0103
,  // measure 59
0010
1000
0001
0000
0100
1000
0200
0000
,  // measure 60
0010
0010
0310
0110
,  // measure 61
0001
0010
0001
0000
1000
0100
1000
0000
,  // measure 62
0010
1000
0010
0000
0100
0001
0100
0000
,  // measure 63
0010
0100
0010
0100
0010
1000
0020
0000
,  // measure 64
2030
0000
0002
3003
,  // measure 65
1001
0000
0010
0000
1000
0001
0100
0000
,  // measure 66
0001
1000
0010
1000
0001
0000
0100
0000
,  // measure 67
0010
1000
0010
0000
0100
0001
0100
0000
,  // measure 68
0010
0000
1000
0000
0100
0010
0001
0010
,  // measure 69
0100
1000
0010
0100
,  // measure 70
0001
0010
0100
1000
,  // measure 71
0010
0100
0010
0100
0001
1000
0200
0000
,  // measure 72
0010
0010
0010
0320
,  // measure 73
0031
0010
0001
0000
0010
0000
0100
0000
,  // measure 74
1000
0010
1000
0000
0010
0000
0100
0000
,  // measure 75
0001
1000
0010
1000
0001
0000
1000
0001
,  // measure 76
0100
0001
1000
0000
0100
0010
0100
0000
,  // measure 77
1000
0100
1000
0000
0100
0000
0010
0000
,  // measure 78
0001
0100
0001
0000
0100
0000
1000
0000
,  // measure 79
0100
0010
1000
0010
0100
0000
0001
0100
,  // measure 80
0010
0100
0001
0000
0010
0000
0100
0000
,  // measure 81
1000
0100
0010
0001
0000
0001
0000
0100
,  // measure 82
0010
1000
0000
0010
0100
0001
0200
0000
,  // measure 83
0320
1030
0100
0001
,  // measure 84
0100
1000
0100
0000
0100
1000
0001
1000
,  // measure 85
0100
0100
1000
0010
,  // measure 86
0001
0100
0001
0000
0010
0000
1000
0000
,  // measure 87
0100
0010
0100
0010
0001
1000
0020
0000
,  // measure 88
0230
0000
0302
2003
,  // measure 89
3100
0010
0001
0000
2002
0000
3003
0000
,  // measure 90
0100
0010
1000
0000
2002
0000
3003
0000
,  // measure 91
0100
1000
0010
1000
0100
0000
0010
0001
,  // measure 92
0100
0001
0010
0000
0001
1000
0001
0000
,  // measure 93
0100
0010
1000
0000
0100
0000
0010
0000
,  // measure 94
0001
0100
0010
0000
2000
0000
3200
0000
,  // measure 95
0310
0100
1000
0100
0010
0000
0001
0100
,  // measure 96
0010
0100
0001
0000
0010
0100
1000
1000
;

//---------------dance-single - ----------------
#NOTES:
     dance-single:
     :
     Easy:
     8:
     0.355683,0.384802,0.151137,0.143182,0.000000,313.000000,294.000000,19.000000,18.000000,0.000000,0.000000,0.355683,0.384802,0.151137,0.143182,0.000000,313.000000,294.000000,19.000000,18.000000,0.000000,0.000000:
// measure 0
0000
0000
0000
0000
,  // measure 1
0000
0000
0000
0000
,  // measure 2
0000
0000
0000
0000
,  // measure 3
0000
0000
0000
0000
,  // measure 4
0000
0000
0000
0000
,  // measure 5
0001
0010
0100
0000
,  // measure 6
1000
0100
1000
0000
,  // measure 7
0001
0100
0001
0000
,  // measure 8
1000
0100
0010
0001
,  // measure 9
1000
0010
0010
0000
,  // measure 10
0001
0010
0010
0000
,  // measure 11
1000
0010
0100
0001
,  // measure 12
0020
0030
0200
0300
,  // measure 13
1000
0100
1000
0100
,  // measure 14
0010
0001
0010
0001
,  // measure 15
0100
0010
1000
0001
,  // measure 16
0200
0000
0000
0300
,  // measure 17
0110
0000
0000
1001
,  // measure 18
0000
0000
0001
0010
,  // measure 19
0110
0000
0000
1001
,  // measure 20
0000
0000
1000
0100
,  // measure 21
0010
0010
0010
0110
,  // measure 22
0000
1000
0001
0100
,  // measure 23
0010
0100
0010
1000
,  // measure 24
0001
1000
0010
0100
,  // measure 25
0001
0000
0000
1001
,  // measure 26
0000
0000
0110
0100
,  // measure 27
1000
0000
0000
1001
,  // measure 28
0000
0000
0110
0010
,  // measure 29
0100
0001
1000
0100
,  // measure 30
0010
0100
0010
0001
,  // measure 31
1000
0010
0100
0010
,  // measure 32
2000
3000
0002
0003
,  // measure 33
1001
0001
0010
0001
,  // measure 34
0010
0100
1000
0000
,  // measure 35
1001
1000
0010
1000
,  // measure 36
0010
0100
0001
1000
,  // measure 37
0010
1000
0001
0010
,  // measure 38
0100
0100
0100
0000
,  // measure 39
0010
0001
1000
0010
,  // measure 40
0100
0100
0001
0001
,  // measure 41
0000
1000
0100
0001
,  // measure 42
0100
1000
0001
0010
,  // measure 43
0001
0100
1000
0100
,  // measure 44
0001
0100
0010
1000
,  // measure 45
0001
0010
0100
1000
,  // measure 46
0001
0100
0010
1000
,  // measure 47
0001
0010
1000
0010
,  // measure 48
0002
0000
0000
1003
0000
0000
0000
0000
,  // measure 49
1001
0000
0000
0000
,  // measure 50
0001
0100
0001
0000
,  // measure 51
1000
0010
1000
0000
,  // measure 52
0001
0100
0001
0100
,  // measure 53
0010
0000
0000
0000
,  // measure 54
1001
0000
0000
0001
,  // measure 55
1000
1000
0001
1000
,  // measure 56
0001
0010
0200
0300
,  // measure 57
1000
0100
0100
0000
,  // measure 58
0001
0100
0100
0000
,  // measure 59
1000
0100
0010
0001
,  // measure 60
0200
0300
0020
0030
,  // measure 61
1000
0010
1000
0010
,  // measure 62
0100
0001
0100
0001
,  // measure 63
0010
0100
1000
0001
,  // measure 64
0020
0000
0000
0030
,  // measure 65
0110
0000
0001
0000
,  // measure 66
1000
0010
0001
0010
,  // measure 67
1000
0000
0001
0000
,  // measure 68
1000
0100
0001
0100
,  // measure 69
1000
1000
0100
0100
,  // measure 70
0001
0001
0010
0010
,  // measure 71
2000
0000
0002
3003
,  // measure 72
0220
0000
0000
0330
,  // measure 73
0001
0001
0100
0000
,  // measure 74
0010
0010
1000
0000
,  // measure 75
0001
0001
0100
0010
,  // measure 76
1000
1000
0001
1000
,  // measure 77
0001
0001
0010
0000
,  // measure 78
0100
0100
1000
0010
,  // measure 79
0200
0010
0310
0002
,  // measure 80
1000
1003
0100
0010
,  // measure 81
0001
0001
0000
1000
,  // measure 82
0010
0001
0010
1000
,  // measure 83
0001
0010
0010
0010
,  // measure 84
0100
0000
1000
0000
,  // measure 85
0001
0100
1000
0000
,  // measure 86
1000
0010
0001
0000
,  // measure 87
1000
0100
0010
0001
,  // measure 88
2000
0000
0002
3003
,  // measure 89
0100
0001
1001
0000
,  // measure 90
0100
1000
1001
0000
,  // measure 91
1000
0100
0010
0001
,  // measure 92
0100
0010
1000
0100
,  // measure 93
0010
0001
0011
0000
,  // measure 94
1000
0010
0100
0101
,  // measure 95
0001
0010
0100
0001
,  // measure 96
0010
0100
1000
0001
;

//---------------dance-single - ----------------
#NOTES:
     dance-single:
     :
     Beginner:
     4:
     0.185228,0.307842,0.063637,0.206819,0.000000,163.000000,155.000000,8.000000,26.000000,0.000000,0.000000,0.185228,0.307842,0.063637,0.206819,0.000000,163.000000,155.000000,8.000000,26.000000,0.000000,0.000000:
// measure 0
0000
0000
0000
0000
,  // measure 1
0000
0000
0000
0000
,  // measure 2
0000
0000
0000
0000
,  // measure 3
0000
0000
0000
0000
,  // measure 4
0000
0000
0000
0000
,  // measure 5
1001
0000
0000
0000
,  // measure 6
0001
0000
0010
0000
,  // measure 7
0001
0000
0010
0000
,  // measure 8
0100
0000
0000
0000
,  // measure 9
1000
0000
0010
0000
,  // measure 10
0100
0000
0001
0000
,  // measure 11
1000
0000
0001
0000
,  // measure 12
1001
0000
0000
0000
,  // measure 13
0001
0000
0010
0000
,  // measure 14
0100
0000
1000
0000
,  // measure 15
0001
0000
1000
0000
,  // measure 16
1001
0000
0000
0000
,  // measure 17
0020
0030
0000
0020
,  // measure 18
0000
0000
0030
0000
,  // measure 19
0200
0300
0000
0200
,  // measure 20
0000
0000
0300
0000
,  // measure 21
0001
0001
0000
2000
,  // measure 22
0000
0000
3000
0000
,  // measure 23
1000
0000
0010
0000
,  // measure 24
1000
0000
0010
0000
,  // measure 25
0200
0300
0000
0200
,  // measure 26
0000
0000
0300
0000
,  // measure 27
0020
0030
0000
0020
,  // measure 28
0000
0000
0030
0000
,  // measure 29
1000
1000
0000
0002
,  // measure 30
0000
0000
0003
0000
,  // measure 31
0010
0000
0100
0000
,  // measure 32
0110
0000
0000
0000
,  // measure 33
0000
0001
0000
0001
,  // measure 34
0000
0100
0000
0010
,  // measure 35
0000
1000
0000
1000
,  // measure 36
0000
0002
0000
0003
,  // measure 37
0000
1000
0000
1000
,  // measure 38
0000
0100
0000
0010
,  // measure 39
0000
0001
0000
0001
,  // measure 40
0000
2000
0000
3000
,  // measure 41
0000
0001
0000
0010
,  // measure 42
0000
0100
0000
1000
,  // measure 43
0000
0001
0000
0010
,  // measure 44
0000
0002
0000
0003
,  // measure 45
0000
1000
0000
0010
,  // measure 46
0000
0100
0000
0001
,  // measure 47
0000
1000
0000
0010
,  // measure 48
0000
0000
0000
0000
,  // measure 49
1001
0000
0000
0000
,  // measure 50
0001
0000
0100
0000
,  // measure 51
0001
0000
0100
0000
,  // measure 52
0010
0000
0000
0000
,  // measure 53
1001
0000
0000
0000
,  // measure 54
0110
0000
0000
0000
,  // measure 55
0001
0000
1000
0000
,  // measure 56
0001
0000
1000
1000
,  // measure 57
1000
0000
0100
0000
,  // measure 58
0010
0000
0100
0000
,  // measure 59
1000
0000
0100
0000
,  // measure 60
0010
0000
0000
0000
,  // measure 61
0001
0000
0100
0000
,  // measure 62
0010
0000
0100
0000
,  // measure 63
0001
0000
0100
0000
,  // measure 64
0020
0000
0030
0000
,  // measure 65
2000
0000
3000
0000
,  // measure 66
0200
0000
0300
0000
,  // measure 67
0020
0000
0030
0000
,  // measure 68
0002
0000
0003
0000
,  // measure 69
0100
0000
0010
0000
,  // measure 70
1000
0000
0001
0000
,  // measure 71
1000
0001
1000
0001
,  // measure 72
1001
0000
0000
0000
,  // measure 73
1000
1000
1000
0000
,  // measure 74
0001
0001
0001
0000
,  // measure 75
0100
0000
0010
0000
,  // measure 76
0100
0000
0001
0000
,  // measure 77
1000
1000
1000
0000
,  // measure 78
0001
0001
0001
0000
,  // measure 79
0010
0000
0100
0000
,  // measure 80
0010
0000
0001
0000
,  // measure 81
1000
0000
0010
0000
,  // measure 82
0001
0000
0010
0000
,  // measure 83
1000
0000
1000
0000
,  // measure 84
1000
0000
0100
0000
,  // measure 85
0010
0000
0002
0003
,  // measure 86
0100
0000
2000
3000
,  // measure 87
0010
0000
0100
0000
,  // measure 88
0002
0000
0003
0000
,  // measure 89
0020
0030
0000
0200
,  // measure 90
0000
0000
0300
0000
,  // measure 91
1000
0000
0001
0000
,  // measure 92
1000
0000
0001
0000
,  // measure 93
0020
0030
0000
0200
,  // measure 94
0000
0000
0300
0000
,  // measure 95
1000
0000
0001
0000
,  // measure 96
0100
0000
0020
0030
;
