#TITLE:Necroxis Girl;
#SUBTITLE:;
#ARTIST:HuΣeR;
#TITLETRANSLIT:;
#SUBTITLETRANSLIT:;
#ARTISTTRANSLIT:;
#GENRE:;
#CREDIT:;
#BANNER:;
#BACKGROUND:Necroxis Girl-bg.png;
#LYRICSPATH:;
#CDTITLE:;
#MUSIC:Necroxis Girl.ogg;
#OFFSET:-8.000000;
#SAMPLESTART:75.199997;
#SAMPLELENGTH:10.000000;
#SELECTABLE:YES;
#BPMS:0.000000=150.000000
;
#STOPS:
;
#BGCHANGES:;
#KEYSOUNDS:;
#ATTACKS:;

//---------------dance-single - ----------------
#NOTES:
     dance-single:
     :
     Hard:
     16:
     0.700895,0.792096,0.405337,0.371559,0.785340,581.000000,533.000000,48.000000,44.000000,0.000000,0.000000,0.700895,0.792096,0.405337,0.371559,0.785340,581.000000,533.000000,48.000000,44.000000,0.000000,0.000000:
// measure 0
0000
0000
0000
0000
,  // measure 1
1002
0000
0000
0000
0000
0000
0000
0013
,  // measure 2
0210
0000
0010
0000
,  // measure 3
1300
0000
0000
0000
1000
0010
0000
0001
,  // measure 4
2001
0000
0001
0000
,  // measure 5
3010
0000
0000
0000
0001
0010
0000
1000
,  // measure 6
1002
0000
0100
0000
,  // measure 7
0013
0000
0000
0000
0100
1000
0000
0001
,  // measure 8
2001
0000
0010
0000
,  // measure 9
3100
0010
0100
0010
0100
0010
0100
0010
0001
1000
0001
1000
0020
0000
0000
0000
,  // measure 10
0230
0001
1000
0001
,  // measure 11
1000
0000
0000
0000
0001
0000
0000
0000
1000
0000
0000
0000
0301
0010
0100
1000
,  // measure 12
0002
0000
0010
0000
0100
0000
0013
0100
,  // measure 13
2000
0000
0000
0000
0010
0000
0000
0000
3100
0000
1000
0000
0010
0100
0000
0100
,  // measure 14
0001
0000
1000
0100
0000
0100
1000
0000
1000
0001
0000
0001
1000
0000
0001
0010
,  // measure 15
0001
0000
0001
0100
0000
0100
0001
0000
0001
1000
0000
1000
0010
0000
0010
0100
,  // measure 16
0001
0000
0001
1000
0000
1000
0100
0000
0100
0010
0000
0010
0001
0000
1000
0001
,  // measure 17
0010
0100
1000
0001
0100
0010
1000
0001
0020
0000
0000
0000
0130
0000
0000
0000
,  // measure 18
2001
0000
3010
0000
1001
0100
0001
1001
,  // measure 19
0100
0000
1000
0000
1001
0000
0100
0000
0001
0000
0010
0000
0100
1000
0001
0100
,  // measure 20
0010
0000
0100
0001
0000
0100
0010
0000
2000
0000
0000
0000
3100
1000
0100
1000
,  // measure 21
0001
0100
0001
0100
0020
0000
0000
0000
0000
0000
1030
0001
1000
0000
0000
0000
,  // measure 22
1100
0000
0101
0000
2001
0000
0000
0000
3100
0000
1000
0010
0100
0000
0001
0010
,  // measure 23
0001
0000
0010
0100
1000
0000
0001
0010
0001
0000
0010
0100
1000
0000
0100
0000
,  // measure 24
1100
0000
0101
0000
1100
0000
0101
0000
0210
0000
0000
0000
0301
0000
0001
0010
,  // measure 25
0100
0000
0100
0000
1000
0010
1000
0000
0001
0010
0001
0000
0100
0010
0100
0000
,  // measure 26
0001
0000
0000
1000
0000
0000
0001
0000
0010
0000
0100
0000
1000
0000
0001
0000
0100
0000
0000
0000
0100
0000
0001
0000
,  // measure 27
1000
0100
0010
0000
0001
1000
0010
0100
0001
0000
1000
0100
,  // measure 28
0001
0100
1000
0010
0001
0010
1000
0001
0010
0000
0010
0100
,  // measure 29
1000
0001
0100
0000
0100
0001
1000
0000
0010
0100
0001
1000
,  // measure 30
0100
0000
0000
0000
0010
0000
0000
0000
0001
0000
0000
0000
1000
0000
0000
0010
0000
0000
1000
0000
0000
0010
0000
0000
1000
0000
0000
0000
0001
0000
0000
0000
1000
0000
0000
0000
0000
0000
0000
0000
0010
0000
0000
0000
1000
0000
0000
0000
,  // measure 31
0001
1000
0100
0000
0010
0001
1000
0001
0100
0010
1000
0001
,  // measure 32
0010
0001
0010
0001
0010
0001
0010
0001
0100
0000
0000
1010
0000
0000
1000
0100
,  // measure 33
0010
0001
0011
1000
1010
0100
0002
0000
,  // measure 34
2000
0000
0000
0000
,  // measure 35
3003
0000
0000
0000
,  // measure 36
1001
0001
2000
0000
0000
0000
0000
0000
,  // measure 37
3000
0000
0000
0000
0000
0000
0000
0010
,  // measure 38
0210
0000
1000
0000
,  // measure 39
0301
0000
0000
0000
1000
0000
0000
0100
,  // measure 40
0120
0000
0001
0000
,  // measure 41
0130
1000
0001
1000
0001
1000
0001
1000
0020
0000
0030
0000
0100
0010
1000
0001
,  // measure 42
0010
0000
0000
0000
0110
0000
0100
1000
0001
0000
0000
0000
0110
0000
0100
1000
,  // measure 43
0001
0000
0000
0001
1000
0000
0100
0000
1000
0000
0000
0000
0100
0010
0001
1000
,  // measure 44
0010
0000
0000
0000
0110
0000
0100
0001
1000
0000
0000
0000
0110
0000
0001
0100
,  // measure 45
0010
0000
0000
0010
1000
0000
0001
0000
0100
0000
0001
0000
0010
0100
0000
0100
,  // measure 46
1000
0000
0010
0100
0000
0100
0001
0000
0001
1000
0000
1000
0010
0000
0100
0010
,  // measure 47
0100
0000
0001
1000
0000
1000
0100
0000
0100
0010
0000
0010
0001
0000
1000
0001
,  // measure 48
1000
0010
0100
0010
0100
0000
0001
1000
0001
0010
0100
0010
0100
0000
1000
0001
,  // measure 49
0200
0320
2030
3002
0023
0100
0200
0330
,  // measure 50
1010
0000
0100
0010
1000
0010
0100
0010
1000
0000
0001
0010
0100
1000
0100
0000
,  // measure 51
1000
0001
0100
0010
1000
0000
0001
1000
0100
0010
0002
0000
2003
0000
3020
0000
,  // measure 52
0130
0001
0100
0000
0001
0010
0000
1000
0010
0000
0001
0000
1001
0000
1000
0100
,  // measure 53
0010
0001
1000
0010
0200
0000
0302
0000
2003
0000
3200
0000
0310
0100
0010
0000
,  // measure 54
0011
0000
1010
0000
0011
0000
0000
1001
0000
0000
0010
1000
0100
0010
0002
0000
,  // measure 55
0203
0000
2300
0000
3002
0000
0023
0000
0230
0000
0000
0000
0301
1000
0001
0000
,  // measure 56
0011
0000
1100
0000
0011
0000
1100
0000
0001
0010
0100
0000
2000
0000
3020
0000
,  // measure 57
0130
0001
1000
0000
0001
0010
0001
0000
1000
0010
1000
0000
0100
0010
0100
0000
,  // measure 58
1000
0000
0000
0000
0000
0000
0001
0000
0000
0000
0000
0000
1000
0000
0000
0000
0100
0000
0000
0000
0010
0000
0000
0000
0001
0000
0000
0000
0000
0000
1000
0000
0000
0000
0000
0000
1100
0000
0000
0000
0000
0000
1000
0000
0000
0001
0000
0000
,  // measure 59
1000
0000
0001
0000
0101
0000
0001
1000
0001
0000
1000
0000
0100
0010
0000
0001
,  // measure 60
0100
0000
0000
0000
1000
0000
0000
0000
0001
0000
0000
0000
0010
0000
0000
0000
1000
0000
0000
0000
0100
0000
0000
0000
0010
0000
0000
0000
0000
0000
0001
0000
0000
0000
0000
0000
0011
0000
0000
0000
0000
0000
0001
0000
0000
1000
0000
0000
,  // measure 61
0001
0000
0100
0000
1010
0000
1000
0001
1000
0000
0100
0000
0010
0001
0000
1000
,  // measure 62
0100
0000
0000
0010
0000
0000
0100
0000
0000
0010
0000
0000
0001
0000
0100
0000
0010
0000
1000
0000
0000
0100
0000
0000
0010
0000
0000
0000
0000
0000
0001
0000
0000
0000
0000
0000
1001
0000
0000
0000
0000
0000
0100
0000
0000
1000
0000
0000
,  // measure 63
0010
0000
1000
0000
1001
0000
0100
0001
0010
0000
0001
0000
0010
0100
0000
1000
,  // measure 64
0010
1000
0010
0100
0001
0100
0001
1000
0100
0000
0000
0011
0000
0000
0001
0100
,  // measure 65
0010
0000
1000
0000
1010
0000
0001
0000
0011
0000
0100
1000
0001
0100
0010
0000
,  // measure 66
2002
0000
0000
3003
,  // measure 67
0110
0000
0000
0000
;

//---------------dance-single - ----------------
#NOTES:
     dance-single:
     :
     Challenge:
     17:
     0.792579,0.933542,0.574227,0.439115,0.958453,657.000000,589.000000,68.000000,52.000000,0.000000,0.000000,0.792579,0.933542,0.574227,0.439115,0.958453,657.000000,589.000000,68.000000,52.000000,0.000000,0.000000:
0000
0000
0000
0000
,
0210
0000
0000
0000
0000
0000
0000
1300
,
1002
0000
0000
0000
,
0203
0000
0000
0000
,
0302
0000
0000
0000
,
0023
0000
0000
0000
0000
0000
0000
0031
,
2001
0000
3020
0000
,
0032
0000
0203
0000
,
2300
0000
3020
0000
,
0031
0010
0001
0010
0100
1000
0100
1000
0001
0100
0010
1000
0002
0000
0000
0000
,
0013
0110
1100
0110
,
0011
0000
0000
0000
0110
0000
0000
0000
1100
0000
0000
0000
0010
0001
0100
0010
,
1000
0000
0101
0000
1010
0000
0101
0001
,
1001
0000
0000
0000
1100
0000
0000
0000
0011
0000
0001
0000
0100
0010
0000
0010
,
0100
0001
0100
0010
1000
0010
0100
0001
0100
0010
1000
0010
1000
0001
0010
0100
,
1000
0100
1000
0001
0010
0001
1000
0100
1000
0001
0010
0001
1000
0001
0100
0010
,
1000
0001
1000
0001
1000
0100
0001
0100
1000
0001
1000
0001
1000
0010
0001
0010
,
1000
0100
0010
0001
0100
0010
1000
0100
0020
0000
0000
0000
0031
0100
0001
0010
,
0200
0000
2300
0000
3010
0101
1100
0010
,
1100
0000
0101
0000
0010
0000
0101
0000
1100
0000
2000
0000
3100
0010
0001
0010
,
0100
0000
1000
0010
0000
0100
0010
0000
0201
0000
0000
0000
0301
0010
0100
1000
,
0001
0100
1000
0001
0020
0000
0000
0000
0230
0000
0301
0000
2002
0000
3003
0000
,
1100
0000
0101
0000
2100
0000
0000
0000
3010
0000
1000
0000
1001
0000
1000
0010
,
1000
0001
0010
0100
1000
0000
1000
0010
1000
0001
0010
0100
1000
0000
0001
0000
,
0101
0000
1010
0000
0101
0000
1010
0000
0011
0000
0000
0001
0100
0000
0100
0010
,
1000
0000
1010
0000
0100
0010
0100
0000
0100
0001
0100
0000
1000
0100
0010
0000
,
1001
0000
0000
0110
0000
0000
0010
0000
1000
0000
0100
0000
0001
0000
0100
0000
1000
0000
0000
0000
1000
0000
0010
0000
,
0001
0010
1000
0000
1000
0100
0001
0100
1000
0010
0100
0001
,
1001
1000
0100
0110
0010
0001
1001
1000
0001
0000
0001
0100
,
1000
0100
0001
0000
0001
0010
1000
0010
0001
1000
0010
0100
,
0101
0000
0000
0000
0001
0000
0000
0000
1000
0000
0000
0000
0100
0000
0000
0010
0000
0000
0100
0000
0000
0010
0000
0000
0100
0000
0000
0000
1000
0000
0000
0000
0001
0000
0000
0000
0011
0000
0000
0000
0010
0000
0000
0000
0100
0000
0000
0000
,
0001
0100
1000
1001
0001
0100
1000
0100
0010
0110
1000
0100
,
0010
0001
0010
0001
1000
0010
1000
0010
0100
0000
0000
0001
1000
0000
0010
1000
,
0001
0000
0110
0000
0100
0001
0010
0000
0010
0100
1000
0000
1000
0010
0100
0000
,
2002
0000
0000
0000
,
3003
0000
0000
0000
,
1001
1001
0220
0000
0000
0000
0000
0000
,
0330
0000
0000
0000
0000
0000
0000
0110
,
0201
1000
0302
0010
,
0203
0010
0302
1000
,
0013
0110
2100
0000
0010
0000
0100
0000
,
3010
0100
0001
1000
0010
0100
0001
0010
0200
0000
0000
0000
1300
0001
0010
0001
,
0100
0000
0000
0000
0110
0000
1000
0100
0001
0000
0000
0000
0110
0000
1000
0100
,
0001
0000
0000
0100
0010
0000
0001
0000
1000
0000
0000
0000
1000
0001
0100
1000
,
0100
0000
0000
0000
0110
0000
0001
0100
1000
0000
0000
0000
0110
0000
0001
0010
,
1000
0000
0000
0010
0100
0000
1000
0000
0001
0000
1000
0000
0100
0010
0000
0010
,
0100
0000
1000
0010
0000
0010
1000
0000
0001
0010
0000
0010
0001
0100
0010
1000
,
0001
0000
1000
0100
0000
0100
1000
0000
0001
0100
0000
0100
0001
1000
0100
0010
,
0001
1000
0001
1000
0001
0000
0100
0001
0010
0100
0010
0100
0010
0000
1000
0010
,
0001
1000
0001
0100
1000
0100
0001
1000
0002
0000
0023
0000
0230
0000
2300
0000
,
3001
0100
0010
0100
0001
0100
0010
0100
0001
0000
0001
1000
0001
0100
1000
0000
,
0100
0010
1000
0100
0001
0000
1000
0010
0001
0100
2000
0000
3002
0000
0023
0000
,
1030
0001
1000
0000
0110
0000
0110
0000
0001
1000
0001
1000
0020
0000
0000
0130
,
0001
0000
0000
1000
0000
0000
0100
0000
0000
0010
0000
0000
0002
0000
0000
0000
0000
0000
0023
0000
0000
0000
0000
0000
2030
0000
0000
0000
0000
0000
3002
0000
0000
0000
0000
0000
0103
0000
0000
0000
0000
0000
1000
0000
0100
0000
0010
0000
,
0001
0000
1100
0000
0021
0000
0000
0031
1000
0000
0010
1000
0100
0010
0200
0000
,
1300
0100
1000
0100
0000
0000
1001
0000
0000
0001
0100
0001
0200
0000
0000
0302
0000
0000
2003
0000
0000
3020
0000
0000
,
1030
0000
0000
0000
0000
0000
0011
0000
0000
0000
0000
0000
0101
0000
0000
0000
0000
0000
1100
0000
0000
0000
0000
0000
1000
0000
0000
0010
0000
0000
1000
0000
0000
0000
0000
0000
0001
0000
0010
0000
0001
0000
0010
0000
0000
0000
0000
0000
,
0001
0000
0011
0000
0100
0010
0100
0000
0100
1000
0100
0000
0001
0100
0010
0000
,
0110
0000
0000
0000
0000
0000
1001
0000
0000
0000
0000
0000
0010
0000
0000
0000
0001
0000
0000
0000
0100
0000
0000
0000
0010
0000
0000
0000
0000
0000
0010
0000
0000
1000
0000
0000
0100
0000
0000
0000
0000
0000
0010
0000
0000
0001
0000
0000
,
0100
0000
0001
1000
0100
0000
1000
0001
0100
0000
0001
1000
0100
0010
0000
0001
,
1000
0000
0000
0000
0010
0000
0000
0000
0010
0000
0000
0000
0001
0000
0000
0000
0100
0000
0000
0000
0100
0000
0000
0000
1000
0000
0000
0000
0000
0000
0100
0000
0000
1000
0000
0000
0010
0000
0000
0000
0000
0000
0100
0000
0000
0001
0000
0000
,
0010
0000
0100
1000
0010
0000
1000
0001
0010
0000
0001
1000
0100
0010
0000
0001
,
1000
0000
0000
0100
0000
0000
1000
0000
0000
0100
0000
0000
0010
0000
0001
0000
0100
0000
0010
0000
0000
1000
0000
0000
0010
0000
0000
0000
0000
0000
1000
0000
0000
0100
0000
0000
0001
0000
0000
0000
0000
0000
1000
0000
0000
0010
0000
0000
,
0001
0000
1000
0100
0001
0000
1000
0010
0001
0000
1000
0100
1000
0010
0000
1000
,
0001
0100
1000
0100
0001
0010
1000
0010
0001
0000
0001
0100
0010
0000
0010
1000
,
0001
0000
0101
0000
0100
0001
0010
0001
0100
0010
1000
0001
1000
0100
0010
0002
,
2000
0000
0000
3003
,
0110
0000
0000
0000
;

//---------------dance-single - ----------------
#NOTES:
     dance-single:
     :
     Medium:
     11:
     0.458417,0.565783,0.346225,0.320892,0.164668,380.000000,339.000000,41.000000,38.000000,0.000000,0.000000,0.458417,0.565783,0.346225,0.320892,0.164668,380.000000,339.000000,41.000000,38.000000,0.000000,0.000000:
0000
0000
0000
0000
,
0000
0000
0000
0000
,
2002
0000
0000
0000
,
3003
0000
0000
0000
,
0200
0000
0000
0000
,
0300
0000
0000
0000
0000
0000
0000
0010
,
0220
0000
0000
0000
,
0330
0000
0000
0000
,
2000
0000
0000
0000
,
3010
0100
0010
0100
0010
0100
0020
0000
,
1030
0010
0100
0010
,
1000
0000
0010
0000
0100
0000
0010
1000
,
0100
0000
0010
0000
0001
0000
0010
0001
,
0100
0000
0010
0000
0100
0001
2000
0000
,
3100
0000
0000
0010
0000
0000
0001
0000
0000
1000
0000
0000
0001
0000
0001
0000
,
0100
0000
0000
0010
0000
0000
1000
0000
0000
0001
0000
0000
1000
0000
1000
0000
,
0010
0100
0001
0000
0010
0100
1000
0000
,
0010
0100
0001
0010
0200
0000
0300
0000
,
1002
0000
0013
0000
0100
1000
1000
0100
,
0001
0001
0100
1000
1000
0200
0000
0000
,
0310
0000
0000
0001
0010
0000
0010
0000
2000
0000
0000
0000
3010
0000
0100
0000
,
0001
0010
0200
0000
0000
1300
1010
0000
,
0011
0000
0100
0000
1100
0000
0000
0000
1000
0000
0100
0000
1000
0000
0000
0001
,
0010
0000
0000
0100
1000
0000
0000
0001
0010
0000
0000
0100
1000
0000
0100
0000
,
0010
0010
0001
0001
2000
0000
3001
0001
,
0200
0000
0000
0000
0310
1000
0000
0000
0001
0000
1000
0000
0100
0010
0100
0000
,
0020
0000
0000
0031
1000
0001
1000
0000
0000
1010
0000
0000
,
0000
0110
0000
1010
,
0001
1000
0001
1000
0100
0010
0001
0000
0000
0011
0000
0000
,
0000
0110
0000
0011
,
1000
0001
0100
0020
0000
0000
1030
0000
0000
0101
0000
0000
,
1000
0110
1000
0101
,
1000
0001
1000
0001
2000
0000
0000
0000
3100
0000
0000
0010
0000
0000
0001
0000
,
1000
0010
0110
0001
0100
0010
1000
0000
,
2002
0000
0000
0000
,
3003
0000
0000
0000
,
0220
0000
0000
0000
,
0330
0000
0000
0000
0000
0000
0000
0100
,
2100
0000
0010
0000
,
3100
0000
0010
0000
,
0011
0001
0002
0000
0100
0000
0000
0000
,
0013
0100
0010
0100
2000
0000
3100
0010
,
1001
0000
0001
0010
0100
0000
0001
0010
,
0100
0000
0000
0100
0010
0000
0001
0000
0100
0000
0000
0000
0010
0000
1000
0000
,
1001
0000
1000
0010
0100
0000
1000
0010
,
0001
0000
0000
0010
1000
0000
0100
0000
0010
0000
0001
0000
0010
0001
0000
0010
,
0001
0100
0000
0001
0100
1000
0000
0001
,
0100
1000
0100
0001
0010
0100
1000
0010
,
1000
0100
0000
0010
0001
0100
0000
1000
,
0010
1000
0100
0001
0010
0002
2000
3003
,
1001
1000
1000
1000
1100
0100
0010
1100
,
0010
0001
1100
0100
0001
0200
0000
0000
,
0300
0010
0001
0001
1000
0010
0200
0000
,
1300
0100
0002
0000
0000
0000
1003
0000
,
1010
0100
0102
0000
1003
0000
0001
0100
,
1000
0100
0001
0010
0200
0000
1300
0001
,
1001
0001
0001
0001
0001
0100
1000
0100
,
0002
0000
0000
0000
0013
0001
0000
0000
1000
0000
0001
0000
0100
0010
0100
0000
,
0020
0000
0000
0000
0000
0000
1030
0000
0001
0000
1000
0000
0001
0000
0000
0010
0000
0000
0011
0000
0000
0000
0000
0000
,
1000
0010
1010
0000
0001
0010
0011
0000
,
1000
0000
0001
0000
1000
0000
0001
0000
0100
0000
0010
0000
1000
0000
0000
0100
0000
0000
1100
0000
0000
0000
0000
0000
,
0001
0100
0101
0000
1000
0100
1100
0000
,
0001
1000
0001
1000
0020
0000
0130
0000
0001
0000
0010
0000
0110
0000
0000
0000
,
1000
0010
0110
0000
0001
0010
0110
0000
,
1000
0010
1000
0010
0200
0000
0301
0000
0010
0000
0000
0100
0000
0000
1000
0000
,
0001
0100
0110
1000
0010
0100
0001
1000
,
2002
0000
0000
3003
,
0110
0000
0000
0000
;

//---------------dance-single - ----------------
#NOTES:
     dance-single:
     :
     Easy:
     7:
     0.240066,0.339470,0.135112,0.472893,0.000000,199.000000,183.000000,16.000000,56.000000,0.000000,0.000000,0.240066,0.339470,0.135112,0.472893,0.000000,199.000000,183.000000,16.000000,56.000000,0.000000,0.000000:
0000
0000
0000
0000
,
0000
0000
0000
0000
,
2002
0000
0000
0000
,
3003
0000
0000
0000
,
0200
0000
0000
0000
,
0300
0000
0000
0000
,
2002
0000
0000
0000
,
3003
0000
0000
0000
,
0200
0000
0000
0000
,
0302
0000
0000
0003
,
1000
0001
1000
0001
,
1000
0001
1000
0010
,
0100
0010
0100
0010
,
1000
0010
1000
0020
,
0130
0000
0001
0000
,
1001
0000
0100
0000
,
0110
0010
0110
0100
,
0010
0100
0002
0003
,
2001
0000
0000
0000
3000
0100
0000
0000
,
0010
0000
0000
0001
0000
0002
0000
0000
,
1003
0010
0002
0013
,
1000
0200
0000
0310
,
0001
0100
0002
0000
0000
0000
1003
0000
,
0001
0010
0100
1000
,
0001
0001
0200
0000
,
0302
0013
1000
0100
,
0002
0000
1003
0000
,
0100
0000
0100
1000
,
0200
0000
0301
0000
,
0100
0000
0100
0001
,
0020
0230
1300
0000
,
0010
0000
0010
1000
,
0002
0023
0130
0000
,
0001
1000
0010
0100
,
0220
0000
0000
0000
,
0330
0000
0000
0000
,
0002
0000
0000
0000
,
0003
0000
0000
0000
,
0220
0000
0000
0000
,
0330
0000
0000
0000
,
1000
2000
0000
0000
,
3100
0100
0200
1300
,
0010
0010
0010
0010
,
0010
1000
0001
1002
,
0013
0010
0010
0010
,
0010
0001
1000
2001
,
3010
0000
0100
0000
,
1001
0000
0001
0000
,
1001
1000
1001
0001
,
2001
3002
2003
3000
,
2002
0000
0000
0000
3003
1000
0001
0000
,
0001
0010
0000
0100
1000
0002
0000
1003
,
0000
0100
0010
0100
1000
0000
0001
0000
,
0010
2000
0000
3010
,
0001
0100
2000
3200
,
0320
0230
0302
2003
,
3100
0100
0020
0032
,
2003
3010
0001
0100
,
2000
0000
3001
0100
,
0010
0100
0001
0100
,
0020
2030
3100
0010
,
0100
1000
0100
0010
,
0200
2300
3001
0100
,
1000
0100
0001
0100
,
2000
3200
0310
1000
,
0001
0010
0100
1000
,
2002
0000
0000
0000
,
3003
0000
0000
0000
;

//---------------dance-single - ----------------
#NOTES:
     dance-single:
     :
     Beginner:
     4:
     0.145970,0.254602,0.126668,0.228002,0.000000,121.000000,106.000000,15.000000,27.000000,0.000000,0.000000,0.145970,0.254602,0.126668,0.228002,0.000000,121.000000,106.000000,15.000000,27.000000,0.000000,0.000000:
0000
0000
0000
0000
,
0000
0000
0000
0000
,
2002
0000
0000
0000
,
3003
0000
0000
0000
,
0000
0000
0000
0000
,
0000
0000
0000
0000
,
2002
0000
0000
0000
,
3003
0000
0000
0000
,
0000
0000
0000
0000
,
0200
0000
0000
0000
,
0310
0000
0010
0000
,
0010
0000
0010
0000
,
1000
0000
1000
0000
,
0001
0000
0001
0000
,
1001
0000
0000
0000
,
1001
0000
0000
0000
,
1001
0000
1001
0000
,
1000
0001
2000
3000
,
1001
0000
0010
0000
,
0100
0000
0010
1000
,
0001
0000
0010
0000
,
0100
0010
0000
0001
,
1000
1000
0010
0000
,
0000
0100
0000
0001
,
1000
0000
1000
0000
,
0001
0000
0010
0000
,
0200
0000
1300
0000
,
0100
0000
1000
0000
,
0002
0000
0103
0000
,
0001
0000
0100
0000
,
0002
0000
0013
0000
,
0001
0000
0010
0000
,
2000
0000
3010
0000
,
0100
0000
1000
0000
,
2002
0000
0000
0000
,
3003
0000
0000
0000
,
0000
0000
0000
0000
,
0000
0000
0000
0000
,
2002
0000
0000
0000
,
3003
0000
0000
0000
,
0000
0000
0000
0000
,
0020
0000
0130
0000
,
0001
0000
0001
0000
,
0001
0000
0010
0000
,
1000
0000
1000
0000
,
1000
0000
0100
0000
,
0110
0000
0000
0000
,
0110
0000
0000
0000
,
0220
0330
0220
0330
,
0100
0100
0200
0300
,
0110
0000
0001
0000
,
1000
0001
0000
1000
,
0001
0000
0001
0000
,
0010
0200
0000
0300
,
0000
0010
0000
0100
,
0000
0010
0000
0100
,
1000
0000
0001
0000
,
1000
0000
0010
0000
,
0200
0000
0301
0000
,
0001
0000
0001
0000
,
0020
0000
1030
0000
,
1000
0000
1000
0000
,
0200
0000
0310
0000
,
0010
0000
0010
0000
,
0002
0000
1003
0000
,
0010
0000
0100
0000
,
2002
0000
0000
0000
,
3003
0000
0000
0000
;
