#TITLE:Nacreous Snowmelt;
#SUBTITLE:;
#ARTIST:かめりあ;
#TITLETRANSLIT:;
#SUBTITLETRANSLIT:;
#ARTISTTRANSLIT:Camellia;
#GENRE:;
#CREDIT:;
#BANNER:;
#BACKGROUND:Nacreous Snowmelt-bg.png;
#LYRICSPATH:;
#CDTITLE:;
#MUSIC:Nacreous Snowmelt.ogg;
#OFFSET:-1.694000;
#SAMPLESTART:81.694000;
#SAMPLELENGTH:15.000000;
#SELECTABLE:YES;
#BPMS:0.000000=201.000000
,551.000000=190.800003
,555.000000=184.899994
,559.000000=174.000000
,563.000000=170.000000
,567.000000=163.800003
,571.000000=152.500000
,575.000000=143.000000
,577.000000=141.050003
,579.000000=139.000000
,773.000000=145.000000
,775.000000=152.600006
,779.000000=162.000000
,783.000000=167.000000
,787.000000=176.500000
,791.000000=186.000000
,795.000000=191.000000
,799.000000=197.000000
,803.000000=201.000000
;
#STOPS:430.500000=0.149000,
462.000000=0.149000
;
#BGCHANGES:;
#KEYSOUNDS:;
#ATTACKS:;

//---------------dance-single - ----------------
#NOTES:
     dance-single:
     :
     Hard:
     18:
     0.906899,1.250862,0.580623,0.247218,0.770005,2799.000000,2543.000000,256.000000,109.000000,24.000000,0.000000,0.906899,1.250862,0.580623,0.247218,0.770005,2799.000000,2543.000000,256.000000,109.000000,24.000000,0.000000:
// measure 0
0000
0000
0000
0000
,  // measure 1
1000
0100
0010
0001
0000
0000
0000
0000
,  // measure 2
0000
0000
0000
0000
,  // measure 3
1000
0100
0010
0100
0000
0000
0000
0000
,  // measure 4
0000
0000
0000
0000
,  // measure 5
1000
0100
0010
0001
0000
0000
0000
0000
,  // measure 6
0000
0000
0000
0000
,  // measure 7
1000
0001
0100
0010
0000
0000
0000
0000
,  // measure 8
0000
0000
0000
0000
,  // measure 9
1001
0100
0010
0001
0000
1000
0000
0010
,  // measure 10
0000
0100
0000
0010
0100
0001
0010
0100
,  // measure 11
1000
0100
0010
0100
0000
1000
0000
0010
,  // measure 12
0000
0100
0000
0001
0010
0001
0100
1000
,  // measure 13
0100
0001
1000
0010
0000
1000
0000
0001
,  // measure 14
0000
0010
0000
0100
1000
0001
0100
0010
,  // measure 15
1000
0001
0010
0100
0000
0001
0000
0100
,  // measure 16
0000
0010
0000
0100
1000
0001
0100
0010
,  // measure 17
1000
0100
0010
0001
0000
1010
0000
0001
,  // measure 18
0000
0101
0000
1000
0010
0100
0010
1000
,  // measure 19
0100
0010
0001
0010
0000
0011
0000
0100
,  // measure 20
0000
1100
0000
0001
0010
0001
0100
0010
,  // measure 21
0001
0010
0100
1000
0000
0110
0000
1010
,  // measure 22
0000
0000
0011
0000
0000
0000
0010
0100
0010
0000
0100
1000
0100
0000
1000
0000
,  // measure 23
0001
0100
0010
1000
0000
0010
0000
0002
,  // measure 24
0000
0023
0230
0301
,  // measure 25
1001
0000
0100
0010
0100
1100
0000
0011
,  // measure 26
0000
0000
0001
0000
1000
0100
0010
0100
0010
0001
1000
0000
0001
0000
1001
0000
,  // measure 27
0000
0010
1000
0010
0100
0101
0000
1010
,  // measure 28
0000
0010
1000
0001
0100
0010
0100
0000
,  // measure 29
1001
0000
0000
0000
0100
0001
1000
0010
0100
0000
0101
0000
0000
0000
1010
0000
,  // measure 30
0000
0100
0002
0000
0023
0000
0130
0110
,  // measure 31
0000
0001
0001
0001
0010
0011
0000
1100
,  // measure 32
0000
1000
0010
0200
0000
0000
0301
0000
,  // measure 33
0110
0000
0000
0000
0000
0000
0010
0000
0000
0000
0010
0000
0000
0000
0000
1010
0000
0000
0000
0000
0000
0101
0000
0000
,  // measure 34
0000
0000
0001
0000
1000
0001
0100
0010
0100
0010
1000
0000
0010
0000
0110
0000
,  // measure 35
0000
1000
0100
0010
0001
0011
0000
1100
,  // measure 36
1000
0100
0001
1000
0010
0001
0100
0010
,  // measure 37
0110
0000
1000
0001
0010
0110
0000
1100
,  // measure 38
0000
0000
1000
0000
1000
0000
0000
0000
0001
1000
0001
1000
0010
0000
0220
0000
,  // measure 39
0000
0000
0000
0000
,  // measure 40
0000
0000
0000
0000
0000
0000
0000
0030
,  // measure 41
0000
0000
0000
0000
,  // measure 42
0000
0000
0300
0000
,  // measure 43
1001
0000
0000
0000
0100
0000
0000
0000
0001
1000
0001
1000
0001
0010
0001
0010
,  // measure 44
0001
0000
0010
0000
0100
0000
0010
0000
0001
0000
0001
1000
0010
1000
0010
0000
,  // measure 45
0110
0000
0000
0000
0110
0000
0000
0000
1001
0000
1000
0001
1000
0001
1000
0100
,  // measure 46
1000
0100
0010
0000
0001
0010
0100
0000
1000
0000
0100
0010
0001
0000
1000
0000
,  // measure 47
0001
0000
0100
0001
0100
0001
0100
0000
0010
0000
1000
0001
1000
0001
1000
0000
,  // measure 48
0100
0000
0010
0001
0010
0001
0010
0000
0100
0000
1000
0010
1000
0001
1000
0001
,  // measure 49
0010
0100
0010
0100
0010
0100
0010
0100
0010
0100
0010
0100
1000
0000
0010
0100
,  // measure 50
0001
0000
0001
0100
0001
0000
0001
0100
0020
0000
0000
0000
0030
0000
0000
0000
,  // measure 51
1001
0000
0110
0000
1010
0100
0001
1010
,  // measure 52
0100
0001
1001
1000
0100
0001
1000
0010
,  // measure 53
0001
1000
0100
0000
0011
0100
1000
0011
,  // measure 54
0100
1000
1001
0001
0100
1000
0100
0001
,  // measure 55
1001
0000
1001
0000
1010
0100
0001
1010
,  // measure 56
0100
0001
1001
0100
0010
1000
0200
0000
,  // measure 57
0310
0010
0001
2000
0000
3020
0000
0032
,  // measure 58
0000
0203
0000
2300
0000
3010
0100
0001
,  // measure 59
1001
0000
0000
0000
0110
0000
0000
0000
0010
1000
0010
0000
0100
0000
0001
0010
,  // measure 60
0001
0000
0100
0000
0010
1000
0010
0000
0100
0000
0001
0000
0001
0000
1000
0000
,  // measure 61
0100
0000
0010
0000
0001
0000
0000
0000
1000
0100
1000
0000
0010
0000
0100
0001
,  // measure 62
0100
0000
0010
0000
1000
0100
1000
0000
0010
0000
0100
0000
0001
0000
1000
0000
,  // measure 63
0001
0001
1000
0000
1100
0000
0110
0000
,  // measure 64
0011
0000
1010
0000
0101
0100
1010
0000
,  // measure 65
0001
0010
0001
0010
0100
0010
0100
0000
1000
0000
0100
0000
0001
0000
0100
0000
,  // measure 66
1000
1000
0001
0001
0100
0010
1000
0100
,  // measure 67
0020
0000
0000
0000
0130
0000
1000
0001
1000
0000
0010
0000
0100
0000
0001
0000
,  // measure 68
0010
0000
0100
0000
1000
0000
0001
1000
0001
0000
0100
0000
0001
0000
0010
0000
,  // measure 69
0200
0000
0000
0000
1300
0000
0010
0100
0010
0000
1000
0000
0001
0000
0100
0000
,  // measure 70
0010
0000
1000
0000
0100
0000
0010
0100
0010
0000
0001
0000
1000
0000
0100
0000
,  // measure 71
0020
0000
0001
0000
0031
0000
1000
0001
1000
0000
0010
0000
0100
0000
0001
0000
,  // measure 72
0010
0000
0100
0000
1000
0000
0001
1000
0001
0000
0100
0000
0010
0000
1000
0000
,  // measure 73
0100
0110
0100
1100
1000
0100
0110
0010
,  // measure 74
0100
1000
0100
0001
0100
1000
0010
0100
,  // measure 75
0001
0000
0010
0000
0100
0000
1000
0001
1000
0000
0010
0000
0100
0000
0001
1000
,  // measure 76
0001
0000
0010
0000
0100
0000
1000
0001
1000
0000
0010
0000
0100
0000
0001
0000
,  // measure 77
1000
0000
0001
0000
0010
0000
0100
0010
0100
0000
1000
0000
0010
0000
0100
0010
,  // measure 78
0100
0000
0001
0000
0010
0000
0100
0010
0100
0000
1000
0000
0010
0000
0100
0000
,  // measure 79
0001
0000
1100
0010
0001
0000
1010
0100
,  // measure 80
0001
0000
1100
0010
0001
0001
0100
0010
,  // measure 81
2000
0000
0000
0000
3010
0100
0010
0100
0001
0100
0001
0100
0001
1000
0001
1000
,  // measure 82
0100
0100
0010
0010
0110
0000
0011
0000
,  // measure 83
1001
0001
0100
1000
0100
0110
0000
1010
,  // measure 84
0000
1010
0010
0100
0001
0010
1000
1010
,  // measure 85
0000
0011
0001
0100
0010
1000
0010
0001
,  // measure 86
0010
1000
0100
0001
0101
1100
2002
3003
,  // measure 87
1001
1000
0010
0001
0010
0110
0000
0101
,  // measure 88
0000
0101
0100
0010
1000
0100
0001
0101
,  // measure 89
0000
1100
1000
0001
1000
1010
0000
1010
,  // measure 90
0000
0110
0101
0000
0001
1000
0001
0010
,  // measure 91
0200
0000
0300
0000
0000
0010
0010
0100
,  // measure 92
1000
0010
0100
0001
0010
1000
0010
0011
,  // measure 93
0000
1100
0000
0011
0010
0001
0010
0110
,  // measure 94
0000
0000
0110
0000
1100
0000
0000
0000
1000
0000
0001
0010
0000
1000
0010
0000
,  // measure 95
0001
0100
0010
0100
0001
1000
0001
0010
,  // measure 96
0100
0100
1000
0100
0001
1000
0010
0022
,  // measure 97
0000
0000
0000
0000
0000
0000
0000
0033
,  // measure 98
0000
0000
0000
0000
0000
0000
0000
0000
0001
0000
1000
0001
0000
1000
0001
1000
,  // measure 99
0001
0000
0000
0000
0101
0000
0000
0000
1000
0000
0001
1000
0000
0001
1000
0001
,  // measure 100
1000
0000
0100
0010
0001
0000
0100
0010
1000
0000
0010
0100
0001
0000
0100
0010
,  // measure 101
1000
0000
0001
0010
0001
0010
0001
0000
1000
0000
0010
0100
0010
0100
0010
0000
,  // measure 102
1000
0000
0001
0100
0001
0100
0001
0000
0010
0000
0001
1000
0001
1000
0001
0000
,  // measure 103
0010
0100
0010
0100
1000
0100
1000
0100
1000
0010
1000
0010
0100
0001
0100
0001
,  // measure 104
0100
0100
0020
0000
0100
0000
0130
0000
,  // measure 105
1001
0000
0001
0101
0110
0000
0000
1010
,  // measure 106
0110
0000
0001
1000
0001
1000
0001
0000
0100
0001
1000
0001
0100
0001
1000
0001
,  // measure 107
0200
0000
0000
0000
0000
0000
0000
0000
0000
0000
0000
0000
0000
0000
0000
0000
0310
0000
0000
0000
0000
0000
0000
0000
1010
0000
0000
0000
0000
0000
0000
0000
0220
0000
0000
0000
0000
0000
0000
0000
0000
0330
0000
0000
0000
0000
0000
0000
0011
0000
0000
0000
0000
0000
0000
0000
0110
0000
0000
0000
0000
0000
0000
0000
,  // measure 108
1000
0100
1000
0100
1000
0000
0001
0000
0020
0000
0000
0000
0130
0000
1001
0000
,  // measure 109
0000
1001
0000
0010
0001
1010
0001
1000
,  // measure 110
0010
0000
0010
0000
0000
0000
0001
0000
0010
0000
0010
0000
0000
0000
0100
0010
,  // measure 111
1000
0001
0100
0000
0010
0000
0010
0000
1000
0000
0001
0000
0001
0000
0010
0000
,  // measure 112
0100
1000
0000
0001
1000
0000
0010
0000
0100
0000
0001
0000
0100
0000
0010
0000
,  // measure 113
0000
1010
0001
0010
0000
0001
1000
0010
,  // measure 114
0100
0010
0100
0010
0100
0001
1000
0100
0010
0100
0010
0100
0010
0001
2000
0000
,  // measure 115
0000
0000
0000
0000
0000
0000
0000
0000
3010
0000
0000
0000
0000
0000
0000
0000
1010
0000
0000
0000
0000
0000
0000
0000
0202
0000
0000
0000
0000
0000
0000
0000
0000
0303
0000
0000
0000
0000
0000
0000
0011
0000
0000
0000
0000
0000
0000
0000
1100
0000
0000
0000
0000
0000
0000
0000
1000
0000
0000
0000
0001
0000
0000
0000
,  // measure 116
1000
0001
1000
0000
0010
0000
0200
0000
0000
0000
0301
0000
1001
0000
0000
0000
,  // measure 117
1001
0000
0001
0010
1000
0010
0001
0100
,  // measure 118
0100
0000
1000
0100
0100
0000
0001
0000
,  // measure 119
0100
0010
0100
0000
0010
1000
0000
0001
,  // measure 120
0010
0000
0000
0100
0000
0000
1000
0000
0000
0000
0001
0000
0010
0000
0000
0000
0000
0000
0110
0000
0000
0000
0010
0000
,  // measure 121
0001
1000
0001
0010
0000
0010
0100
0000
0100
0000
0000
1000
,  // measure 122
0001
0000
0000
0000
0000
0000
0000
0000
0100
0000
0000
0000
0010
0000
0000
1000
0000
0000
0010
0000
0000
1000
0000
0000
0010
0000
0000
0000
0100
0000
0000
0000
0001
0000
0000
0000
1000
0000
0000
0000
0000
0000
0000
0000
0000
0000
0000
0000
,  // measure 123
0010
0000
1000
0001
0000
0000
0011
0000
0000
1001
0000
0000
,  // measure 124
1001
0000
0000
0101
0000
1000
0100
0000
0000
0110
0000
0000
,  // measure 125
0110
0000
0000
1000
0000
0010
0100
0000
0100
0000
0000
0001
,  // measure 126
1000
0000
0000
1100
0000
0000
0110
0000
0000
0010
0001
1000
,  // measure 127
0001
0000
0100
0010
0000
0001
0000
0000
0010
1000
0000
1010
,  // measure 128
0000
1100
0000
0110
0000
1000
0100
0000
0010
0100
0000
1000
,  // measure 129
0001
0010
0001
1000
0000
1000
0010
0000
0010
0000
0000
0100
,  // measure 130
0001
0000
0000
0000
0000
0000
0000
0000
1000
0000
0000
0000
0100
0000
0000
0010
0000
0000
0001
0000
0000
0010
0000
0000
0001
0000
0000
0000
0010
0000
0000
0000
0100
0000
0000
0000
1000
0000
0000
0000
0000
0000
0000
0000
0010
0000
0000
0000
,  // measure 131
0100
0000
0001
0010
0000
0010
1000
0000
0010
0100
0000
0010
,  // measure 132
0100
0000
0010
0100
0000
0001
0010
0000
1000
0010
0000
0000
,  // measure 133
0110
0000
0000
0011
0000
1000
0010
0000
0010
0100
0000
0001
,  // measure 134
1000
0000
1000
0200
0000
0000
0001
0000
0000
1300
0000
0110
,  // measure 135
0000
0001
0100
1000
0000
0110
0000
1000
0100
0001
0000
0110
,  // measure 136
0000
0000
0001
0000
0100
0000
0020
0000
0000
0000
0000
0000
1000
0000
0000
0000
0000
0000
0130
0000
0000
0010
0000
0000
,  // measure 137
1000
0001
0000
0000
0000
0000
0000
0000
,  // measure 138
0000
0000
0000
0000
0000
0000
1000
0100
,  // measure 139
0010
0001
0000
0000
0000
0000
0000
0000
,  // measure 140
1000
0000
0010
0000
0100
0000
0001
0000
0010
0000
0100
0000
1000
0000
0010
0000
0100
0000
0001
0000
0000
1000
0000
0000
,  // measure 141
0010
0100
0000
0000
0000
0000
0000
0000
,  // measure 142
0000
0000
0000
0000
0000
0000
0010
0100
,  // measure 143
0001
1000
0000
0000
0000
0100
0000
0000
,  // measure 144
0000
0000
0010
0000
0000
0000
0000
0000
0000
0000
0000
0000
0010
1000
0001
0100
,  // measure 145
0000
0010
0000
1000
0000
0010
0000
0100
0000
0001
1000
0000
0100
0010
0001
1000
,  // measure 146
0000
0100
0000
0010
0000
0100
0000
1000
0000
0001
1000
0001
0010
0001
1000
0100
,  // measure 147
0000
0010
0000
0001
0000
0100
0000
0010
0100
0010
1000
0001
1000
0010
0100
0001
,  // measure 148
0000
0010
0000
0100
0000
1000
0000
0100
1000
0010
0100
0001
1000
0000
0010
1000
,  // measure 149
0000
0001
0100
0001
0100
0010
1000
0010
1000
0000
1000
0100
0010
0000
0001
0010
,  // measure 150
0000
0100
1000
0100
1000
0001
0010
0001
0010
0000
0010
0100
1000
0100
1000
0100
,  // measure 151
1000
0010
1000
0010
0100
0001
0100
0001
0010
0001
0010
0001
2000
0000
0000
0000
,  // measure 152
0010
0000
3001
0000
0220
0330
2000
0000
,  // measure 153
3010
0100
0010
0100
0001
0100
0010
0100
0001
1000
0010
0100
0010
1000
0100
0010
,  // measure 154
0001
0010
0001
0010
0100
0010
0100
0010
0002
0000
0000
0000
1003
0010
1000
0010
,  // measure 155
0100
0010
1000
0010
0100
0001
1000
0001
0100
0010
1000
0001
1000
0001
0100
0010
,  // measure 156
1000
0001
1000
0100
0010
0001
0010
0001
0100
0001
0100
0010
0200
0000
0000
0000
,  // measure 157
0301
0100
0010
1000
0001
0100
0010
1000
0002
0000
0000
0000
0013
0100
1000
0100
,  // measure 158
1000
0010
0100
0001
0100
0000
0001
0010
0000
0100
1000
0100
1000
0000
1000
0010
,  // measure 159
0000
0010
0100
0001
0100
0010
0100
0010
1000
0001
1000
0001
0010
0100
1000
0000
,  // measure 160
0010
1000
0000
0100
1000
0000
0100
0010
0000
0001
0010
0100
0020
0000
0000
0000
,  // measure 161
0031
0100
0001
0100
0010
1000
0001
0100
0010
0100
0010
1000
0001
0010
0100
0010
,  // measure 162
0001
1000
0001
0010
0001
0010
0001
1000
0010
0000
0010
0000
0100
0010
0000
0000
,  // measure 163
1000
0001
1000
0001
0100
0010
1000
0001
0100
0001
0100
0010
1000
0100
0010
0000
,  // measure 164
0010
0000
0120
0000
0000
0000
0130
1000
0001
0100
0001
0100
0010
0000
0010
1000
,  // measure 165
0000
1000
0100
0000
0100
0001
0000
0001
1000
0000
0010
0000
0100
0000
0100
0001
,  // measure 166
0000
0001
0010
0000
0010
1000
0000
1000
0001
0000
0100
0000
0002
0000
0000
0000
,  // measure 167
0000
0000
0000
0000
0000
0000
0013
0100
1000
0100
0010
0100
1000
0100
0010
0000
,  // measure 168
0001
0100
0000
0001
0010
0000
0010
0200
0000
0000
0000
0000
1300
0001
0000
0010
,  // measure 169
0000
0001
1000
0000
0010
0100
0000
0001
0000
0100
0010
0000
1000
0001
0000
0010
,  // measure 170
0000
0001
1000
0000
0010
0100
0000
1000
0000
0100
0010
0000
1000
0001
0000
0010
,  // measure 171
0000
0100
1000
0000
0001
1000
0000
0010
0000
0100
0001
0000
1000
0100
0000
0010
,  // measure 172
0000
0100
1000
0010
0000
0100
0000
0001
0000
0001
0100
0010
1000
0100
1000
0100
,  // measure 173
0000
0001
0100
0000
0010
0001
0000
1001
0000
0010
0100
0000
0001
0010
0001
0010
,  // measure 174
0000
1000
0010
0000
0100
1000
0000
1001
0000
0100
0010
0000
0100
0010
0100
0010
,  // measure 175
0000
0001
0010
0000
1000
0001
0000
1001
0000
0001
0100
0000
0001
0010
0001
0010
,  // measure 176
0000
1000
0010
0100
0000
1000
0010
0000
0100
0001
0100
0010
0100
0001
0100
0001
,  // measure 177
1000
0001
1000
0000
0100
0010
0000
1001
0000
0010
0100
1000
0010
0000
0000
0101
,  // measure 178
0000
1000
0100
0000
0010
0000
0000
0202
0000
0000
0303
0000
0100
0001
0100
0001
,  // measure 179
1000
0000
0000
0000
0000
0000
0100
0000
0000
0010
0000
0000
0000
0000
0000
0100
0000
0000
0010
0000
0000
0000
0000
0000
0001
0000
0010
0000
0100
0000
1000
0000
0100
0000
0010
0000
0001
0000
0000
0000
0000
0000
0010
0000
0000
0000
0000
0000
,  // measure 180
1000
0010
0001
0000
0100
0000
0001
0020
0000
0000
0030
0000
2100
0000
0000
0000
,  // measure 181
3001
1000
0001
1000
0001
0100
0001
0100
0010
0000
1010
0000
1002
0000
0000
0000
,  // measure 182
1003
0001
1000
0001
1000
0100
1000
0100
0000
0010
0001
0000
0201
0000
0000
0000
,  // measure 183
0000
0000
0000
0010
,  // measure 184
0010
0000
0310
0100
0110
1000
1001
0001
,  // measure 185
0101
0000
0100
0000
1001
0000
0001
0000
1100
0000
1000
0000
0010
1000
0010
0000
,  // measure 186
0100
0001
0100
0000
0010
0000
1000
0000
0200
0000
0300
0000
0011
0000
0101
0000
,  // measure 187
0101
0000
0000
0010
0000
0000
1010
0000
0000
0100
0000
0000
0101
0000
0000
0001
0000
0000
2000
0000
0000
3100
0010
0100
,  // measure 188
0010
0000
0001
0000
1000
0100
0000
0010
0000
0100
1000
0000
0101
0000
MMMM
0000
,  // measure 189
1010
MMMM
0101
MMMM
1010
0100
0011
0011
,  // measure 190
0110
MMMM
1100
MMMM
0012
0003
1010
1010
,  // measure 191
0110
0000
0000
0010
0100
0000
0001
0000
0110
0000
MMMM
0000
0110
0000
1010
0000
,  // measure 192
0000
1001
0000
0000
1100
0000
0000
0220
0000
0330
0000
0000
1001
0000
0001
0000
,  // measure 193
0010
0100
0000
0000
0000
0000
0000
0000
,  // measure 194
0000
0000
0000
0000
0000
0000
0000
0000
0000
0000
1000
0001
1000
0000
0010
0000
,  // measure 195
0100
0001
0000
0000
0000
0000
0000
0000
,  // measure 196
0000
0000
0010
0100
0010
1000
0010
1000
0001
0100
0001
0100
0010
0000
1000
0000
,  // measure 197
0001
0100
0000
0000
0000
0000
0000
0000
,  // measure 198
0000
0000
0000
0000
0000
0000
0001
0000
0010
0000
0100
0000
1000
0000
0010
0000
0100
0000
0001
0000
0000
0010
0000
0000
,  // measure 199
0100
1000
0000
0000
0000
0010
0000
0000
,  // measure 200
0000
0200
0000
0000
0000
0000
0000
0000
,  // measure 201
0000
0000
0000
0000
,  // measure 202
0000
0000
0000
0000
0000
0000
0310
0100
,  // measure 203
0001
1000
0000
0010
0000
0100
0000
0001
,  // measure 204
0000
1000
0100
0010
0100
1000
0001
0100
,  // measure 205
0010
1000
0000
0100
0000
0010
0000
1000
,  // measure 206
0000
0010
0001
1000
0001
0010
0100
1000
,  // measure 207
0001
0010
0000
1001
0000
1010
0000
0110
,  // measure 208
0000
0000
0001
0100
0001
0000
0100
0010
0100
0000
0010
1000
0010
0000
0100
0000
,  // measure 209
0001
1000
0000
1001
0000
0012
0000
0000
,  // measure 210
0023
0230
2300
3001
,  // measure 211
0100
0000
0010
0000
1000
0000
1001
0000
0000
0000
0110
0000
0000
0000
0001
1000
,  // measure 212
0010
0100
0010
0100
0001
0000
1000
0000
0100
0000
0110
0000
0000
0000
0002
0000
,  // measure 213
0023
2030
3020
0031
0000
1100
0000
1000
,  // measure 214
0010
0100
1100
0101
2002
3003
1001
0000
,  // measure 215
0010
1000
0010
1000
0010
0000
0110
0000
0000
0000
1001
0000
0000
0000
0020
0000
,  // measure 216
2030
0000
3200
0000
0310
0011
0000
1000
,  // measure 217
1000
1000
0010
1010
0000
0101
0000
0002
,  // measure 218
2003
3200
0000
0000
0301
0000
0110
0000
,  // measure 219
0010
0000
0000
0000
0000
0000
0000
0000
0010
0000
0000
0000
0000
0000
0000
0000
0000
0000
0011
0000
0000
0000
0000
0000
0000
0000
0000
0000
0000
0000
1100
0000
0000
0000
0000
0000
0000
0000
0000
0000
0000
0000
0001
0000
0000
0010
0000
0000
,  // measure 220
0100
0010
0100
1000
0001
0000
0100
0000
0001
0000
0101
0000
0000
0000
2000
0000
,  // measure 221
3020
0230
0302
1003
0000
0011
0000
0001
,  // measure 222
1000
0100
0101
1100
2002
3003
1001
0000
,  // measure 223
0001
0100
0010
1000
0001
0000
1001
0000
0000
0000
0110
0000
0000
0000
0200
0000
,  // measure 224
0302
0000
0023
0000
0130
0110
0000
1001
,  // measure 225
1001
0000
0000
0000
0001
1000
0001
1000
0001
0100
0001
0100
0001
0000
0100
0000
,  // measure 226
1000
0000
0100
0000
0001
0000
0001
0010
0100
0010
0100
0000
0110
0000
0000
0000
,  // measure 227
0110
0000
0000
0000
1001
0000
1000
0001
1000
0001
1000
0010
1000
0010
0100
0000
,  // measure 228
0001
0100
0010
0000
1000
0000
0010
0100
0001
0000
0010
0100
2000
0000
3001
1000
,  // measure 229
0001
0100
0010
0000
2000
0000
3010
0100
0001
1000
0010
0000
2000
0000
3010
0100
,  // measure 230
0001
1000
0001
0000
0020
0000
0130
1000
0001
1000
0010
0100
0010
0100
0010
0100
,  // measure 231
0010
0100
0010
0100
0010
0100
0010
0100
0001
0000
0010
0100
1000
0000
1000
0100
,  // measure 232
1000
0000
1000
0100
0020
0000
0030
0000
1100
0000
0000
0000
1001
0000
0000
0000
,  // measure 233
0010
0100
0001
1000
0010
0000
0100
0001
0000
1000
0002
0000
0000
0000
0013
0000
,  // measure 234
0001
0010
0001
0000
1000
0100
1000
0000
0100
0010
0001
0000
1000
0000
0010
0000
,  // measure 235
0100
0001
1000
0010
0100
0000
0001
0010
0000
0001
2000
0000
0000
0000
3010
0000
,  // measure 236
0010
1000
0010
1000
0001
0000
0010
0100
0010
0000
0100
0010
0001
0000
0010
0000
,  // measure 237
0100
1000
0100
0010
0001
0000
1000
0010
0000
0100
0020
0000
0000
0000
1030
0000
,  // measure 238
0010
1000
0010
0000
0100
0001
0100
0010
1000
0010
1000
0001
0100
0000
0001
0010
,  // measure 239
0000
0001
1000
0000
0100
0000
0000
1001
0000
0000
0012
0000
0000
0000
0013
0100
,  // measure 240
1000
0000
0100
1000
0001
0000
1000
0001
0100
0010
0100
0010
1000
0000
0001
0000
,  // measure 241
1000
0100
0010
0000
0011
0000
0000
1010
0000
0000
2002
0000
3003
0000
0001
0100
,  // measure 242
0010
1000
0100
0001
0100
1000
0001
1000
,  // measure 243
0001
0100
0010
0000
1010
0000
0000
0011
0000
0000
2002
0000
3003
0000
0100
1000
,  // measure 244
0010
0000
0000
0100
0000
0000
0010
0000
0000
0100
0000
0000
0001
0000
0000
0000
1000
0000
0000
0000
0010
0000
0000
0000
1000
0000
0000
0000
0100
0000
0000
0000
0010
0000
0000
0000
0001
0000
0000
0010
0000
0000
0100
0000
0000
0000
0000
0000
,  // measure 245
0010
0000
0001
0010
0100
0000
1000
0000
0010
0000
0100
0000
0010
0000
0001
0000
,  // measure 246
0010
1000
0010
0100
0001
1000
0100
0010
0001
1000
0010
0100
0002
0000
0000
0000
,  // measure 247
0000
0000
0000
0000
0000
0000
0000
0000
0000
0000
0000
0000
0000
0000
0013
0100
,  // measure 248
1000
0000
0000
0000
0010
0000
0000
0000
0100
0000
0000
0000
0001
0000
0000
0000
0000
0000
0000
0000
0000
0010
0000
0000
0000
0000
0000
0000
0000
0000
0100
0000
0000
0000
0000
0000
1000
0000
0000
0000
0000
0000
0010
0000
0000
0000
0000
0000
,  // measure 249
0100
0000
0001
1000
0010
0000
1000
0000
0100
0000
0010
0001
1000
0000
0010
0000
,  // measure 250
0100
0000
0001
1000
0100
0000
0010
0001
0010
0000
0100
1000
0001
0000
0100
0000
,  // measure 251
0010
0000
1000
0010
0100
0000
0001
0000
0010
0000
0100
0010
0001
0000
0100
0000
,  // measure 252
0010
0000
1000
0100
0010
0000
0001
0010
0001
0000
0010
0100
1000
0000
0010
0000
,  // measure 253
0100
0000
0001
0100
0001
0000
1000
0000
0100
0000
0010
0001
0010
0000
0100
0000
,  // measure 254
1000
0000
0010
1000
0010
0000
0100
0000
0001
0000
1000
0100
1000
0000
0010
0000
,  // measure 255
0100
0000
0001
1000
0010
0000
0100
0000
0001
0000
1000
0100
0010
0000
0010
0000
,  // measure 256
0001
0000
0001
0000
1000
0000
1000
0000
0010
0000
0010
0000
1000
0100
0010
0100
,  // measure 257
0010
0000
0001
1000
0010
0000
0100
0000
0001
0000
1000
0000
0001
0100
0001
0000
,  // measure 258
0100
0010
0100
0000
0010
1000
0010
0000
0100
0010
0100
0000
0001
0010
0100
0010
,  // measure 259
0100
0000
1000
0001
0100
0000
0010
0000
1000
0000
0001
0000
0100
0010
0100
0000
,  // measure 260
0001
1000
0001
1000
0100
0010
0100
0010
0001
0010
0100
1000
0001
0100
0010
1000
,  // measure 261
0001
0000
0100
0010
1000
0001
0100
0000
0010
0000
1000
0000
0100
0000
0001
0000
,  // measure 262
0100
1000
0001
1000
0010
0100
0001
0010
0100
1000
0020
0000
0000
0000
0000
0000
,  // measure 263
0000
0000
0000
0000
,  // measure 264
0000
0000
0000
0000
0130
0010
0100
0000
0110
0000
0000
0000
1001
0000
0001
0000
,  // measure 265
0010
0001
0100
0010
1000
0010
0100
0010
,  // measure 266
1000
0000
0100
0000
0010
0001
0010
0000
0100
1000
0100
0000
0010
0000
0001
0000
,  // measure 267
1000
0001
0010
0100
1000
0100
0010
0100
,  // measure 268
1000
0000
0001
0000
0100
0010
0000
0010
0100
0000
0001
0000
1000
0000
0000
0000
,  // measure 269
0101
0010
1010
0000
1000
1000
2000
0100
,  // measure 270
3001
0100
0010
0100
0001
0100
0010
0100
0001
0100
0010
0100
0001
0000
0000
0000
,  // measure 271
1100
0010
0011
0000
0001
0001
0002
0010
,  // measure 272
1003
0100
0010
0100
1000
0000
0010
0000
0001
0000
0010
0000
0100
0010
0100
0010
,  // measure 273
1000
0001
0010
0001
1000
0001
0010
0100
,  // measure 274
1000
0000
0010
0000
0100
0001
0100
0000
0010
1000
0010
0000
0100
0000
0100
0000
,  // measure 275
0100
0000
0001
0000
1000
0000
0001
0000
0010
0000
0001
0000
1000
0000
0010
0100
,  // measure 276
0000
0010
0100
0000
0001
0000
1000
0100
0000
1000
0100
0000
0010
0000
0000
0000
,  // measure 277
0011
0010
1010
0000
0010
0001
1000
0010
,  // measure 278
1000
0001
1000
0100
1000
0001
1000
0100
1000
0001
1000
0100
0010
0000
0000
0000
,  // measure 279
0001
0000
0100
0000
1000
0100
0001
0100
0001
0000
0020
0000
0000
0000
0130
0000
,  // measure 280
1000
0000
0010
1000
0010
1000
0010
0000
0100
0000
0001
0010
0001
0010
0001
0000
,  // measure 281
1000
0000
0001
0100
0001
0100
0001
0000
1000
0100
1000
0000
0010
0000
0100
0000
,  // measure 282
0001
0000
0010
0000
0100
1000
0100
1000
0001
0000
0100
0000
0010
1000
0010
1000
,  // measure 283
0001
0000
0010
0000
0100
1000
0100
0000
0010
0001
0010
0000
0100
0000
1000
0000
,  // measure 284
0010
0000
0100
0001
0100
0001
1000
0000
0010
0000
0100
0001
1000
0001
1000
0000
,  // measure 285
0100
0000
0010
0001
0010
0100
1000
0000
0010
0100
0001
0000
0010
0000
0001
0000
,  // measure 286
0010
0001
1000
0010
1000
0010
0100
0001
,  // measure 287
0010
0000
0100
0000
1000
0000
0010
0000
0100
0000
0001
0000
0010
0100
1000
0001
,  // measure 288
1000
0010
0100
0001
0010
0100
1000
0001
1000
0010
0100
0001
0020
0000
0100
0000
,  // measure 289
0100
0000
0000
0000
0130
0000
0010
0000
1001
0000
0000
0000
1001
0000
1000
0010
,  // measure 290
1000
0000
0010
0100
0001
0100
0010
0100
0001
0000
1000
0100
0010
0100
1000
0000
,  // measure 291
0001
0100
0010
0000
0100
0000
1000
0000
0100
0000
0001
0000
1001
0000
1000
0100
,  // measure 292
1000
0000
0100
0010
0001
0010
0100
0010
0001
0000
1000
0010
0100
0010
1000
0000
,  // measure 293
0001
0010
0100
0000
1000
0000
0010
0000
0001
0000
0010
0000
1010
0000
1000
0000
,  // measure 294
1001
0000
0001
0000
0010
0001
1000
0001
0010
0000
0100
1000
0001
1000
0100
0000
,  // measure 295
0010
0001
1000
0000
0010
0100
0000
0100
0010
0000
0010
0000
0110
0000
0100
0000
,  // measure 296
0100
0000
0010
0100
0001
0000
1000
0000
0001
0010
0100
0000
1000
0100
1000
0100
,  // measure 297
0010
0001
1000
0001
1000
0010
0100
0001
1000
0100
0010
0001
0020
0000
0000
0000
,  // measure 298
0130
1000
0100
0000
1000
0010
1000
0010
0100
0010
1000
0010
1000
0001
0100
0001
,  // measure 299
1000
0100
0000
0010
0001
0000
0001
0000
1001
0000
0000
0000
2010
0000
0000
0000
,  // measure 300
3001
0100
0001
0000
0010
0001
0010
0001
1000
0001
0010
0000
0011
0000
0000
1010
,  // measure 301
0000
0000
1100
0000
0000
0101
0000
0000
0210
0000
0000
0000
0301
0100
0010
0100
,  // measure 302
0010
0000
0000
1000
0000
0000
1010
0000
0000
0011
0000
0000
0001
0000
0000
0010
0000
0000
0100
0000
1000
0000
0010
0000
,  // measure 303
0100
0000
0000
0000
0000
0000
0000
0000
1000
0000
0000
0000
0200
0000
0000
0000
0000
0000
0000
0000
0000
0000
0000
0000
0301
0000
0000
1000
0000
0000
0010
0000
0000
0100
0000
0000
0001
0000
0000
0000
0000
0000
0000
0000
0000
0000
0000
0000
,  // measure 304
0011
0100
1000
1010
0100
0001
0011
0100
,  // measure 305
0100
1020
0000
0100
0130
0000
1001
0000
,  // measure 306
0000
0000
0000
0000
,  // measure 307
0000
0000
0000
0000
,  // measure 308
0000
0000
0000
0000
,  // measure 309
0000
0000
0000
0000
0000
0000
1000
0100
,  // measure 310
0010
0001
0000
1010
0000
0011
0000
0110
,  // measure 311
0000
1000
0100
0010
0001
1000
0010
0100
,  // measure 312
0001
1000
0000
1010
0000
0011
0000
0101
,  // measure 313
0000
1000
0100
0001
0010
0100
1000
0010
,  // measure 314
0100
0001
0000
0011
0000
1010
0000
0110
,  // measure 315
0000
0100
0001
0100
1000
0100
0001
0010
,  // measure 316
0100
1000
0000
1010
0000
0011
0000
0110
,  // measure 317
0000
1000
0100
0001
1000
0010
0001
0100
,  // measure 318
0010
1000
0000
1100
0000
1010
0000
0011
,  // measure 319
0000
0000
0001
0100
0010
0000
1000
0010
0100
0000
0001
0000
1000
0000
0100
0000
,  // measure 320
0010
0001
0000
1000
0000
0010
0000
0000
,  // measure 321
0000
0000
0000
0000
0000
0000
0001
0100
,  // measure 322
0010
1000
0000
0000
0000
0000
0000
0000
,  // measure 323
0000
0000
0000
0000
0000
0000
1000
0100
,  // measure 324
0010
0001
0000
0000
0000
0000
0000
0000
,  // measure 325
0000
0000
0000
0000
,  // measure 326
0000
2002
0000
0000
,  // measure 327
0000
0000
0000
0000
,  // measure 328
0000
0000
0000
0000
,  // measure 329
0000
0000
0000
0000
,  // measure 330
0000
0000
0000
0000
,  // measure 331
0000
0000
0000
0000
,  // measure 332
0000
0000
0000
0000
,  // measure 333
0000
0000
0000
0000
,  // measure 334
0000
3003
0000
0000
;
