#TITLE:Midnight City Warfare;
#SUBTITLE:;
#ARTIST:sky_delta;
#TITLETRANSLIT:;
#SUBTITLETRANSLIT:;
#ARTISTTRANSLIT:;
#GENRE:;
#CREDIT:;
#BANNER:;
#BACKGROUND:Midnight City Warfare-bg.png;
#LYRICSPATH:;
#CDTITLE:;
#MUSIC:Midnight City Warfare.ogg;
#OFFSET:0.564000;
#SAMPLESTART:86.102997;
#SAMPLELENGTH:10.000000;
#SELECTABLE:YES;
#BPMS:0.000000=180.000000
;
#STOPS:
;
#BGCHANGES:;
#KEYSOUNDS:;
#ATTACKS:;

//---------------dance-single - ----------------
#NOTES:
     dance-single:
     :
     Hard:
     16:
     0.840749,0.948361,0.385246,0.901639,0.581967,718.000000,671.000000,47.000000,110.000000,0.000000,0.000000,0.840749,0.948361,0.385246,0.901639,0.581967,718.000000,671.000000,47.000000,110.000000,0.000000,0.000000:
0000
0000
0000
0000
,
0000
0000
0000
0000
,
0000
0000
0000
0000
,
0000
0000
0000
0000
,
0000
0000
0000
0000
,
0020
0230
0302
2003
3200
0310
0000
0200
,
2300
3002
0203
0320
2030
3020
0032
0023
,
0230
0302
0023
0230
2300
3002
0203
0000
,
0300
0020
0000
0030
1002
0000
0103
0000
,
1001
0000
0100
0000
0001
0000
1000
0001
1000
0100
1000
0000
0100
0000
0000
0000
,
1001
0000
0100
0000
1000
0000
0001
1000
0001
0100
0001
0000
0100
0000
0000
0000
,
0101
0000
1000
0000
0001
0000
0010
0100
1000
0100
1000
0000
0010
0000
0000
0000
,
1010
0000
0001
0000
1000
0000
0100
0010
0001
0000
0100
0010
0001
0000
0010
0000
,
0200
2300
3200
0320
0032
0203
0302
2003
,
3200
0320
0032
0203
2300
3002
0023
0230
,
0302
0023
2030
3020
0230
2300
3001
0000
,
0002
1003
0000
1020
0130
0000
0011
0000
,
0200
0000
0000
0000
1300
0000
0010
1000
0010
0100
0010
0000
1000
0000
0000
0000
,
0001
0000
1000
0000
0100
0000
0010
0001
0010
0100
0010
0000
0001
0000
1000
0000
,
1000
0000
0001
0000
0100
0000
0010
0100
0001
0100
0010
0000
1000
0000
0000
0000
,
0001
0000
1000
0000
0100
0000
0010
0100
1000
0100
0010
0000
0001
0000
1000
0000
,
0002
0203
2300
3002
0023
2030
3002
0023
,
2030
3002
0203
2300
3002
0000
2000
3003
,
1000
0100
1000
0001
1000
0000
0001
0100
0001
1000
0001
0000
0010
0001
1000
0001
,
1000
0000
0010
1000
0001
1000
0001
0000
0010
0000
0100
0000
1000
0000
0010
0000
,
0210
0000
0310
0010
0010
0010
1000
0010
,
0010
0001
0010
0010
0100
0001
0010
0100
,
1000
0010
0100
0100
0100
0100
0100
0001
,
0100
1000
0100
0100
0001
0010
0100
0010
,
0011
0001
0100
0100
,
1010
0100
0011
0100
,
1010
0000
0010
0000
0100
0000
0100
0000
0001
0010
0001
0010
0100
1000
0100
1000
,
0002
0000
0000
0000
0013
0100
1001
0000
,
0210
0000
0000
0000
0301
0000
0000
1000
0100
0000
1000
0000
0010
1000
0010
0000
,
0100
0001
0010
0001
0010
0000
0100
1000
0010
1000
0010
0000
0100
0000
0000
0000
,
0120
0000
0000
0000
2030
0000
0010
0000
3002
0000
0000
0100
0000
0000
1003
0000
,
0100
0100
0010
0010
0001
0100
1000
0100
,
1002
0000
0000
0000
1003
0010
0100
0010
0100
0000
0001
0000
0010
0100
1000
0000
,
0100
0010
0001
1000
0010
0100
0001
0010
0100
0000
1000
0000
0000
0000
1000
0000
,
0001
0100
1000
0100
0001
0010
1000
0001
,
0100
0000
0000
1100
0000
0000
0102
0000
0000
0000
0000
0000
1003
0000
0000
0000
,
0210
0000
0000
0000
0301
0100
0001
0000
1000
0100
1000
0000
0001
0010
0001
0010
,
0100
0000
0000
0000
1000
0010
1000
0010
0000
0100
0001
0000
0001
0000
0010
0000
,
0100
0000
0000
0000
1000
0010
1000
0000
0001
0010
0001
0000
0010
0100
0010
0100
,
1000
0010
0001
0010
1000
0001
0100
1000
,
0200
0000
0000
0302
1000
0000
0023
0000
,
0000
0032
1000
0003
0100
0002
1000
1003
,
0100
0000
0100
0000
0010
0000
0010
0000
0001
1000
0001
1000
0100
0010
0100
0010
,
0002
0000
0203
0000
0000
0000
0310
1000
0010
0000
0100
0000
0001
0000
0000
0000
,
0120
0000
0000
0000
1030
0100
0000
0100
0010
0000
0010
0001
0000
1000
0010
0000
,
0210
0000
0000
0000
0301
0100
0000
0100
0010
0000
0010
1000
0000
0001
0010
0000
,
0100
1000
0001
0000
1001
0000
0000
0101
0000
0000
1010
0000
0000
0011
0000
0000
,
0010
0010
0100
0100
1000
0100
0001
0100
,
2000
0000
0000
0000
3001
0100
0001
0000
0010
0000
0100
1000
0100
0000
0010
0000
,
0001
0100
0001
0000
1000
0010
1000
0000
0100
1000
0100
0000
0010
0001
0010
0000
,
0200
0000
0000
0000
1300
0001
1000
0001
0100
0010
0100
0010
1000
0001
0010
0100
,
1000
0000
0000
1010
0000
0000
0120
0000
0000
0000
0000
0000
1030
0000
0000
0000
,
2001
0000
0000
3200
0000
0000
0320
0000
,
0030
0020
0000
0000
0030
0000
0000
0000
,
1002
0000
0000
0203
0000
0000
2300
0000
,
3200
0000
0000
0020
0000
0000
0330
0000
,
0001
0001
1000
1000
0010
0010
0100
0100
,
0001
0001
0010
0010
0100
0100
1000
0001
,
0100
0001
0100
0001
1000
0010
1000
0010
1000
0100
1000
0100
0010
0001
0010
0001
,
2000
0000
0000
0002
0000
0000
3003
0000
,
2001
0000
0000
0000
3100
0000
0001
1000
0100
0000
1000
0001
0100
0000
0010
0000
,
1000
0000
0010
0100
0000
0100
0001
0000
1000
0000
0100
0010
0001
1000
0010
0100
,
0020
0000
0000
0000
0130
0000
1000
0001
0100
0000
0001
1000
0100
0000
0010
0000
,
0100
0000
0000
1010
0000
0000
0011
0000
0001
0000
0010
0000
0100
1000
0100
0010
,
0002
0000
0000
0000
1003
0000
0100
0001
0000
0100
0001
0000
1000
0000
0010
0000
,
0001
0000
0000
1010
0000
0000
1100
0000
0001
0000
0100
0000
1000
0000
0100
0000
,
0010
0000
0100
0001
0000
1000
0100
0000
0010
0000
0010
0100
1000
0000
0000
0000
,
0020
0000
0031
0020
0000
0000
1030
0100
,
0020
0000
0000
0000
1030
0100
1000
0000
0001
0010
0001
0000
1000
0001
0100
0001
,
1000
0000
0010
0000
0100
0001
0100
0000
0001
0010
0000
0100
1000
0000
0001
0000
,
0100
0000
0010
0000
0100
0001
0100
0000
0010
1000
0010
0000
1000
0001
0010
0100
,
1000
0000
0010
0000
1000
0100
1000
0000
0001
0010
0001
0000
1000
0010
0100
0001
,
0010
0000
0001
0010
0110
0000
1000
0001
,
0000
0000
0010
0000
0100
0000
1000
0000
1100
0000
0100
0010
0001
0000
0001
0000
,
0100
0000
0100
0000
0010
0000
0010
0000
1000
0010
0100
0001
1000
0100
0010
0001
,
1000
0020
0000
0031
0010
1000
0010
0100
,
0101
0000
0000
0000
1100
0000
0000
0010
0100
0000
1000
0000
0001
0000
0000
0000
,
0010
0001
0100
0001
0100
0000
0010
1000
0100
1000
0100
0000
0110
0000
0000
0000
,
1001
0000
0000
0000
2000
0000
0100
0000
3002
0000
0000
0013
0000
0000
0100
0000
,
1000
1000
0100
0100
0011
0000
0110
0000
,
1010
0000
0000
0000
0210
0000
0000
0000
0301
0000
0000
0000
1000
0100
0001
0000
,
0000
0000
0001
0100
1000
0000
0000
0000
1000
0000
0001
0000
0000
0000
0100
0000
,
0020
0000
1000
0000
0230
0000
0001
0000
0310
1000
0010
1000
0100
0010
0001
0010
,
0001
0000
0000
0101
0000
0000
0220
0000
0000
0000
0330
0000
2002
0000
0000
0000
,
3003
0000
0000
0000
;

//---------------dance-single - ----------------
#NOTES:
     dance-single:
     :
     Challenge:
     16:
     0.823185,0.948361,0.295082,0.491803,0.635246,703.000000,667.000000,36.000000,60.000000,0.000000,0.000000,0.823185,0.948361,0.295082,0.491803,0.635246,703.000000,667.000000,36.000000,60.000000,0.000000,0.000000:
0000
0000
0000
0000
,
0000
0000
0000
0000
,
0000
0000
0000
0000
,
0000
0000
0000
0000
,
0000
0000
0000
0000
,
2000
0000
0000
0010
0010
0000
0001
0000
,
0000
0000
0100
0000
0100
0000
0000
0000
3001
0000
0001
0100
0010
0000
0010
1000
,
0002
0000
0000
0010
0010
0000
0100
0203
,
0000
0001
0302
0000
2000
0000
3003
0000
,
1001
0000
0100
0000
0001
0000
1000
0001
1000
0100
1000
0000
0100
0000
0000
0000
,
1001
0000
0100
0000
1000
0000
0001
1000
0001
0100
0001
0000
0100
0000
0000
0000
,
0101
0000
1000
0000
0001
0000
0010
0100
1000
0100
1000
0000
0001
0000
0000
0000
,
1100
0000
0001
0000
1000
0000
0010
0100
0001
0000
0001
0100
0001
0000
0001
0000
,
0100
0010
1000
0100
0010
0001
0000
0001
,
0100
0010
1000
0100
0001
0100
0010
0001
,
0100
1000
0100
0010
1000
0100
0001
0002
,
0000
0103
0200
0000
2300
0000
3020
0000
,
0230
0000
0000
0000
0301
0000
0010
0001
0010
0100
0010
0000
0001
0000
0000
0000
,
1000
0000
0001
0000
0100
0000
0010
1000
0010
0100
0010
0000
1000
0000
0001
0000
,
0001
0000
1000
0000
0100
0000
0010
0100
1000
0100
0010
0000
0001
0000
0000
0000
,
1000
0000
0001
0000
0100
0000
0010
0100
0001
0100
0010
0000
1000
0000
0001
0000
,
2000
3200
0302
2003
3020
0032
2003
3020
,
0032
2003
3200
0302
2003
0000
0002
3003
,
1000
0100
1000
0001
1000
0000
0001
0100
0001
1000
0001
0000
0010
0001
1000
0001
,
1000
0000
0010
1000
0001
1000
0001
0000
0010
0000
0100
0000
1000
0000
0010
0000
,
0210
0000
0310
0010
0010
0010
1000
0010
,
0010
0000
0001
0000
0010
0000
0010
0000
0100
0000
0001
0000
0010
0000
0100
0010
,
0100
0100
0100
0010
0010
0100
0010
0001
,
0100
1000
0100
0001
0010
1000
0010
0001
,
1000
0010
1000
0000
1000
0000
0000
0000
0010
0000
0000
0000
0100
0000
0000
0000
,
0001
0010
0001
0000
0001
0000
0000
0000
1000
0100
1000
0000
1000
0000
0001
0000
,
0100
0001
0100
0000
0001
0010
0001
0000
1000
0010
0100
0001
1000
0100
0010
0001
,
0200
0000
0300
0110
,
1001
0000
0000
0000
0011
0000
1000
0000
0010
0000
1000
0000
0001
0010
0100
0000
,
1000
0010
1000
0010
0100
0000
1000
0010
1000
0010
0100
0000
0200
0000
0000
0000
,
0310
0000
0000
0000
0001
0000
0001
0000
0010
0000
0000
1000
0000
0000
0001
0000
,
0011
0101
1100
1010
,
1001
0000
0000
0000
1000
0001
0100
0001
0010
0000
0100
0000
0010
0001
0100
0000
,
0010
0100
0001
1000
0100
0010
0001
1000
0010
0000
0100
0000
0000
0000
0100
0000
,
0010
0001
1000
0100
0001
0010
1000
0010
,
0001
0000
0000
1010
0000
0000
1002
0000
0000
0000
0000
0000
0013
0000
0000
0000
,
1001
0000
0000
0000
0100
0000
0001
0100
0000
0010
1000
0000
0001
0010
0100
0000
,
1000
0000
0010
0000
0001
0000
0010
0100
0000
0100
0001
0000
0010
0000
0000
0000
,
1001
0000
0000
0000
0010
0000
1000
0100
0000
0010
0001
0000
1000
0010
0100
0000
,
0001
1000
0100
0001
1000
0010
0001
0010
,
0200
0000
0000
0010
2300
0000
3002
0000
,
0000
0100
2003
0000
3010
0010
0100
0010
,
1000
0000
1000
0000
0001
0000
0001
0000
0010
0100
0010
0100
1000
0001
1000
0001
,
0200
0000
0000
0000
0000
0300
0110
0000
,
2002
0000
3003
0000
0010
1000
0000
1000
0100
0000
0100
0001
0000
0001
1000
0000
,
0200
0000
0300
0000
0010
0001
0000
0001
0100
0000
0100
1000
0000
1000
0001
0000
,
0200
0000
0300
0000
1010
0000
0000
1010
0000
0000
0011
0000
0000
0101
0000
0000
,
1000
0100
0001
0100
1000
0010
0100
0010
,
1001
0000
0000
0000
0010
1000
0010
0000
0100
0000
0001
0010
0001
0000
0100
0000
,
0010
1000
0010
0000
1000
0100
1000
0000
0001
0100
0001
0000
0010
0001
0010
0000
,
0200
0000
0000
0000
1300
0010
0100
0001
1000
0010
0100
0001
1000
0100
0010
0001
,
1000
0010
0000
0100
0001
0000
0020
0000
0000
0000
0000
0000
0130
0000
0000
0000
,
2001
0000
0000
3200
0000
0000
0001
0000
,
0000
0020
0000
0000
0330
0000
0000
0000
,
1002
0000
0000
0203
0000
0000
1000
0000
,
0320
0000
0000
0200
0000
0000
0330
0000
,
0001
0000
0000
0000
0010
0100
0000
0010
0100
0000
1000
0000
0010
0000
0001
0000
,
0010
0000
0100
0001
0000
0100
0001
0000
0010
0000
1000
0000
0010
0100
1000
0000
,
0001
0100
0001
0100
0010
1000
0010
1000
0100
0010
0001
0100
0010
0000
0000
0000
,
2000
0000
0000
0000
0000
0000
3001
0000
0000
0000
0000
0000
0001
0010
0100
1000
,
0002
0000
0000
0000
0103
0000
0100
0010
0000
1000
0100
1000
0100
0000
0010
0000
,
0100
0000
1000
0010
0000
0010
0001
0000
0000
0000
1000
0001
0010
0001
0010
0100
,
2000
0000
0000
0000
3010
0000
0010
0100
0000
0001
0010
0001
0010
0000
0100
0000
,
0010
0000
0001
0010
0000
0010
1000
0000
0000
0000
0010
1000
0001
1000
0100
0010
,
0002
0000
0000
0000
1003
0000
0010
1000
0000
0010
1000
0000
0100
0000
0001
0000
,
1000
0000
0010
0001
0000
0001
1000
0000
0010
0000
0001
0000
1000
0000
0100
0000
,
0010
0000
0100
0001
0000
1000
0100
0000
0010
0000
0010
0100
1000
0000
0000
0000
,
0020
0000
1000
0230
0000
0301
0010
0100
,
2000
0000
0000
0000
3001
0100
0001
0000
1000
0010
1000
0000
0001
0100
0010
0100
,
0001
0000
0010
0000
0100
1000
0100
0000
1000
0010
0000
0010
0100
0000
0001
0000
,
1000
0000
0100
0000
1000
0100
1000
0000
0001
0010
0001
0000
1000
0100
0010
0100
,
1000
0000
0010
0000
1000
0001
0100
0000
0001
0010
0000
0001
0100
0000
0010
0000
,
0200
0000
0310
0010
0010
0010
1000
1000
,
0001
0000
0010
0000
0010
0000
0100
0000
1000
0000
1000
0001
0100
0000
0100
0000
,
0010
0000
1000
0000
0010
0000
1000
0000
0100
1000
0100
1000
0001
0100
0001
0100
,
0001
0020
0000
1030
0010
0001
0010
0100
,
1000
0000
0000
0000
1010
0000
0000
0000
0010
0000
0001
0000
1000
0010
0100
0000
,
0001
1000
0100
1000
0001
0000
1000
0001
0100
0001
1000
0000
0200
0000
0000
0000
,
0310
0000
0000
0000
0001
0000
0001
0000
0010
0000
0000
1000
0000
0000
0001
0000
,
0101
1100
1010
0011
,
1001
0000
0000
0000
0110
0000
0000
0000
0010
0000
1000
0000
0010
1000
0100
0010
,
0000
0000
0010
0001
0100
0010
0000
0000
1000
0000
0001
0000
0000
0000
0001
0000
,
1000
0000
0010
0000
0001
0000
1000
0000
0100
0000
0001
0100
0001
1000
0100
1000
,
0100
0000
0000
0011
0000
0000
0202
0000
0000
0000
0303
0000
2002
0000
0000
0000
,
3003
0000
0000
0000
;

//---------------dance-single - ----------------
#NOTES:
     dance-single:
     :
     Medium:
     12:
     0.622951,0.693033,0.450820,0.319672,0.065574,532.000000,477.000000,55.000000,39.000000,0.000000,0.000000,0.622951,0.693033,0.450820,0.319672,0.065574,532.000000,477.000000,55.000000,39.000000,0.000000,0.000000:
// measure 0
0000
0000
0000
0000
,  // measure 1
0000
0000
0000
0000
,  // measure 2
0000
0000
0000
0000
,  // measure 3
0000
0000
0000
0000
,  // measure 4
0000
0000
0000
0000
,  // measure 5
0010
0000
0000
0100
0100
0000
0001
0000
,  // measure 6
0000
1000
1000
0000
0100
0000
0010
0000
,  // measure 7
0001
0000
0000
0100
0100
0000
0020
0000
,  // measure 8
0030
2000
0000
3000
0002
0000
0003
0000
,  // measure 9
1001
0000
1000
0100
0010
0100
1000
0000
,  // measure 10
1001
0000
0001
0100
0010
0100
0001
0000
,  // measure 11
1001
0000
0001
0010
0100
0010
0001
0000
,  // measure 12
1001
0000
1000
0010
0100
0010
0100
0010
,  // measure 13
1000
0100
0010
0001
0010
0001
0000
1000
,  // measure 14
0100
0010
0001
0010
0100
1000
0001
1000
,  // measure 15
0100
1000
0010
0100
0001
0010
0200
0000
,  // measure 16
0300
2000
0000
3000
0002
0000
0003
0000
,  // measure 17
0110
0000
0100
0001
0010
0001
0100
0000
,  // measure 18
1001
0000
0100
1000
0010
1000
0100
0000
,  // measure 19
0110
0000
1000
0100
0001
0100
1000
0000
,  // measure 20
1001
0000
0001
0100
1000
0100
0010
0100
,  // measure 21
0001
0010
0100
1000
0100
1000
0000
0001
,  // measure 22
0010
0100
1000
0100
0020
0000
0032
0000
,  // measure 23
1003
0000
0001
0101
0000
1000
1100
0000
,  // measure 24
0001
1001
0000
1000
1001
0000
0110
0000
,  // measure 25
1002
0000
0103
0001
0100
0001
0100
0100
,  // measure 26
0001
1000
1000
0100
0010
0001
0010
0000
,  // measure 27
0100
1000
0100
1000
0100
1000
0100
0010
,  // measure 28
0100
1000
0100
0010
0001
0100
0010
0000
,  // measure 29
1010
1000
0100
0100
,  // measure 30
0011
0001
1010
1000
,  // measure 31
0010
0100
0010
0100
0001
0010
0100
1000
,  // measure 32
0200
0000
0000
0310
,  // measure 33
1001
0000
0101
0000
0100
0010
0100
0000
,  // measure 34
0001
0010
0010
1000
0010
0010
0002
0000
,  // measure 35
2003
0000
0000
0000
3100
0000
1000
0000
0010
0000
0000
0100
0000
0000
0010
0000
,  // measure 36
1000
0010
1000
0010
0100
0001
0010
0000
,  // measure 37
0110
0000
1100
0000
0100
0010
0200
0000
,  // measure 38
2300
0000
3002
0000
0103
0010
0000
0010
,  // measure 39
0100
0001
0100
0001
1000
0100
0010
0001
,  // measure 40
1001
0000
0000
1000
0000
0000
0020
0000
0000
0000
0000
0000
0030
0000
0000
0000
,  // measure 41
1002
0000
1003
0100
0010
0100
1000
0001
,  // measure 42
1000
0000
0110
0000
0001
0100
0010
0000
,  // measure 43
2001
0000
3001
0100
0010
0100
0001
1000
,  // measure 44
0000
1000
0001
0010
0100
0010
0100
1000
,  // measure 45
0002
0000
0000
0100
0103
0000
2000
0000
,  // measure 46
0000
0010
0010
0000
0002
0000
3003
0000
,  // measure 47
0100
1000
0100
1000
0001
0100
0010
1000
,  // measure 48
0200
0010
0000
0310
0100
1000
0100
0000
,  // measure 49
0110
0000
0000
0000
0011
0000
0000
0001
0000
0000
1001
0000
0000
1000
0000
0000
,  // measure 50
1010
0000
0000
0000
0101
0000
0000
0001
0000
0000
1001
0000
0000
1000
0000
0000
,  // measure 51
1100
0000
0000
0000
0110
0000
0000
0110
0000
0000
1001
0000
0000
0110
0000
0000
,  // measure 52
0010
0001
0010
0001
0100
0010
1000
0010
,  // measure 53
0200
0000
0301
0100
0100
1000
0100
0100
,  // measure 54
0001
0000
0011
0001
0100
0000
1010
0000
,  // measure 55
1002
0000
0013
0100
0010
0100
0010
0100
,  // measure 56
0010
0000
0000
0010
0000
0000
0220
0000
0000
0000
0000
0000
0330
0000
0000
0000
,  // measure 57
1001
0000
0000
0001
0000
0000
0010
0000
,  // measure 58
0000
0010
0000
0000
0000
0000
0000
0000
,  // measure 59
1001
0000
0000
1000
0000
0000
0010
0000
,  // measure 60
1000
0000
0000
0100
0000
0000
0000
0000
,  // measure 61
0010
0001
0010
0001
1000
0010
0100
0001
,  // measure 62
1000
0100
1000
0100
1000
0010
0100
0001
,  // measure 63
0010
0100
0010
0100
1000
0001
1000
0001
,  // measure 64
0200
0000
0000
0020
0000
0000
0330
0000
,  // measure 65
2001
0000
3100
0010
0001
0010
1000
0010
,  // measure 66
0100
0000
0000
1000
0000
0000
0100
0000
0000
0000
1000
0000
0001
0000
0000
0000
,  // measure 67
1002
0000
0103
0010
1000
0010
0001
0010
,  // measure 68
0100
0000
0000
0001
0000
0000
0100
0000
0000
0000
0100
0000
1000
0000
0100
0000
,  // measure 69
0120
0000
0000
0000
1030
0000
0000
1000
0000
0000
0100
0000
0010
0000
1000
0000
,  // measure 70
0010
0000
0000
0001
0000
0000
0010
0000
0000
0000
0001
0000
0010
0000
0100
0000
,  // measure 71
1000
0000
0000
0100
0000
0000
1000
0000
0000
0000
1000
0000
0001
0000
0000
0000
,  // measure 72
0200
0000
0000
0010
0000
0000
0301
1000
,  // measure 73
2001
0000
3100
0010
0100
0001
0100
1000
,  // measure 74
0001
0100
0001
1000
0010
0000
0001
0100
,  // measure 75
0210
0000
0310
0100
0010
0001
0010
1000
,  // measure 76
0001
0010
0001
1000
0100
0000
0001
0010
,  // measure 77
0100
0000
0000
1000
0001
0000
1001
0000
,  // measure 78
0000
0001
0100
0010
0110
0100
0110
0000
,  // measure 79
0001
0100
0001
0100
0010
1000
0100
0010
,  // measure 80
0001
0100
0000
0010
1000
0010
1000
0001
,  // measure 81
0010
0000
1100
0000
0100
0010
0100
0000
,  // measure 82
1000
0010
0010
0001
0010
0010
2000
0000
,  // measure 83
3002
0000
0000
0000
0103
0000
0001
0000
0010
0000
0000
0100
0000
0000
0010
0000
,  // measure 84
0001
0010
0001
0010
0100
0000
1000
0000
,  // measure 85
1001
0000
0101
0000
0100
0010
1000
0100
,  // measure 86
0000
0001
0100
0000
1000
0010
0000
0001
,  // measure 87
0010
1000
0010
1000
0001
0010
0100
1000
,  // measure 88
1001
0000
0000
0001
0000
0000
0200
0000
0000
0000
0300
0000
2002
0000
0000
0000
,  // measure 89
3003
0000
0000
0000
;

//---------------dance-single - ----------------
#NOTES:
     dance-single:
     :
     Easy:
     8:
     0.326698,0.363730,0.122951,0.229508,0.000000,279.000000,264.000000,15.000000,28.000000,0.000000,0.000000,0.326698,0.363730,0.122951,0.229508,0.000000,279.000000,264.000000,15.000000,28.000000,0.000000,0.000000:
// measure 0
0000
0000
0000
0000
,  // measure 1
0000
0000
0000
0000
,  // measure 2
0000
0000
0000
0000
,  // measure 3
0000
0000
0000
0000
,  // measure 4
0000
0000
0000
0000
,  // measure 5
0100
0100
0100
0000
,  // measure 6
0001
0001
0010
0100
,  // measure 7
1000
0010
0100
0101
,  // measure 8
0000
0000
1001
0000
,  // measure 9
1001
0001
0010
0100
,  // measure 10
0010
0001
1000
0000
,  // measure 11
1001
1000
0010
0100
,  // measure 12
0010
1000
0100
0000
,  // measure 13
1000
0010
0001
0000
,  // measure 14
0001
0010
1000
0000
,  // measure 15
0001
0010
1000
0020
,  // measure 16
0000
0030
0000
0000
0001
0000
0000
0000
,  // measure 17
1000
1000
0010
0100
,  // measure 18
0001
0001
0100
0000
,  // measure 19
0001
0001
0010
0100
,  // measure 20
1000
1000
0100
0000
,  // measure 21
1000
0100
0001
0000
,  // measure 22
0001
0100
1000
0000
,  // measure 23
1000
0010
0001
0010
,  // measure 24
1000
0010
0001
0010
,  // measure 25
2000
0000
0000
0001
,  // measure 26
0000
0001
0000
0000
3001
0000
0000
0000
,  // measure 27
0002
0000
0000
0000
0000
0000
0000
1000
,  // measure 28
0000
1000
0000
0000
1000
0000
1003
0000
,  // measure 29
0010
0010
0100
0100
,  // measure 30
0001
0100
1000
0100
,  // measure 31
0001
0010
1000
0010
,  // measure 32
0200
0000
0000
0310
,  // measure 33
0110
0100
1000
0002
,  // measure 34
0103
0100
0010
0200
,  // measure 35
0300
0000
0001
0100
0001
0000
0100
0000
,  // measure 36
0010
0010
1000
0000
,  // measure 37
1001
0001
0010
1000
,  // measure 38
0020
0032
0003
0000
,  // measure 39
0001
0010
0100
1000
,  // measure 40
0002
0000
0103
0000
,  // measure 41
0110
0100
0001
0001
,  // measure 42
1000
1000
0200
0300
,  // measure 43
0110
0010
0001
0001
,  // measure 44
1000
0010
0001
0010
,  // measure 45
2000
0000
0000
3020
,  // measure 46
0000
0000
0130
0000
,  // measure 47
0001
0100
0001
0100
,  // measure 48
0020
0000
0000
0130
,  // measure 49
0110
0000
0010
0000
0000
0100
0000
0000
,  // measure 50
0010
0000
1000
0000
0000
0001
0000
0000
,  // measure 51
1000
0000
0100
0000
0000
0010
0000
0000
,  // measure 52
0100
0100
0010
0020
,  // measure 53
0030
0001
0001
1000
,  // measure 54
0100
0010
0001
2000
,  // measure 55
3000
0010
0010
0010
,  // measure 56
0020
0000
0000
0130
0000
0000
0000
0000
,  // measure 57
0102
0000
0000
1000
,  // measure 58
0000
1003
0000
0000
0000
0000
0000
0000
,  // measure 59
2100
0000
0000
0000
,  // measure 60
0001
0000
0000
3001
0000
0000
0000
0000
,  // measure 61
0101
0001
0100
1000
,  // measure 62
0100
0001
0100
0010
,  // measure 63
1000
0100
0001
0100
,  // measure 64
2000
0000
0000
3001
0000
0000
0000
0000
,  // measure 65
0200
0301
0100
0010
,  // measure 66
1000
0100
0100
0000
,  // measure 67
0200
1300
0010
0100
,  // measure 68
0001
0010
0001
0000
,  // measure 69
2000
3001
0001
0010
,  // measure 70
0001
1000
0001
0100
,  // measure 71
0010
0010
1000
0001
,  // measure 72
0020
0000
0000
0130
0000
0000
0100
0000
,  // measure 73
0010
0001
0010
0001
,  // measure 74
1000
0010
1000
0000
,  // measure 75
0100
1000
0100
1000
,  // measure 76
0001
0100
0001
0000
,  // measure 77
0020
0000
0000
0030
0000
0000
0200
0000
,  // measure 78
0000
0300
0000
0000
0010
0000
0010
0000
,  // measure 79
0001
0010
1000
0010
,  // measure 80
0001
0000
1000
0000
,  // measure 81
1100
1000
0001
2000
,  // measure 82
3100
0100
0010
0200
,  // measure 83
0300
0000
1000
0100
1000
0000
0100
0000
,  // measure 84
0010
0010
0001
0000
,  // measure 85
1001
1000
0010
0001
,  // measure 86
0000
0010
0000
0000
1000
0000
0000
0000
,  // measure 87
1000
0010
0100
0001
,  // measure 88
2000
0000
3000
0110
;

//---------------dance-single - ----------------
#NOTES:
     dance-single:
     :
     Beginner:
     4:
     0.163934,0.254611,0.040984,0.073770,0.000000,140.000000,135.000000,5.000000,9.000000,0.000000,0.000000,0.163934,0.254611,0.040984,0.073770,0.000000,140.000000,135.000000,5.000000,9.000000,0.000000,0.000000:
// measure 0
0000
0000
0000
0000
,  // measure 1
0000
0000
0000
0000
,  // measure 2
0000
0000
0000
0000
,  // measure 3
0000
0000
0000
0000
,  // measure 4
0000
0000
0000
0000
,  // measure 5
1000
1000
1000
0000
,  // measure 6
1000
0000
0000
0000
,  // measure 7
0001
0001
0001
0000
,  // measure 8
0001
0000
0000
0000
,  // measure 9
0001
0000
1000
0000
,  // measure 10
0001
0000
1000
0000
,  // measure 11
0010
0000
0100
0000
,  // measure 12
0001
0000
0000
0000
,  // measure 13
1000
0000
0001
0000
,  // measure 14
1000
0000
0001
0000
,  // measure 15
0010
0000
0100
0000
,  // measure 16
0000
0000
0000
0000
,  // measure 17
0010
0000
0100
0000
,  // measure 18
0010
0000
0100
0000
,  // measure 19
1000
0000
1000
0000
,  // measure 20
1000
0000
0000
0000
,  // measure 21
0100
0000
0010
0000
,  // measure 22
0100
0000
0010
0000
,  // measure 23
0001
0000
0000
0001
,  // measure 24
0000
0000
0000
0000
,  // measure 25
0200
0000
0000
0300
,  // measure 26
0000
0000
0000
0000
,  // measure 27
0200
0000
0000
0300
,  // measure 28
0000
0000
0000
0000
,  // measure 29
0010
0000
0010
0000
,  // measure 30
0100
0000
0100
0000
,  // measure 31
0010
0010
0100
0100
,  // measure 32
0000
0000
0000
0000
,  // measure 33
1001
0000
0001
0000
,  // measure 34
1000
1000
1000
0000
,  // measure 35
0010
0000
0100
0000
,  // measure 36
0002
0000
0003
0000
,  // measure 37
0100
0000
0001
0000
,  // measure 38
1000
0000
0010
0000
,  // measure 39
0010
0000
1000
0000
,  // measure 40
0001
0000
0000
0000
,  // measure 41
1001
0000
1000
0000
,  // measure 42
0001
0000
1000
0000
,  // measure 43
0010
0000
0100
0000
,  // measure 44
0002
0000
0003
0000
,  // measure 45
0200
0000
0000
0300
,  // measure 46
0000
0000
0000
0000
,  // measure 47
0010
0010
0100
0100
,  // measure 48
0000
0000
0000
0000
,  // measure 49
0000
0001
0001
0001
,  // measure 50
0000
1000
1000
1000
,  // measure 51
0000
0010
0010
0010
,  // measure 52
0000
0100
0000
0100
,  // measure 53
0000
0002
0003
0000
,  // measure 54
2000
0000
3000
0000
,  // measure 55
0000
0100
0100
0010
,  // measure 56
0020
0000
0030
0000
,  // measure 57
0110
0000
0000
0000
,  // measure 58
0000
0000
0000
0000
,  // measure 59
0100
0000
0000
0000
,  // measure 60
0000
0000
0000
0000
,  // measure 61
1000
0000
0000
0000
,  // measure 62
0001
0000
0000
0000
,  // measure 63
0100
0000
0000
0000
,  // measure 64
1000
0000
0000
0000
,  // measure 65
1000
0000
0010
0000
,  // measure 66
0001
0000
0000
0000
,  // measure 67
1000
0000
0100
0000
,  // measure 68
0001
0000
0000
0000
,  // measure 69
0001
0000
0010
0000
,  // measure 70
1000
0000
0000
0000
,  // measure 71
0001
0000
0100
0000
,  // measure 72
1000
0000
0000
0000
,  // measure 73
0001
0000
0010
0000
,  // measure 74
0001
0000
0010
0000
,  // measure 75
0100
0000
1000
0000
,  // measure 76
0100
0000
0000
0000
,  // measure 77
1000
0000
0010
0000
,  // measure 78
1000
0000
0000
0000
,  // measure 79
0001
0001
1000
1000
,  // measure 80
0000
0000
0000
0000
,  // measure 81
1001
0000
1000
0000
,  // measure 82
0001
0001
0001
0000
,  // measure 83
0010
0000
0100
0000
,  // measure 84
2000
0000
3000
0000
,  // measure 85
0100
0000
1000
0000
,  // measure 86
0000
0000
0100
0000
,  // measure 87
0010
0000
0001
0000
,  // measure 88
1000
0000
0000
1001
;
