#TITLE:Meltdown;
#SUBTITLE:;
#ARTIST:G Blazen;
#TITLETRANSLIT:;
#SUBTITLETRANSLIT:;
#ARTISTTRANSLIT:;
#GENRE:;
#CREDIT:;
#BANNER:;
#BACKGROUND:Meltdown-bg.png;
#LYRICSPATH:;
#CDTITLE:;
#MUSIC:Meltdown.ogg;
#OFFSET:-2.023000;
#SAMPLESTART:33.897999;
#SAMPLELENGTH:10.000000;
#SELECTABLE:YES;
#BPMS:0.000000=128.000000
;
#STOPS:
;
#BGCHANGES:;
#KEYSOUNDS:;
#ATTACKS:;

//---------------dance-single - ----------------
#NOTES:
     dance-single:
     :
     Hard:
     13:
     0.501954,0.628868,0.167698,0.247554,0.379317,440.000000,419.000000,21.000000,31.000000,0.000000,0.000000,0.501954,0.628868,0.167698,0.247554,0.379317,440.000000,419.000000,21.000000,31.000000,0.000000,0.000000:
// measure 0
0000
0000
0000
0000
,  // measure 1
0000
0000
0000
0000
,  // measure 2
0000
0000
0000
0000
,  // measure 3
0000
0000
0000
0000
,  // measure 4
0000
0000
0000
0000
,  // measure 5
1000
0100
1000
0100
0010
0010
0001
0001
,  // measure 6
0000
0100
0001
0100
0010
0010
1000
1000
,  // measure 7
0000
0100
1000
0100
0010
0010
0001
0001
,  // measure 8
0000
0100
0001
0100
0020
0000
0030
0000
,  // measure 9
1010
0000
0000
1000
0010
0000
0100
0000
0001
0000
1000
0000
0001
0000
0000
0000
,  // measure 10
0011
0000
0000
0001
0010
0000
0100
0000
1000
0000
0000
0000
1100
0000
0000
0000
,  // measure 11
1001
0000
1000
0100
0010
0100
0010
0000
,  // measure 12
1001
0000
0001
0100
0010
0100
0020
0000
,  // measure 13
0130
0001
0100
0001
1000
0001
1000
0100
,  // measure 14
0010
0001
0010
0001
1000
0001
1000
0010
,  // measure 15
0100
0000
0100
0000
0010
0000
0010
0000
0100
0010
0100
0000
0010
0100
0010
0000
,  // measure 16
0000
0000
1000
0000
0000
0000
0001
0000
1000
0000
0001
1000
0001
0000
0001
0000
,  // measure 17
2001
0000
0000
0000
3010
0000
0100
0000
0000
0000
0100
0001
0100
0000
0010
0000
,  // measure 18
0000
0000
0100
0001
0100
0001
1000
0000
0100
0000
0100
1000
0100
1000
0001
0000
,  // measure 19
0200
0000
0010
0010
0000
0310
0000
1000
,  // measure 20
0200
0000
0010
0010
0000
0310
0000
0001
,  // measure 21
1002
0000
0000
0000
0013
0000
0100
0000
0000
0000
0100
1000
0100
0000
0010
0000
,  // measure 22
0000
0000
0100
1000
0100
1000
0001
0000
0100
0000
0100
0001
0100
0001
1000
0000
,  // measure 23
1100
0000
0100
0010
0000
0010
0100
0000
1100
0000
0100
0010
0000
0010
0100
0000
,  // measure 24
2000
0000
0000
0000
3001
0100
0001
0100
0001
1000
0002
0000
0010
0000
0013
0000
,  // measure 25
0210
0000
0000
0000
1300
0000
0100
0000
0000
0000
0100
0010
0100
0000
0001
0000
,  // measure 26
0000
0000
0100
0010
0100
0010
0001
0000
1000
0000
0100
0010
0100
0010
0001
0000
,  // measure 27
0200
0000
0001
0001
0000
0301
0000
1000
,  // measure 28
0200
0000
1000
1000
0000
1300
0000
0010
,  // measure 29
0210
0000
0000
0000
0301
0000
0100
0000
0000
0000
0100
0010
0100
0000
1000
0000
,  // measure 30
0000
0000
0100
0010
0100
0010
1000
0000
0001
0000
0100
0010
0100
0010
1000
0000
,  // measure 31
0200
0000
0310
0011
0000
0011
0000
0001
,  // measure 32
2000
0000
3010
1000
1100
0000
0110
0000
,  // measure 33
2001
0100
0000
0100
,  // measure 34
3002
0100
2003
3200
,  // measure 35
0320
0001
0000
0001
,  // measure 36
0230
1000
0000
1300
,  // measure 37
1000
0000
0000
0001
0100
0000
0010
0000
0100
0000
1000
0000
0100
0000
0001
0000
,  // measure 38
0000
0000
0000
0001
0010
0000
0100
0000
0010
0000
1000
0000
0010
0000
0001
0000
,  // measure 39
0000
0000
0000
1000
0010
0000
0001
0000
0010
0000
0100
0000
0010
0000
1000
0000
,  // measure 40
0000
0000
0000
1000
0100
0000
0001
0000
0100
0000
0010
0000
0100
0000
0000
0000
,  // measure 41
0100
1000
0100
1000
0001
1000
0001
0100
,  // measure 42
0010
1000
0010
1000
0001
1000
0100
0010
,  // measure 43
0100
0000
0100
0000
0010
0000
0010
0000
0100
0010
0100
0000
0010
0100
0010
0000
,  // measure 44
0000
0000
0001
0000
0000
0000
1000
0000
0001
0000
1000
0001
1000
0000
1000
0000
,  // measure 45
1002
0000
0000
0000
0103
0000
0010
1000
0000
0000
1000
0001
0000
0000
0001
0010
,  // measure 46
0000
0000
0001
0100
0000
0000
0100
0010
0000
0000
0010
1000
0000
0000
1000
0001
,  // measure 47
2000
0000
0000
0000
3100
0000
0010
0100
0000
0000
0001
0100
0000
0000
1000
0100
,  // measure 48
0000
0000
1000
0010
0000
0000
0001
0010
0000
0000
0100
0010
0000
0000
1000
0001
,  // measure 49
2000
0000
0000
0000
3100
0000
0010
0001
0000
0000
0001
1000
0000
0000
1000
0010
,  // measure 50
0000
0000
1000
0100
0000
0000
0100
0010
0000
0000
0010
0001
0000
0000
0001
0000
,  // measure 51
0101
0000
0100
0010
0000
0010
1000
0000
0101
0000
0100
0010
0000
0010
1000
0000
,  // measure 52
0002
0000
0000
0000
1003
0100
1000
0100
1000
0001
2000
0000
0010
0000
3010
0000
,  // measure 53
0210
0000
0000
0000
0301
0000
0100
0001
0000
0000
0001
0010
0000
0000
0010
0100
,  // measure 54
0000
0000
0001
0100
0000
0000
0100
1000
0000
0000
1000
0001
0000
0000
0001
0100
,  // measure 55
0002
0000
0000
0000
1003
0000
0010
0100
0000
0000
0010
0001
0000
0000
0010
1000
,  // measure 56
0000
0000
0001
0010
0000
0000
1000
0010
0000
0000
0001
1000
0000
0000
0010
0100
,  // measure 57
0020
0000
0000
0000
1030
0000
0100
1000
0000
0000
1000
0010
0000
0000
0010
0100
,  // measure 58
0000
0000
1000
0100
0000
0000
0100
0001
0000
0000
0001
1000
0000
0000
1000
0100
,  // measure 59
0020
0000
0000
0000
0031
1000
0001
1000
0010
1000
0001
0000
1000
0001
1000
0001
,  // measure 60
0010
0001
1000
0000
0001
1000
0001
1000
0010
0000
0100
0000
0001
0000
1000
0000
,  // measure 61
2002
0000
0000
0000
,  // measure 62
0000
0000
0000
0000
,  // measure 63
3003
0000
0000
0000
;

//---------------dance-single - ----------------
#NOTES:
     dance-single:
     :
     Challenge:
     14:
     0.568120,0.729487,0.055899,0.135756,0.642843,498.000000,491.000000,7.000000,17.000000,84.000000,0.000000,0.568120,0.729487,0.055899,0.135756,0.642843,498.000000,491.000000,7.000000,17.000000,84.000000,0.000000:
// measure 0
0000
0000
0000
0000
,  // measure 1
0000
0000
0000
0000
,  // measure 2
0000
0000
0000
0000
,  // measure 3
0000
0000
0000
0000
,  // measure 4
0000
0000
0000
0000
,  // measure 5
1001
0001
0000
1000
0001
0010
0000
0001
,  // measure 6
1000
0100
0000
1000
0001
0100
0010
1000
,  // measure 7
0001
1000
0000
0001
1000
0010
0000
1000
,  // measure 8
0001
0000
0100
0000
0000
0000
0001
0000
1000
0000
0000
0001
0100
0000
0010
0000
,  // measure 9
1000
0000
0100
1000
0100
0000
1000
0000
0001
0000
1000
0000
0010
0000
0000
0000
,  // measure 10
0001
0000
0100
0001
1000
0000
0001
0000
0011
0000
0000
0000
1001
0000
0000
0000
,  // measure 11
1000
0000
0100
1000
0001
1000
1010
0001
,  // measure 12
1001
0000
0100
0001
1000
0001
0021
0000
,  // measure 13
0130
1000
0001
0100
0010
1000
0100
1000
,  // measure 14
0001
0100
0001
0010
0100
1000
0001
0100
,  // measure 15
0001
0010
0001
0010
0100
1000
0100
1000
0001
0100
0001
0100
0001
0010
0001
0010
,  // measure 16
0100
0000
0100
0000
0000
0000
0010
0000
0100
0000
0100
0010
0100
0000
0000
0000
,  // measure 17
MMMM
0000
0000
0000
0100
0000
0010
0000
0100
0000
1000
0100
0001
0000
0100
0000
,  // measure 18
0000
0000
0010
0100
1000
0001
1000
0100
1000
0001
1000
0100
0010
0000
0100
0000
,  // measure 19
2000
0000
0001
0010
0000
0010
0000
0100
,  // measure 20
3002
0000
1000
0010
0000
0010
0000
0103
,  // measure 21
MMMM
0000
0000
0000
0100
0000
0010
0000
0100
0000
1000
0100
0010
0100
0001
0100
,  // measure 22
0000
0000
0010
0100
0001
1000
0001
0100
0001
1000
0001
0100
0010
0000
0100
0000
,  // measure 23
MMMM
0000
1000
0001
0000
1000
0001
0000
MMMM
0000
0001
1000
0000
0001
1000
0000
,  // measure 24
0001
0010
0001
0000
1000
0100
1000
0100
0010
0001
0010
0000
0001
0000
0100
0000
,  // measure 25
MMMM
0000
0000
0000
1000
0000
0010
0000
0100
0000
1000
0100
0010
0000
0100
0000
,  // measure 26
0000
0000
0100
0001
1000
0010
1000
0001
1000
0010
1000
0001
0100
0000
0010
0000
,  // measure 27
2000
0000
0100
0001
0000
0001
0000
0010
,  // measure 28
3002
0000
0100
1000
0000
1000
0000
0013
,  // measure 29
MMMM
0000
0000
0000
0001
0000
0010
0000
0100
0000
0001
0100
0010
0100
1000
0100
,  // measure 30
0000
0000
0100
1000
0001
0010
0001
1000
0001
0010
0001
1000
0100
0000
0010
0000
,  // measure 31
0002
0000
0000
0000
0013
0000
0100
1000
0001
1000
0001
0000
0010
0000
0010
0100
,  // measure 32
2000
0000
0000
0000
3010
0000
0100
0001
1000
0001
1000
0000
0010
0000
0010
0100
,  // measure 33
0002
0100
0000
0100
,  // measure 34
2003
0100
3002
0023
,  // measure 35
0230
1000
0000
1000
,  // measure 36
0320
0001
0000
0001
,  // measure 37
0031
0000
1000
0100
1000
0000
0100
0000
0010
0000
0100
0000
1000
0000
0100
0000
,  // measure 38
MMMM
0000
0001
0100
0001
0000
0100
0000
1000
0000
0100
0000
0001
0000
0100
0000
,  // measure 39
MMMM
0000
1000
0010
1000
0000
0010
0000
0100
0000
0010
0000
1000
0000
0010
0000
,  // measure 40
MMMM
0000
0001
0010
0001
0000
0010
0000
1000
0000
0010
0000
0001
0000
MMMM
0000
,  // measure 41
0100
0001
1000
0100
0010
0001
0100
0001
,  // measure 42
1000
0100
1000
0010
0100
0001
1000
0100
,  // measure 43
1000
0010
1000
0010
0100
0001
0100
0001
1000
0100
1000
0100
1000
0010
1000
0010
,  // measure 44
0100
0000
0100
0000
MMMM
0000
0010
0000
0100
0000
0100
0010
0100
0001
1000
0000
,  // measure 45
MMMM
0000
0000
0000
1000
0001
0010
0100
0000
1000
0100
0010
0000
0001
1000
0000
,  // measure 46
MMMM
0000
1000
0001
0000
0010
0001
1000
0000
0100
1000
0001
0000
0100
0001
1000
,  // measure 47
0200
0000
0000
0000
0310
0001
0010
0001
0000
0001
1000
0001
0000
0001
0100
0001
,  // measure 48
0000
1000
0100
1000
0000
1000
0001
1000
0000
1000
0010
1000
0000
0001
0010
0001
,  // measure 49
MMMM
0000
0000
0000
0001
1000
0010
0100
0000
0001
0100
0010
0000
1000
0001
0000
,  // measure 50
MMMM
0000
0001
1000
0000
0010
1000
0001
0000
0100
0001
1000
0000
0100
1000
0001
,  // measure 51
MMMM
0000
0001
1000
0000
0001
1000
0000
MMMM
0000
1000
0001
0000
1000
0001
0000
,  // measure 52
1000
0010
1000
0000
0001
0100
0001
0100
0010
1000
0010
0000
1000
0000
0100
0000
,  // measure 53
MMMM
0000
0000
0000
0001
1000
0100
1000
0000
0001
0010
0100
0000
1000
0010
0000
,  // measure 54
MMMM
0000
0001
0100
0000
1000
0100
0010
0000
1000
0001
0100
0000
0010
0100
0000
,  // measure 55
0020
0000
0000
0000
0130
0001
0100
0001
0000
0001
1000
0001
0000
0001
0010
0001
,  // measure 56
0000
1000
0010
1000
0000
1000
0001
1000
0000
1000
0100
1000
0000
0001
0100
0001
,  // measure 57
MMMM
0000
0000
0000
1000
0001
0100
0001
0000
1000
0010
0100
0000
0001
0010
0000
,  // measure 58
MMMM
0000
1000
0100
0000
0001
0100
0010
0000
0001
1000
0100
0000
0010
0100
0000
,  // measure 59
1000
0100
1000
0000
0001
0100
0001
0100
0010
1000
0010
0000
1000
0100
1000
0100
,  // measure 60
0010
0001
0010
0000
0001
0100
0001
0100
0001
0010
0001
0000
1000
0010
1000
0000
,  // measure 61
2002
0000
0000
0000
,  // measure 62
0000
0000
0000
0000
,  // measure 63
3003
0000
0000
0000
;

//---------------dance-single - ----------------
#NOTES:
     dance-single:
     :
     Medium:
     11:
     0.378747,0.452785,0.367339,0.295468,0.019964,332.000000,286.000000,46.000000,37.000000,0.000000,0.000000,0.378747,0.452785,0.367339,0.295468,0.019964,332.000000,286.000000,46.000000,37.000000,0.000000,0.000000:
0000
0000
0000
0000
,
0000
0000
0000
0000
,
0000
0000
0000
0000
,
0000
0000
0000
0000
,
0000
0000
0000
0000
,
1001
0000
1000
0100
0010
0100
0010
0000
,
0001
0000
0001
0100
0010
0000
1010
0000
,
1001
0000
0100
0001
1000
0000
1100
0000
,
0100
0000
0010
0001
2000
0000
3000
0000
,
1001
0000
0001
1000
0010
1000
0001
0000
,
1001
0000
1000
0001
0010
0001
1000
0000
,
0002
0000
0100
0100
0000
0100
0000
1000
,
2003
0000
0000
0000
0000
0000
0000
0000
0000
0000
0000
0000
0000
0000
0000
0000
0000
0000
0000
0000
0000
0000
0000
0000
0000
0000
0000
0000
0000
0000
0000
0000
0000
0000
0000
0000
0000
0000
0000
0000
0000
0000
0000
0000
0000
0000
0000
0000
0000
0000
0000
0000
0000
0000
0000
0000
0000
0000
0000
0000
0000
0000
0000
0000
0000
0000
0000
0000
0000
0000
0000
0000
0010
0000
0000
0000
0000
0000
0000
0000
0000
0000
0000
0000
0000
0000
0000
0000
0000
0000
0000
0000
0000
0000
0000
0000
0000
0000
0000
0000
0000
0000
0000
0000
0000
0000
0000
0000
0000
0000
0000
0000
0000
0000
0000
0000
0000
0000
0000
0000
0010
0000
0000
0000
0000
0000
0000
0000
0000
0000
0000
0000
0000
0000
0000
0000
0000
0000
0000
0000
0000
0000
0000
0000
3000
0020
0000
0000
0000
0000
0000
0000
0000
0000
0000
0000
0000
0000
0000
0000
0000
0000
0000
0000
0000
0000
0000
0000
0000
0000
0000
0000
0000
0000
0000
0000
0000
0000
0000
0000
0000
0000
0000
0000
0000
0000
0000
0000
0000
0000
0000
0000
,
0130
0001
0100
0000
0001
0010
0001
0000
,
1000
0010
1000
0000
0100
1000
0100
0000
,
1000
0001
1000
0001
0100
0010
0100
0010
,
0000
0010
0000
0010
0100
0001
1000
0100
,
0020
0000
0031
0100
0000
0001
0010
0100
,
0000
0001
0100
1000
0100
0001
0100
1000
,
0200
0000
0000
1000
0000
1300
0000
0001
,
0200
0000
0000
0001
0000
0301
0000
1000
,
0200
0000
1300
0010
0000
1000
0100
0010
,
0000
1000
0010
0001
0010
1000
0010
0000
,
0110
0000
0000
0001
0000
0000
1000
0000
0110
0000
0000
0001
0000
0000
1000
0000
,
0002
0000
0103
1000
0200
0000
0310
1000
,
0020
0000
1030
0100
0000
1000
0001
0100
,
0000
1000
0100
0001
0100
1000
0100
0001
,
0200
0000
0000
0001
0000
0301
0000
1000
,
0200
0000
0000
1000
0000
1300
0000
0001
,
0200
0000
0301
0010
0000
0001
1000
0010
,
0000
0001
0010
1000
0010
0001
0010
0000
,
0210
0000
0000
1000
0000
0310
0000
0010
,
0002
1003
2000
0010
,
0002
0000
0000
3000
,
0023
0030
0200
0300
,
2002
0000
0000
3000
,
2000
0000
0000
3003
,
1001
0000
0001
0100
0001
0100
0010
0100
,
0000
0010
1000
0010
1000
0010
0100
0010
,
0000
0100
0001
0010
0001
0010
0100
0010
,
0000
0100
1000
0100
1000
0100
0020
0000
,
0130
1000
0100
0000
1000
0010
1000
0000
,
0001
0010
0001
0000
0100
0001
0100
0000
,
0001
1000
0001
1000
0100
0010
0100
0010
,
0000
0010
0000
0010
0100
1000
0001
0100
,
0020
0130
0101
1001
,
1000
0100
0110
0000
0011
0000
1010
0000
,
2000
3100
1100
1001
,
0001
0100
0110
0000
1010
0000
0011
0000
,
0002
0103
1010
0101
,
1000
0001
0011
0000
0110
0000
1100
0000
,
1001
0000
0000
0010
0000
0000
0100
0000
1001
0000
0000
0010
0000
0000
0100
0000
,
0002
0000
0013
1000
0020
0000
0130
1000
,
0200
0310
0011
0101
,
0011
0110
1001
1100
,
2000
3010
1010
1100
,
1010
0110
1001
0101
,
0002
0013
1010
0011
,
0110
1100
0101
1100
,
2000
0000
3010
0001
0020
0000
1030
0100
,
2000
0000
3001
0100
0002
0000
0010
0000
,
2000
0000
0000
0000
,
0000
0000
0000
0000
,
3003
0000
0000
0000
;

//---------------dance-single - ----------------
#NOTES:
     dance-single:
     :
     Easy:
     5:
     0.211049,0.251547,0.047914,0.143741,0.000000,185.000000,179.000000,6.000000,18.000000,0.000000,0.000000,0.211049,0.251547,0.047914,0.143741,0.000000,185.000000,179.000000,6.000000,18.000000,0.000000,0.000000:
0000
0000
0000
0000
,
0000
0000
0000
0000
,
0000
0000
0000
0000
,
0000
0000
0000
0000
,
0000
0000
0000
0000
,
0000
1000
0010
1000
,
0000
0001
0010
1000
,
0000
0010
0001
0100
,
0000
0010
1000
0001
,
1001
1000
0100
0010
,
0000
0001
0010
0100
,
0000
1000
0010
0100
,
0000
0001
0100
0020
,
1030
1000
0001
0001
,
0010
0010
0100
0100
,
1000
0001
0010
0100
,
0000
0000
0010
0100
,
2000
3001
0000
0100
,
0000
0001
0100
1000
,
0100
0000
0010
0010
,
0100
0000
0010
0010
,
2000
3001
0000
0010
,
0000
0001
0010
1000
,
1010
0000
0110
0000
,
0020
0001
0001
0030
,
0002
1003
0000
0100
,
0000
1000
0100
0001
,
0100
0000
0010
0010
,
0100
0000
0010
0010
,
0002
1003
0000
0010
,
0000
1000
0010
0001
,
0010
1000
0010
1000
,
0001
0010
0100
1000
,
0002
0000
0000
0003
,
0200
0300
0010
1000
,
0200
0000
0000
0300
,
0020
0000
0000
0030
,
0001
0001
0010
1000
,
0000
1000
0010
0001
,
0000
1000
0010
0001
,
0000
0001
0010
1000
,
0001
0001
0100
0100
,
1000
1000
0010
0010
,
0001
0100
0010
1000
,
0000
0000
0010
0010
,
0020
1030
0001
1000
,
0100
0010
0001
0010
,
0000
0001
1000
0001
,
0100
0010
1000
0010
,
0000
1000
0100
1000
,
0010
1000
0100
0001
,
0101
0000
0110
0000
,
0200
1000
1000
0300
,
2000
3001
1000
0001
,
0010
0100
1000
0010
,
0000
1000
0001
1000
,
0010
0100
0001
0010
,
0000
0001
0100
0001
,
0010
0001
0100
1000
,
0200
0310
0020
0130
,
0200
0310
1000
0001
,
2002
0000
0000
0000
,
0000
0000
0000
0000
,
3003
0000
0000
0000
;

//---------------dance-single - ----------------
#NOTES:
     dance-single:
     :
     Beginner:
     2:
     0.133474,0.170493,0.055899,0.063885,0.000000,117.000000,110.000000,7.000000,8.000000,0.000000,0.000000,0.133474,0.170493,0.055899,0.063885,0.000000,117.000000,110.000000,7.000000,8.000000,0.000000,0.000000:
0000
0000
0000
0000
,
0000
0000
0000
0000
,
0000
0000
0000
0000
,
0000
0000
0000
0000
,
0000
0000
0000
0000
,
0000
0010
0000
0010
,
0000
0100
0000
0100
,
0000
0001
0000
0001
,
0000
1000
0000
0000
,
0001
0000
0010
0000
,
1000
0000
0100
0000
,
0001
0000
0100
0000
,
1000
0000
0010
0000
,
0100
0000
0100
0000
,
0010
0000
0010
0000
,
0100
0100
0100
0100
,
0000
0000
0000
0000
,
1001
0001
0000
1000
,
0000
0100
0000
2000
,
3000
0000
0010
0010
,
0000
0000
0100
0100
,
0000
0001
0000
1000
,
0000
0010
0000
1000
,
1001
0000
1001
0000
,
0002
0000
0003
0000
,
1001
1000
0000
0001
,
0000
0100
0000
0002
,
0003
0000
0010
0010
,
0000
0000
0100
0100
,
0000
1000
0000
0001
,
0000
0010
0000
0001
,
0000
0100
0000
0001
,
0000
0010
0000
1000
,
0002
0000
0003
0000
,
0002
0003
0010
0100
,
2000
0000
3000
0000
,
2000
0000
3000
0000
,
0001
0000
0100
0000
,
0010
0000
1000
0000
,
1000
0000
0100
0000
,
0010
0000
0001
0000
,
0100
0000
0100
0000
,
0010
0000
0010
0000
,
0100
0100
0100
0100
,
0000
0000
0000
0000
,
0000
0001
0000
0001
,
0000
0010
0000
0010
,
0000
1000
0000
1000
,
0000
0100
0000
0100
,
0000
0001
0000
0001
,
0000
0100
0000
0100
,
0110
0000
0110
0000
,
0020
0000
0030
0000
,
0000
1000
0000
1000
,
0000
0010
0000
0010
,
0000
0001
0000
0001
,
0000
0100
0000
0100
,
0000
1000
0000
1000
,
0000
0100
0000
0100
,
0010
0000
0010
0000
,
0100
0000
0100
0000
,
1001
0000
0000
0000
;
