#TITLE:Mechanician;
#SUBTITLE:;
#ARTIST:くるぶっこちゃん;
#TITLETRANSLIT:;
#SUBTITLETRANSLIT:;
#ARTISTTRANSLIT:Kurubukko-chan;
#GENRE:;
#CREDIT:;
#BANNER:;
#BACKGROUND:Mechanician-bg.png;
#LYRICSPATH:;
#CDTITLE:;
#MUSIC:Mechanician.ogg;
#OFFSET:0.255000;
#SAMPLESTART:74.120003;
#SAMPLELENGTH:10.000000;
#SELECTABLE:YES;
#BPMS:0.000000=237.981995
;
#STOPS:
;
#BGCHANGES:;
#KEYSOUNDS:;
#ATTACKS:;

//---------------dance-single - ----------------
#NOTES:
     dance-single:
     :
     Hard:
     13:
     0.615396,0.848332,0.554466,0.145014,0.008530,505.000000,440.000000,65.000000,17.000000,0.000000,0.000000,0.615396,0.848332,0.554466,0.145014,0.008530,505.000000,440.000000,65.000000,17.000000,0.000000,0.000000:
// measure 0
0000
0000
0000
0000
,  // measure 1
0000
0000
0000
0000
,  // measure 2
0000
0000
0000
0000
,  // measure 3
0000
0000
0000
0000
,  // measure 4
0000
0000
0000
0000
,  // measure 5
0000
0000
0000
0000
,  // measure 6
0000
0000
0000
0000
,  // measure 7
1000
0000
0000
1000
0000
0000
0100
0000
,  // measure 8
0000
0000
0001
0000
0100
0000
0000
0010
,  // measure 9
0000
0001
0100
0000
0000
0000
0000
0000
,  // measure 10
0001
0000
0000
0000
,  // measure 11
0000
0000
0000
0010
1000
0000
0000
0000
,  // measure 12
0000
0000
0000
0000
0000
0000
0000
0000
0000
0000
0000
0000
0100
0000
0010
0000
0001
0000
0010
0000
0000
0100
0000
0000
,  // measure 13
1000
0000
0001
0100
0000
1000
0100
0000
,  // measure 14
0000
0000
0010
0000
1000
0000
0000
1000
,  // measure 15
0000
0000
0010
0000
0000
0000
0100
0001
,  // measure 16
0010
0000
0100
1000
0000
0001
0100
0000
,  // measure 17
0001
0010
0000
0010
1000
0000
0000
0010
,  // measure 18
0000
0010
0001
0000
1000
0000
0010
0000
,  // measure 19
0100
0001
0100
0010
0000
1000
0001
0000
,  // measure 20
0000
0000
0010
0000
0100
1000
0100
0010
,  // measure 21
0000
0001
1000
0000
0000
0000
0010
0000
,  // measure 22
1000
0000
1000
0100
0000
0100
0010
0000
,  // measure 23
0010
1000
0000
0010
0001
0000
0000
0100
,  // measure 24
0000
1000
0001
0000
0010
0000
1000
0000
,  // measure 25
0100
0000
0000
0010
0100
0000
0001
0000
,  // measure 26
0000
0100
1000
0000
0001
0000
0000
0100
,  // measure 27
0001
0010
0100
1000
,  // measure 28
0010
0000
0000
0100
0001
0000
1000
0000
,  // measure 29
0000
0001
0010
0000
1000
0000
0000
0010
,  // measure 30
0100
0000
0001
0000
0000
0100
1000
0000
,  // measure 31
0010
0000
0000
0100
0001
1000
0010
0000
,  // measure 32
0000
1000
0100
0010
0001
0000
0001
0010
,  // measure 33
0001
0010
1000
0000
0010
0000
0100
0000
,  // measure 34
1000
0000
0000
0001
0100
0010
1000
0000
,  // measure 35
0000
0001
1000
0100
0010
0000
0010
0100
,  // measure 36
0010
0100
1000
0001
1000
0001
1000
0001
,  // measure 37
0100
0000
0010
0100
0001
0000
0011
0000
,  // measure 38
0100
1000
0001
0000
1001
0000
0001
1000
,  // measure 39
0010
1010
0110
0101
,  // measure 40
0001
0000
0010
0100
1000
0000
1100
0000
,  // measure 41
0010
0001
1000
0000
1010
0000
1000
0001
,  // measure 42
0100
0001
0010
0100
,  // measure 43
1001
0000
0001
0010
0011
0000
1001
0000
,  // measure 44
1000
0010
1010
0000
1001
0000
0001
0100
,  // measure 45
0110
0000
1001
0000
1000
0100
0110
0000
,  // measure 46
1001
0000
1100
0110
,  // measure 47
0000
0000
0101
0000
0010
1000
0010
1000
,  // measure 48
0100
0010
0011
0000
0110
0000
1100
0000
,  // measure 49
1001
0000
0001
0010
,  // measure 50
0000
0010
0200
0000
,  // measure 51
0300
2000
0000
3000
,  // measure 52
0002
0000
0000
0203
,  // measure 53
0000
0000
2300
0000
,  // measure 54
0000
3002
0000
0000
,  // measure 55
0023
0000
0000
0230
,  // measure 56
0000
0000
0302
0000
,  // measure 57
0000
0023
0000
0000
,  // measure 58
0230
0000
0000
2300
,  // measure 59
0000
0000
3100
1000
,  // measure 60
0010
0100
0001
0010
,  // measure 61
0100
1100
1100
0001
,  // measure 62
0101
0101
0010
0110
,  // measure 63
0110
0000
1000
1010
,  // measure 64
0100
0011
1001
0100
,  // measure 65
1010
1001
0100
0011
,  // measure 66
1001
0100
0110
0000
,  // measure 67
1001
0000
0100
0010
0001
0000
1001
0000
,  // measure 68
0100
0010
1000
0000
0000
0000
0010
1000
,  // measure 69
0100
0011
0110
1100
,  // measure 70
0010
1000
0010
1000
0100
0010
0001
0100
,  // measure 71
0001
0010
0100
1000
0010
0000
0000
0000
,  // measure 72
0001
0020
0000
0000
,  // measure 73
0130
0000
0000
1000
,  // measure 74
0100
0000
0010
0001
0010
0000
0100
1000
,  // measure 75
0010
0000
0001
0000
0010
1000
0100
0000
,  // measure 76
0010
0000
0100
1000
0001
0000
0020
0000
,  // measure 77
0000
0130
1000
0000
0001
0100
1000
0000
,  // measure 78
0100
0000
1000
0100
0001
0000
0100
0000
,  // measure 79
0110
0000
1010
0000
1100
0000
0010
0001
,  // measure 80
1000
0010
1000
0000
0001
0000
0010
0000
,  // measure 81
0100
1000
0010
0000
0100
0001
0010
0000
,  // measure 82
1000
0000
0010
0001
0010
0000
0100
0000
,  // measure 83
1000
0010
0001
0000
0020
0000
0000
0130
,  // measure 84
0010
0000
1000
0001
0010
0000
0100
0000
,  // measure 85
1000
0100
0001
0000
0100
0000
0011
0000
,  // measure 86
0101
0000
1010
0000
0010
0100
0001
0010
,  // measure 87
0001
0000
1000
0001
0100
0001
0010
0000
,  // measure 88
0100
1000
0010
0100
0010
0000
1000
0000
,  // measure 89
0100
0001
0100
0010
0001
0100
0010
0000
,  // measure 90
1010
0000
0011
0000
0100
1000
0010
0000
,  // measure 91
1010
0000
0010
1000
0000
1000
0100
0000
,  // measure 92
0100
0001
0000
0001
0101
0000
1001
0000
,  // measure 93
1100
0101
1001
1100
,  // measure 94
1010
0011
1100
0011
,  // measure 95
1010
0000
1100
0000
0011
0001
1000
0010
,  // measure 96
0100
0010
1000
0100
0001
0000
0100
0010
,  // measure 97
0100
1000
0100
1000
0010
0100
0001
0000
,  // measure 98
0010
0001
0100
0010
0220
0000
0330
0000
,  // measure 99
0000
0000
0000
0000
,  // measure 100
0000
0000
0000
0000
,  // measure 101
0000
0000
0000
0000
0010
0001
1000
0100
,  // measure 102
0000
0000
0100
1000
0001
0010
0000
0000
,  // measure 103
0001
0100
0010
1000
0000
0000
1000
0010
,  // measure 104
0100
0001
0000
0000
0010
0001
1000
0010
,  // measure 105
0000
0010
0100
0000
0000
0000
0001
0000
,  // measure 106
0010
0001
1000
0010
0000
0010
0001
0000
,  // measure 107
0000
0000
0100
0000
0001
0100
1000
0000
,  // measure 108
0100
0000
0100
0001
0010
0000
0001
0000
,  // measure 109
1000
0000
0000
0100
,  // measure 110
1000
0010
0001
0000
;

//---------------dance-single - ----------------
#NOTES:
     dance-single:
     :
     Medium:
     10:
     0.441135,0.848332,0.358270,0.068242,0.000000,362.000000,320.000000,42.000000,8.000000,0.000000,0.000000,0.441135,0.848332,0.358270,0.068242,0.000000,362.000000,320.000000,42.000000,8.000000,0.000000,0.000000:
0000
0000
0000
0000
,
0000
0000
0000
0000
,
0000
0000
0000
0000
,
0000
0000
0000
0000
,
0000
0000
0000
0000
,
0000
0000
0000
0000
,
0000
0000
0000
0000
,
0001
0000
0000
0001
0000
0000
0100
0000
,
0000
0000
0010
0000
0100
0000
0000
0001
,
0000
0001
0010
0000
0000
0000
0000
0000
,
0100
0000
0000
0000
,
0000
0000
0000
1000
0100
0000
0000
0000
,
0000
0000
0002
0000
,
0013
0000
0000
0010
0000
0001
1000
0000
,
0000
0000
0010
0000
0100
0000
0000
0100
,
0000
0010
0000
1000
,
0001
0000
0000
0001
0000
0001
0010
0000
,
0000
0100
0000
0100
1000
0000
0000
0001
,
0000
0001
0100
0000
0010
0000
1000
0000
,
0100
0000
0000
0100
0000
0000
1000
0000
,
0000
0000
0001
0000
1000
0000
0000
0010
,
0000
0010
0100
0000
0000
0000
0000
0000
,
1000
0000
0000
1000
0000
0001
1000
0000
,
0000
0100
0000
0010
0100
0000
0000
1000
,
0000
0001
0100
0000
0010
0000
1000
0000
,
0001
0000
0001
1000
,
0000
0010
0100
0000
,
0001
0010
0100
1000
,
0010
0100
0001
1000
,
0000
0010
0100
0000
,
0100
1000
0000
1000
,
0100
0000
0100
0001
,
0000
0001
0010
0010
,
0100
1000
0001
1000
,
0100
0000
0010
0001
,
0000
0100
0010
0010
,
0010
0001
0001
0001
,
0100
0010
0010
1000
,
0001
0001
0010
0100
,
1000
0001
0100
0100
,
0010
1000
1000
0001
,
0010
0010
0001
0100
,
0100
0100
0000
0000
,
1001
0001
1000
0101
,
0001
0100
1010
1000
,
0001
0011
0010
0100
,
0110
0000
1100
1100
,
0000
1001
1001
0001
,
0100
0010
0110
0110
,
0200
0000
0000
0001
,
0000
0000
0300
0000
,
0000
0000
0000
0000
,
0002
0000
0000
0203
,
0000
0000
0320
0000
,
0000
2030
0000
0000
,
3200
0000
0000
0300
,
0000
0000
0000
0000
,
0000
0000
0000
0000
,
0010
0000
0100
0001
,
1000
0001
0100
0001
,
0010
0100
0010
1000
,
0010
0001
0001
1000
,
0001
0001
0100
0010
,
0010
0000
1000
0001
,
1001
1000
0100
1100
,
1000
0001
0101
0100
,
0010
0000
0110
0000
,
1001
1001
0001
0010
,
0100
0000
0000
1001
,
1001
1000
0010
0100
,
0001
1000
0001
0000
0100
0000
0001
1000
,
0001
0010
0100
0000
,
0100
0020
0000
0000
,
0030
0000
0000
0001
,
1000
0000
0010
0100
0001
0000
0000
0001
,
0100
0001
0010
0100
,
1000
0000
0000
0001
0100
0000
0010
0000
,
0000
1000
0100
0000
0010
0100
1000
0000
,
0001
1000
0000
0100
,
0010
0000
0001
0001
,
0000
0001
1000
0000
0010
0000
0000
0010
,
1000
0001
0010
0001
,
1000
0000
0010
0100
,
0000
0000
0001
0000
1000
0000
0000
0100
,
0010
0100
0000
1000
,
0001
0100
0001
0010
,
0100
0000
1000
0000
0010
1000
0010
0000
,
0100
0001
0010
0100
,
1000
0000
0100
0001
,
0000
0100
1000
0000
0001
0100
0001
0000
,
1000
0010
0000
0001
,
0010
0000
0100
0001
,
0000
1000
1100
1100
,
0110
0011
0011
1001
,
1010
1010
0110
0101
,
0000
1001
0000
0000
1100
0000
0100
0000
,
0010
0101
0100
0010
,
1010
0100
0001
0011
,
1000
0100
0110
0000
,
0000
0000
0000
0000
,
0000
0000
0000
0000
,
0000
0000
0101
0010
,
0000
1010
0100
0000
,
0011
0100
0000
1100
,
0010
0000
0000
0000
1001
0000
0001
0100
,
0000
0001
0100
0000
0000
0000
1010
0000
,
1001
0000
1000
0100
0000
0010
0001
0000
,
0000
0001
0100
0100
,
0001
0010
0010
0100
,
1000
0000
0000
0001
,
0010
1000
0100
0000
;

//---------------dance-single - ----------------
#NOTES:
     dance-single:
     :
     Easy:
     6:
     0.335117,0.565555,0.102363,0.059712,0.000000,275.000000,263.000000,12.000000,7.000000,0.000000,0.000000,0.335117,0.565555,0.102363,0.059712,0.000000,275.000000,263.000000,12.000000,7.000000,0.000000,0.000000:
0000
0000
0000
0000
,
0000
0000
0000
0000
,
0000
0000
0000
0000
,
0000
0000
0000
0000
,
0000
0000
0000
0000
,
0000
0000
0000
0000
,
0000
0000
0000
0000
,
1000
0000
0000
0100
0000
0000
1000
0000
,
0000
0000
0000
0000
0001
0000
0000
0010
,
0000
0001
0000
0000
,
0200
0000
0000
0000
,
0000
0000
0000
0320
0030
0000
0000
0000
,
0000
0000
2000
0000
,
3001
0000
0000
0100
0000
0000
0001
0000
,
0000
0000
0000
0000
1000
0000
0000
0010
,
0000
1000
0000
0000
,
0001
0000
0000
0001
0000
0000
0010
0000
,
0000
0000
0000
0000
0100
0000
0000
0100
,
0000
1000
0100
0010
,
0001
0000
0000
1000
0000
0000
0001
0000
,
0000
0000
0000
0000
0100
0000
0000
0010
,
0000
0100
0000
0000
,
0001
0000
0000
0001
0000
0000
0100
0000
,
0000
0000
0000
0000
0010
0000
0000
1000
,
0000
1000
0001
1000
,
0100
0000
0000
0010
,
0000
0000
0001
0000
,
0000
0100
0000
0000
,
0010
0000
0000
1000
,
0000
0000
0001
0000
,
0000
0100
0000
0000
,
0001
0000
0000
1000
,
0000
0000
0100
0000
,
0000
0010
0000
0000
,
0001
0000
0000
0010
,
0000
0000
0100
0000
,
0000
0010
0100
0010
,
0001
0001
0001
0100
,
0100
0100
0010
0010
,
0010
1000
0001
1000
,
0100
0100
0100
0010
,
0010
0010
0001
1000
,
0001
0100
0000
0000
,
0110
0010
0010
1001
,
1000
1000
0011
0001
,
0001
1100
1000
1000
,
1001
0000
0101
0001
,
0000
1010
1000
1000
,
0001
0100
0100
0100
,
0200
0300
0000
0000
,
0000
0000
0000
0000
,
0000
0000
0000
0000
,
1000
0000
0000
0100
,
0000
0000
0010
0000
,
0000
0001
0000
0000
,
0100
0000
0000
0000
,
0000
0000
0000
0000
,
0000
0000
0000
0000
,
0001
0100
0000
0100
,
1000
0000
1000
0010
,
0000
0010
0001
0000
,
0001
0010
0010
0100
,
1000
1000
0001
0010
,
0010
0000
0100
1000
,
0001
0100
0100
0010
,
1000
1000
0001
0100
,
0100
0000
0010
1000
,
0001
0010
0100
0010
,
0001
0000
0000
1000
,
0010
0100
0010
1000
,
0001
0010
0001
0010
,
0100
0010
0200
0000
,
0000
2300
0000
0000
,
3000
0000
0000
0200
,
0000
0000
0310
0001
,
0010
0001
0000
1000
,
1000
0010
1000
0010
,
0000
0100
0001
0100
,
0001
1000
0000
0001
,
0010
0000
0001
1000
,
0000
0001
0100
0001
,
0100
0001
0000
1000
,
0100
0010
0001
1000
,
0000
0001
0100
0000
,
0001
1000
0000
0001
,
0010
0100
1000
0010
,
0100
0001
0010
0010
,
0100
1000
0000
1000
,
0001
0100
0010
1000
,
0000
0001
0100
0010
,
1000
0100
0000
0100
,
0010
0001
0100
0001
,
0000
0001
0101
0100
,
0100
0110
0010
0010
,
1010
1000
1000
1001
,
0001
0001
0100
0000
,
0010
1000
0100
0010
,
0001
0000
0010
0100
,
0000
0100
0110
0000
,
0000
0000
0000
0000
,
0000
0000
0000
0000
,
0000
0000
0001
0001
,
0000
0100
0100
0000
,
0010
0010
0000
1000
,
1000
0000
0001
0010
,
0100
1000
0000
0001
,
1000
0100
0010
0001
,
0000
1000
0100
0000
,
0010
0001
0000
0001
,
0100
0000
0010
1000
,
0001
1000
0100
0000
;

//---------------dance-single - ----------------
#NOTES:
     dance-single:
     :
     Beginner:
     2:
     0.143795,0.329907,0.085302,0.145014,0.000000,118.000000,108.000000,10.000000,17.000000,0.000000,0.000000,0.143795,0.329907,0.085302,0.145014,0.000000,118.000000,108.000000,10.000000,17.000000,0.000000,0.000000:
0000
0000
0000
0000
,
0000
0000
0000
0000
,
0000
0000
0000
0000
,
0000
0000
0000
0000
,
0000
0000
0000
0000
,
0000
0000
0000
0000
,
0000
0000
0000
0000
,
1001
0000
0000
0000
,
0000
0000
0010
0000
,
0000
0000
0000
0000
,
0100
0000
0000
0000
,
0000
0000
0000
0000
,
0000
0000
0000
0000
,
0001
0000
0000
0001
,
0000
0000
0010
0000
,
0000
0010
0000
0000
,
0001
0000
0000
0010
,
0000
0000
0001
0000
,
0000
0000
0000
0000
,
1000
0000
0000
1000
,
0000
0000
0010
0000
,
0000
0010
0000
0000
,
1000
0000
0000
0010
,
0000
0000
1000
0000
,
0000
0001
0000
0000
,
0200
0000
0000
0300
,
0000
0000
0020
0000
,
0000
0030
0000
0000
,
2000
0000
0000
3000
,
0000
0000
0002
0000
,
0000
0003
0000
0000
,
2000
0000
0000
3000
,
0000
0000
0020
0000
,
0000
0030
0000
0000
,
0200
0000
0000
0300
,
0000
0000
0002
0000
,
0000
0003
0000
0000
,
1000
0000
0000
0100
,
0000
0000
0010
0000
,
0000
0100
0000
0000
,
1000
0000
0000
0100
,
0000
0000
0010
0000
,
0000
0001
0000
0000
,
1001
0000
0000
1001
,
0000
0000
0110
0000
,
0000
0110
0000
0000
,
2002
0000
0000
3003
,
0000
0000
0220
0000
,
0000
0330
0000
0000
,
1001
0000
0000
0000
,
0000
0000
0000
0000
,
0000
0000
0000
0000
,
0200
0000
0000
0300
,
0000
0000
0020
0000
,
0000
0030
0000
0000
,
1000
0000
0000
0000
,
0000
0000
0001
0000
,
0000
0000
0000
0000
,
0100
0000
0000
0010
,
0000
0000
1000
0000
,
0000
0001
0000
0000
,
0001
0000
0000
0010
,
0000
0000
0100
0000
,
0000
0000
0000
0000
,
0001
0000
0000
0100
,
0000
0000
0010
0000
,
0000
0000
0000
0000
,
1000
0000
0000
0100
,
0000
0000
0000
1000
,
1000
1000
0000
0000
,
0001
0000
0000
0100
,
0000
0000
0001
0000
,
0000
0020
0000
0000
,
0030
0000
0000
0000
,
0000
0000
0001
0000
,
0000
0010
0000
0000
,
1000
0000
0000
0100
,
0000
0000
0001
0000
,
0000
0001
0000
0000
,
2000
0000
0000
3000
,
0000
0000
1000
0000
,
0000
0100
0000
0000
,
0001
0000
0000
0010
,
0000
0000
1000
0000
,
0000
1000
0000
0000
,
0002
0000
0000
0003
,
0000
0000
0100
0000
,
0000
0001
0000
0000
,
1000
0000
0000
0010
,
0000
0000
0100
0000
,
0000
0001
0000
0000
,
1000
0000
0000
0100
,
0000
0000
1000
1000
,
1000
1000
0000
0000
,
0001
0001
0001
0001
,
0000
0000
0100
0000
,
0000
0001
0000
0000
,
0010
0000
0000
0100
,
0000
0000
0110
0000
,
0000
0000
0000
0000
,
0000
0000
0000
0000
,
0000
0000
0000
0000
,
0000
0000
0000
0000
,
0000
0000
0000
0000
,
0000
0000
1001
0000
,
0000
0010
0000
0000
,
0100
0000
0000
0001
,
0000
0000
1000
0000
,
0000
0001
0000
0000
,
1000
0000
0000
0010
,
0000
0000
0100
0000
;
