#TITLE:Mazy Metroplex;
#SUBTITLE:;
#ARTIST:aran;
#TITLETRANSLIT:;
#SUBTITLETRANSLIT:;
#ARTISTTRANSLIT:;
#GENRE:;
#CREDIT:;
#BANNER:;
#BACKGROUND:Mazy Metroplex-bg.png;
#LYRICSPATH:;
#CDTITLE:;
#MUSIC:Mazy Metroplex.ogg;
#OFFSET:-0.034000;
#SAMPLESTART:75.885002;
#SAMPLELENGTH:10.000000;
#SELECTABLE:YES;
#BPMS:0.000000=155.000000
;
#STOPS:
;
#BGCHANGES:;
#KEYSOUNDS:;
#ATTACKS:;

//---------------dance-single - ----------------
#NOTES:
     dance-single:
     :
     Hard:
     16:
     0.762575,1.039981,0.389069,0.132283,1.073830,686.000000,636.000000,50.000000,17.000000,0.000000,0.000000,0.762575,1.039981,0.389069,0.132283,1.073830,686.000000,636.000000,50.000000,17.000000,0.000000,0.000000:
// measure 0
0000
0000
0000
0000
,  // measure 1
0000
0000
0000
0000
,  // measure 2
0000
0000
0000
0000
,  // measure 3
0000
0000
0000
0000
,  // measure 4
0000
0000
0000
0000
,  // measure 5
1000
0000
0000
0010
0000
0000
0000
0000
,  // measure 6
0000
0000
0000
0100
0000
0000
0100
0000
0000
0001
0000
0000
0001
0000
1000
0000
,  // measure 7
0100
0000
0000
0000
0000
0000
0010
0000
0000
0000
0000
0000
0001
0000
0000
0000
0000
0000
1000
0000
0001
0000
1000
0000
0001
0000
0000
0100
0000
0000
0010
0000
0000
0000
0000
0000
0100
0000
0000
0000
0000
0000
0001
0000
1000
0000
0001
0000
,  // measure 8
2000
0000
0000
0000
0000
0000
0000
0100
0000
0000
0000
0000
3000
0000
0000
0000
,  // measure 9
0100
0000
0010
0000
0000
0000
0000
0001
0000
0000
0001
0000
0100
0000
1000
0000
,  // measure 10
0100
0001
0100
0001
0000
0000
0000
0010
0000
0000
0010
0000
0100
0000
1000
0000
,  // measure 11
0001
0100
0001
0100
0000
0100
0000
0010
0000
0010
1000
0000
0002
0000
0000
0000
,  // measure 12
0013
0100
0000
0010
0100
0000
0000
1000
0000
0000
0001
0000
0000
1001
0000
0000
,  // measure 13
1000
0000
0100
0000
0000
0000
0000
1000
0000
0000
1000
0000
0010
0000
0001
0000
,  // measure 14
0010
1000
0010
1000
0000
0000
0000
0100
0000
0000
0100
0000
0010
0000
0001
0000
,  // measure 15
1000
0010
1000
0010
0000
0010
0000
0100
0000
0100
0001
0000
0020
0000
0000
0000
,  // measure 16
0031
1000
0000
0001
0100
0000
0010
0100
0000
0000
0010
0000
0001
0000
0010
0000
,  // measure 17
1000
0000
0000
0010
0000
0000
0000
0000
0100
0000
0000
0000
0100
0000
0000
0000
0001
0000
0100
0000
0001
0000
1000
0000
,  // measure 18
0100
1000
0100
0000
0010
0000
0010
0000
0001
0010
0100
0001
,  // measure 19
0100
0010
0001
1000
0010
0100
0010
0000
0100
0000
1000
0100
,  // measure 20
0010
0000
0000
0000
0100
0000
0000
0000
0010
0000
0000
0000
0100
0000
0000
0000
0001
0000
0000
0000
1000
0000
0000
0000
0100
0000
0000
0000
0000
0000
1000
0000
0000
0100
0000
0000
0000
0000
0000
0010
0000
0000
0001
0000
0000
0000
0000
0000
,  // measure 21
0010
0000
0100
0000
1000
0000
0000
1001
0000
0000
0001
0000
0100
0000
1000
0000
,  // measure 22
0100
0001
0100
0001
0000
0000
0000
0010
0000
0000
0010
0000
0100
0000
1000
0000
,  // measure 23
0100
1000
0100
0000
1000
0000
0001
0000
0100
0001
0100
0000
0010
0000
0100
0000
,  // measure 24
0020
0000
0000
0000
0000
0000
0000
1030
0000
0000
0001
0000
0010
0000
0001
0000
,  // measure 25
1001
0000
1000
0010
0000
0100
0001
0000
1000
0010
0000
0100
0001
0000
1000
0001
,  // measure 26
1000
0001
0010
0000
0100
1000
0000
0001
0010
0000
0100
1000
0000
0001
0100
0001
,  // measure 27
0100
0010
0000
1000
0100
0000
1000
0001
0000
1000
0010
0000
0100
0001
1000
0010
,  // measure 28
0100
0000
0001
0010
0100
0000
1000
0010
0100
0000
0001
0010
0001
0000
1000
0100
,  // measure 29
0010
0001
0000
1000
0100
0000
0010
0001
0000
1000
0100
0000
1000
0001
1000
0001
,  // measure 30
0100
0000
0010
1000
0000
0001
0100
0000
0010
1000
0000
0001
0100
0001
0100
0010
,  // measure 31
2000
3100
0002
0013
,  // measure 32
0100
0000
1000
0000
0100
0000
1000
0000
0000
0001
0000
0000
0100
0000
0001
0000
0100
0000
0001
0000
0000
1000
0000
0000
0100
0000
1000
0000
0100
0000
1000
0000
0000
0100
0000
0000
0010
0000
0000
0000
0000
0000
0000
0000
0000
0000
0000
0000
,  // measure 33
0002
0000
0000
0000
0000
0000
0000
0100
0000
0000
0000
0000
0000
0000
0000
0000
,  // measure 34
1000
0000
0000
0000
0000
0000
0000
0100
0000
0000
1003
0000
1000
0100
0010
0001
,  // measure 35
2000
0000
0000
0000
0000
0000
0000
0100
0000
0000
0000
0000
0000
0001
0000
0001
,  // measure 36
0000
0000
0000
0000
0000
0000
0000
0100
0000
0000
3100
0000
0020
0000
0000
0000
,  // measure 37
0032
0010
0010
0013
,  // measure 38
2000
0000
0000
0000
0010
0000
0000
0000
0010
0000
0000
0000
3010
0000
0010
0100
,  // measure 39
0002
0000
0000
0000
1000
0000
0000
0000
1000
0000
0000
0000
1003
0100
0010
0100
,  // measure 40
1000
0001
0020
0000
0001
0031
1000
0010
,  // measure 41
0100
0000
0000
1000
0000
0000
0100
0000
0000
0001
0000
0000
0010
0000
0000
0001
,  // measure 42
0000
0000
0010
0000
0000
1000
0000
0000
0010
0000
0000
0001
0000
0000
0001
1000
,  // measure 43
0000
0000
0010
0000
0000
0001
0000
0000
0010
0000
0000
1000
0000
0000
0100
0000
,  // measure 44
0000
1000
0000
0000
0100
0000
0000
0001
0000
0000
0100
0000
0000
1000
0001
0000
,  // measure 45
0100
0001
0100
0001
0100
0001
0100
0010
0100
0010
0100
0010
0100
0010
1000
0001
,  // measure 46
1000
0100
1000
0100
1000
0100
1000
0100
0010
0100
0010
0100
0010
0100
0010
0001
,  // measure 47
1000
0001
1000
0001
0100
0001
1000
0100
1000
0100
0010
0100
,  // measure 48
0010
0000
0010
0000
0010
0000
0001
0000
0001
0000
0001
0000
1000
0000
0000
0010
0000
0000
0100
0000
0000
0010
0000
0000
,  // measure 49
1010
0000
0000
0110
0000
0000
1010
0000
0000
0011
0000
0000
1010
0000
0000
0110
,  // measure 50
0000
0000
1010
0000
0000
0011
0000
0000
1100
0000
0000
0101
0000
0000
0100
0000
,  // measure 51
0001
0000
1001
0000
0000
0011
0000
0000
1010
0000
0000
1100
0000
0000
0101
0000
,  // measure 52
0000
1100
0000
0000
1010
0000
0000
0011
0000
0000
1100
0000
0100
0000
0010
0000
,  // measure 53
0011
0000
0001
0100
0000
0100
0010
0000
0010
1000
0000
1000
0100
0000
0100
0010
,  // measure 54
0000
0010
0001
0000
0001
0100
0000
0100
1000
0000
1000
0100
0000
0100
0010
1000
,  // measure 55
0001
0100
0010
0000
1000
0001
1000
0001
0010
0000
0001
1000
0001
1000
0010
0000
,  // measure 56
0010
0100
0000
0001
1000
0000
0010
0100
0000
0001
0010
0000
0100
0000
1000
0000
,  // measure 57
0100
0000
0010
0001
1000
0001
1000
0000
0000
1010
0000
0000
0010
0100
0010
1000
,  // measure 58
0000
0000
1001
0000
0000
0001
0100
0010
0100
0000
0000
1001
0000
0000
0100
0010
,  // measure 59
1000
0010
0000
1001
0000
0000
1000
0100
0000
0110
0000
0000
0001
0100
0000
0110
,  // measure 60
0000
0000
1000
0100
0000
0110
0000
0000
0001
0100
0000
0010
0000
0100
0000
0010
,  // measure 61
0000
0000
0101
0000
0000
0110
0000
0000
1010
0000
0000
1001
0000
0000
1100
0000
,  // measure 62
0000
0000
0000
0000
0000
0000
1100
0000
0000
0000
0000
0110
0000
0000
0000
0000
0011
0000
0000
0000
0000
1001
0000
0000
0000
0000
0001
0000
0000
0100
0000
0000
,  // measure 63
0100
0000
0010
0000
0000
1000
0000
0000
0001
0000
0000
0010
0000
0000
0100
0000
,  // measure 64
1000
0100
1000
0000
0100
0001
0000
0100
1000
0000
0100
0001
0000
0100
1000
0000
,  // measure 65
0002
0100
0000
1000
,  // measure 66
0000
0100
0000
1000
,  // measure 67
2003
0100
0000
0001
,  // measure 68
0000
0000
0000
0000
0000
0000
0100
0000
0000
0000
0000
0000
0000
0000
0000
0000
0000
0000
3001
0000
0000
0100
0001
0100
,  // measure 69
0001
0000
0000
1001
0000
0000
1010
0000
0000
0011
0000
0000
1001
0000
0000
0000
,  // measure 70
0110
0000
0000
1001
0000
0000
1100
0000
0000
0101
0000
0000
1001
0000
0000
0000
,  // measure 71
1000
0010
1000
0010
1000
0010
0100
0001
0010
0001
0010
0001
0010
0001
0010
0100
,  // measure 72
1000
0001
0100
0010
1000
0100
0010
0001
0100
0010
0100
0010
1000
0001
1000
0001
,  // measure 73
0100
0000
0010
1000
0000
0001
0100
0000
0001
0100
0001
1000
0100
1000
0100
0000
,  // measure 74
0010
0001
0010
0000
0001
1000
0000
0010
0100
0000
0001
0100
0001
0000
1000
0010
,  // measure 75
0100
0001
0000
0010
1000
0000
0010
0001
0000
0010
1000
0000
0010
0100
0010
0000
,  // measure 76
0001
0010
0000
0010
1000
0000
0001
0100
0000
0100
1000
0000
0001
1000
0001
1000
,  // measure 77
0010
0000
0100
0001
0100
0001
2000
0000
0000
0000
0100
0000
3100
0000
0000
0000
,  // measure 78
0010
0110
0000
1002
0000
0000
0103
0010
,  // measure 79
0100
0001
0100
0001
1000
0000
0001
1000
0001
1000
0100
0000
0010
0001
0010
0001
,  // measure 80
1000
0000
0100
1000
0100
1000
0001
0000
1000
0010
1000
0010
0100
0001
1000
0100
,  // measure 81
0010
0000
0000
0000
;

//---------------dance-single - ----------------
#NOTES:
     dance-single:
     :
     Medium:
     13:
     0.511347,0.693320,0.287911,0.171190,0.404631,460.000000,423.000000,37.000000,22.000000,0.000000,0.000000,0.511347,0.693320,0.287911,0.171190,0.404631,460.000000,423.000000,37.000000,22.000000,0.000000,0.000000:
0000
0000
0000
0000
,
0000
0000
0000
0000
,
0000
0000
0000
0000
,
0000
0000
0000
0000
,
0000
0000
0000
0000
,
0001
0000
0000
0010
0000
0000
0000
0000
,
0000
0000
0000
0100
0000
0000
0100
0000
0000
1000
0000
0000
1000
0000
0000
0000
,
0001
0100
0001
0000
1000
0100
0010
0000
,
0002
0000
0000
0000
0000
0000
0000
1000
0000
0000
0000
0000
0003
0000
0000
0000
,
1000
0000
0001
0000
0000
0000
0000
0010
0000
0000
0010
0000
0001
0000
1000
0000
,
0000
0000
0100
0000
0100
0000
0000
0010
0000
0000
0010
0000
0002
0000
0000
0000
,
1003
0000
0000
0100
0000
0100
0000
0010
0000
0010
0001
0000
0200
0000
0000
0000
,
0301
0000
0000
0100
0010
0000
0000
0100
0000
0000
0000
0000
0000
0000
0000
0000
,
0001
0000
1000
0000
0000
0000
0000
0100
0000
0000
0100
0000
1000
0000
0001
0000
,
0000
0000
0010
0000
0010
0000
0000
0100
0000
0000
0100
0000
2000
0000
0000
0000
,
3001
0000
0000
0010
0000
0010
0000
0100
0000
0100
1000
0000
0020
0000
0000
0000
,
1030
0000
0000
0010
1000
0000
0010
0100
0000
0000
0100
0000
0001
0000
0100
0000
,
0010
0000
0000
0000
1000
0000
1000
0000
0001
0000
0100
0000
,
0100
0000
0010
1000
0001
0000
0001
0000
0010
0000
0100
0000
,
1000
0000
1000
0000
0010
1000
0010
0000
0010
0000
0100
0000
,
0001
0000
0000
0000
0020
0000
0000
0000
0000
0000
0130
0000
0000
0000
0000
1000
0000
0000
0000
0000
0000
1000
0000
0000
,
0100
0000
0010
0000
0000
0000
0000
0001
0000
0000
1000
0000
0010
0000
0000
0000
,
0100
0000
0001
0000
0100
0000
0000
0010
0000
0000
1000
0000
0001
0000
0001
0000
,
1000
0100
1000
0010
0001
0010
1000
0001
,
0200
0000
0000
0000
0000
0000
0000
0310
0000
0000
1000
0000
0010
0000
1000
0000
,
0001
0000
0000
0010
0000
0000
0100
0000
0000
1000
0000
0000
0010
0000
0000
1000
,
0000
0000
0100
0000
0000
0010
0000
0000
0001
0000
0000
0100
0000
0000
0001
0000
,
0000
0010
0000
0000
0001
0000
0000
1000
0000
0000
0010
0000
0000
1000
0000
0000
,
0010
0100
0010
0000
1000
0001
1000
0000
,
0100
0010
0000
0000
0001
0000
0000
0100
0000
0000
0001
0000
0000
0010
0000
0000
,
1000
0000
0000
0010
0000
0000
0001
0000
0000
1000
0000
0000
0100
0000
0000
0010
,
0002
0013
2000
3010
,
0001
0010
1000
0010
0001
0010
0100
0000
,
2000
0000
0000
0000
,
0000
0000
0000
0000
0000
3100
0100
1000
,
0002
0000
0000
0000
,
0000
0000
0000
0000
0000
0103
0100
0001
,
2000
0100
0100
3100
,
0002
0000
0010
0000
0010
0000
0013
0001
,
0200
0000
0001
0000
0001
0000
0301
1000
,
0010
0100
0020
0000
1000
0000
1030
0000
,
0001
0000
0000
0001
0000
0000
1000
0000
0000
1000
0000
0000
0010
0000
0000
0010
,
0000
0000
1000
0000
0000
1000
0000
0000
0100
0000
0000
0100
0000
0000
1000
0001
,
0000
0000
1000
0000
0000
1000
0000
0000
0001
0000
0000
0001
0000
0000
0010
0000
,
0000
0010
0000
0000
0001
0000
0000
0001
0000
0000
0100
0000
0000
0100
0010
0000
,
1000
0010
1000
0010
0100
0001
0010
0000
,
0001
0010
0001
0010
0100
1000
0010
0000
,
0100
0001
1000
0000
0100
1000
0001
0000
,
0020
0000
0000
0000
0031
0100
1000
0100
,
0101
0000
0000
0001
0000
0000
1100
0000
0000
1000
0000
0000
0101
0000
0000
0001
,
0000
0000
1010
0000
0000
1000
0000
0000
0101
0000
0000
0001
0000
0000
0010
0000
,
0100
0000
0010
0000
0000
0011
0000
0000
1000
0000
0000
1010
0000
0000
1000
0000
,
0000
1100
0000
0000
0001
0000
0000
0101
0000
0000
0001
0000
0010
0000
0100
0000
,
1100
0000
1000
0001
0000
0000
0101
0000
0001
1000
0000
0000
1100
0000
1000
0010
,
0000
0000
0101
0000
0001
0010
0000
0000
0110
0000
0100
1000
0000
0000
1000
0000
,
0001
0101
0000
1000
1100
0000
0001
0101
,
0000
1100
0000
0000
1010
0000
0000
0011
0000
0000
0010
0000
0100
0000
0010
0000
,
0001
0000
0000
1000
0000
0000
0010
0000
0000
1010
0000
0000
0001
0100
0000
0100
,
0000
0000
0110
0000
0000
0001
1000
0000
1000
0000
0000
1001
0000
0000
0001
0000
,
1000
0000
0100
0010
0000
0000
0001
0000
0100
0010
0000
0000
1000
0000
0100
0010
,
0000
0000
0001
0000
0100
0010
0000
0000
1000
0000
0100
0010
0000
0001
0000
0010
,
0000
0000
0001
0000
0000
1000
0000
0000
0010
0000
0000
0010
0000
0000
0010
0000
,
0000
0000
0000
0000
0000
0000
1000
0000
0000
0000
0000
0001
0000
0000
0000
0000
0010
0000
0000
0000
0000
0010
0000
0000
0000
0000
0010
0000
0000
0000
0000
0000
,
0000
0000
0100
0000
0000
1000
0000
0000
0001
0000
0000
0001
0000
0000
0001
0000
,
0000
0000
0100
0000
0000
0001
0000
0000
1000
0000
0000
1000
0000
0000
1000
0000
,
0200
0010
0000
0010
,
2300
0001
0000
0001
,
3020
0100
0000
0100
,
0032
1000
0000
1003
,
1001
0000
0000
1001
0000
0000
1100
0000
0000
1100
0000
0000
0110
0000
0000
0000
,
1001
0000
0000
1001
0000
0000
0101
0000
0000
0101
0000
0000
0110
0000
0000
0000
,
1000
0010
0100
0000
0001
0010
0100
0000
,
1000
0010
0100
0001
0010
0001
1000
0010
,
0100
0001
0010
0001
0100
1000
0100
0010
,
1000
0001
0100
0010
0100
0001
1000
0100
,
0001
0100
0010
0100
1000
0010
0100
1000
,
0100
0001
1000
0001
0100
0010
1000
0010
,
1010
0000
1000
1002
0000
0000
0003
0000
,
0010
0011
0000
2001
0000
0000
3000
0000
,
0001
0010
1000
0001
0100
1000
0001
0100
,
1000
0001
0010
1000
0001
0010
1000
0010
,
0001
0000
0000
0000
;

//---------------dance-single - ----------------
#NOTES:
     dance-single:
     :
     Easy:
     8:
     0.249004,0.378175,0.140065,0.171190,0.031125,224.000000,206.000000,18.000000,22.000000,0.000000,0.000000,0.249004,0.378175,0.140065,0.171190,0.031125,224.000000,206.000000,18.000000,22.000000,0.000000,0.000000:
0000
0000
0000
0000
,
0000
0000
0000
0000
,
0000
0000
0000
0000
,
0000
0000
0000
0000
,
0000
0000
0000
0000
,
2000
0000
3010
0000
,
0002
0000
0013
0000
,
1000
0010
0001
0010
,
2000
0000
3000
0000
,
0001
0000
0010
0010
,
0100
0000
1000
1000
,
0010
0000
0100
0100
,
0001
0010
0100
1000
,
1000
0000
0010
0010
,
0100
0000
0001
0001
,
0010
0000
0100
0100
,
1000
0010
0100
0001
,
0011
0000
0110
0000
,
1100
0000
0110
0000
,
0001
0000
1000
0000
,
0010
0000
0100
0000
,
0001
0100
0010
0010
,
1000
0100
0010
0010
,
0001
0010
1000
0010
,
0002
0000
0003
0000
,
1000
0010
0100
0000
,
0001
0010
0001
0000
,
1000
0100
0010
0000
,
0001
0100
1000
0100
,
0001
0010
0100
0000
,
1000
0010
1000
0000
,
0002
0003
2000
3000
,
0001
0010
0100
1000
,
0020
0000
0000
0000
,
0000
0000
0000
0000
0000
0030
0000
0000
,
0200
0000
0000
0000
,
0000
0000
0000
0000
0000
0300
0000
0000
,
0002
0000
1000
0000
,
0023
0000
0100
0000
,
2030
0000
0001
0000
,
3200
0000
0010
0000
,
0301
0001
1000
1000
,
0010
0010
0100
0100
,
0000
0001
0010
0010
,
0100
0100
1000
1000
,
0001
0100
0010
0010
,
1000
0010
0100
0100
,
0002
0003
2000
3000
,
0002
0000
2000
3003
,
1000
0000
0000
1000
0000
0000
0001
0000
,
0000
0001
0000
0000
0100
0000
0000
0100
,
0000
0010
0000
0000
0010
0000
0000
1000
,
0000
0000
1000
0000
0000
0100
0010
0000
,
0011
0000
0000
0001
0000
0000
1001
0000
,
0000
1000
0000
0000
1010
0000
0000
0010
,
0000
0110
0000
0000
0110
0000
0000
1001
,
0000
0000
1001
0000
0000
1000
0000
0000
,
0002
0000
0000
0013
0000
0000
2000
0000
,
0000
3010
0000
0000
0200
0000
0000
0310
,
0000
0000
0000
1010
0000
0000
0000
0000
0000
1010
0000
0000
0000
0000
0000
1001
,
0000
0000
0000
0000
0000
0101
0000
0000
0000
0000
0000
0101
0000
0000
0000
0001
,
0000
1000
0000
0000
0010
0000
0000
0010
,
0000
0000
0000
0001
0000
0000
0000
0000
0010
0000
0000
0000
0000
0010
0000
0000
,
0000
1000
0000
0000
0001
0000
0000
0100
,
0000
0001
0000
0000
1000
0000
0000
0000
,
0002
0000
0000
0000
,
0003
0000
0000
0000
,
2000
0000
0000
0000
,
3000
0000
0000
0000
,
1000
0010
1000
0000
,
0001
0010
0001
0000
,
1000
0010
0001
0010
,
1000
0100
0010
0000
,
1001
1000
0010
0100
,
1000
0100
0001
0000
,
1000
0001
0010
0100
,
0001
0100
1000
0000
,
0002
0000
0000
0103
0000
0000
0000
0000
,
0000
1000
0000
1010
0000
0000
0000
0000
,
0001
0010
1000
0010
,
0001
0010
0100
1000
,
0010
0000
0000
0000
;

//---------------dance-single - ----------------
#NOTES:
     dance-single:
     :
     Beginner:
     4:
     0.131172,0.252117,0.054470,0.186753,0.023344,118.000000,111.000000,7.000000,24.000000,0.000000,0.000000,0.131172,0.252117,0.054470,0.186753,0.023344,118.000000,111.000000,7.000000,24.000000,0.000000,0.000000:
0000
0000
0000
0000
,
0000
0000
0000
0000
,
0000
0000
0000
0000
,
0000
0000
0000
0000
,
0000
0000
0000
0000
,
0001
0000
0000
0000
,
1000
0000
0000
0000
,
0001
0001
1000
1000
,
0020
0000
0030
0000
,
1000
0000
0010
0000
,
1000
0000
1000
0000
,
0010
0000
1000
0000
,
0002
0000
0003
0000
,
0001
0000
0010
0000
,
0001
0000
0001
0000
,
0010
0000
0001
0000
,
2000
0000
3000
0000
,
0020
0000
0030
0000
,
0200
0000
0300
0000
,
0002
0000
0003
0000
,
0200
0000
0300
0000
,
1000
0000
0010
0000
,
1000
0000
1000
0000
,
0001
0000
0010
0000
,
0002
0000
0003
0000
,
0001
0000
0010
0000
,
0100
0000
0010
0000
,
0001
0000
0010
0000
,
0010
0000
0100
0000
,
1000
0000
0010
0000
,
0100
0000
0010
0000
,
2000
0000
3000
0000
,
0002
0000
0003
0000
,
2002
0000
0000
0000
,
0000
0000
0000
0000
,
3003
0000
0000
0000
,
0000
0000
0000
0000
,
0200
0000
0300
0000
,
0020
0000
0030
0000
,
0002
0000
0003
0000
,
2000
0000
3000
0000
,
0001
0000
0100
0000
,
0001
0000
0000
0000
,
1000
0000
0100
0000
,
1000
0000
0000
0000
,
0001
0000
0010
0000
,
0001
0000
0000
0000
,
1000
0000
0010
0000
,
2002
0000
3003
0000
,
1000
0000
0000
1000
,
0000
0000
1000
0000
,
0000
0010
0000
0000
0000
0000
0000
0010
,
0000
0000
0000
0000
0000
0010
0000
0000
,
0001
0000
0000
0001
,
0000
0000
0001
0000
,
0000
0100
0000
0000
0000
0000
0000
0100
,
0000
0000
0000
0000
0000
0100
0000
0000
,
0010
0000
0000
1000
,
0000
0000
0010
0000
,
0000
0000
0000
0100
0000
0000
0000
0000
0000
0100
0000
0000
0000
0000
0000
0100
,
0000
0000
0000
0000
0000
0100
0000
0000
0000
0000
0000
0100
0000
0000
0000
0000
,
0000
0002
0000
0000
0000
0000
0000
0003
,
0000
0000
0000
2000
0000
0000
0000
0000
0000
0000
0000
0000
0000
3000
0000
0000
,
0000
0100
0000
0000
0100
0000
0000
0000
,
0000
0010
0000
0000
0010
0000
0000
0000
,
0002
0000
0000
0000
,
0003
0000
0000
0000
,
2000
0000
0000
0000
,
3000
0000
0000
0000
,
0110
0000
0000
0000
,
1001
0000
0000
0000
,
0110
0000
1001
0000
,
0110
0000
0000
0000
,
0001
0000
0010
0000
,
0100
0000
1000
0000
,
0001
0000
1000
0000
,
0010
0000
0001
0000
,
0020
0000
0000
0030
0000
0000
0000
0000
,
0200
0000
0000
0300
0000
0000
0000
0000
,
1000
0000
0100
0000
,
0001
0000
0010
0000
,
1000
0000
0000
0000
;
