#TITLE:Looking for Edge of Ground;
#SUBTITLE:Vo. Hatsune Miku;
#ARTIST:かめりあ;
#TITLETRANSLIT:大地の閾を探して;
#SUBTITLETRANSLIT:(Vo. 初音ミク);
#ARTISTTRANSLIT:かめりあ;
#GENRE:;
#CREDIT:;
#BANNER:;
#BACKGROUND:Looking for Edge of Ground-bg.png;
#LYRICSPATH:;
#CDTITLE:;
#MUSIC:Looking for Edge of Ground.ogg;
#OFFSET:0.003000;
#SAMPLESTART:62.410999;
#SAMPLELENGTH:15.000000;
#SELECTABLE:YES;
#DISPLAYBPM:174.000000;
#BPMS:0.000000=174.000000
,385.000000=87.000000
,385.250000=174.000000
,392.750000=87.000000
,393.000000=174.000000
,400.500000=87.000000
,400.750000=174.000000
,408.250000=87.000000
,408.500000=174.000000
,416.000000=87.000000
,416.250000=174.000000
,423.750000=87.000000
,424.000000=174.000000
,431.500000=87.000000
,431.750000=174.000000
,439.250000=87.000000
,439.500000=174.000000
;
#STOPS:512.000000=0.172000,
513.750000=0.172000,
514.250000=0.172000,
518.500000=0.172000,
520.250000=0.172000,
520.500000=0.172000
;
#BGCHANGES:;
#KEYSOUNDS:;
#ATTACKS:;

//---------------dance-single - ----------------
#NOTES:
     dance-single:
     :
     Challenge:
     18:
     0.781994,1.174163,0.479717,0.591187,0.650903,2750.000000,2509.000000,241.000000,297.000000,24.000000,0.000000,0.781994,1.174163,0.479717,0.591187,0.650903,2750.000000,2509.000000,241.000000,297.000000,24.000000,0.000000:
// measure 0
0000
0000
0000
0000
,  // measure 1
0000
0000
0000
0000
,  // measure 2
0000
0000
0000
0000
,  // measure 3
0000
0000
0000
0000
,  // measure 4
0000
0000
0000
0000
,  // measure 5
0000
0000
0000
0000
,  // measure 6
0000
0000
0000
0000
,  // measure 7
0100
0000
0000
0000
0010
0000
0100
0000
0020
0000
0000
0000
1000
0000
0000
0130
,  // measure 8
0002
2003
0000
3000
,  // measure 9
0100
0000
0000
0100
0020
0000
0031
1000
,  // measure 10
0001
0000
0000
1000
0200
0000
0000
0000
0000
0000
0000
0000
0300
0000
0000
0000
,  // measure 11
1000
0000
0000
0000
1000
0000
0001
0000
0200
0000
0000
0000
0001
0000
0000
0310
,  // measure 12
2000
0000
3002
0000
0000
0000
0013
0100
,  // measure 13
2000
0000
0000
0000
3010
0000
0001
0100
0002
0000
0000
0000
0013
0000
1000
0100
,  // measure 14
2000
0000
0000
0000
3100
0000
0001
1000
0001
0000
0010
0000
0200
0000
0000
0000
,  // measure 15
2300
0000
0000
0010
,  // measure 16
0002
0003
0000
0100
,  // measure 17
0002
0003
0000
0100
,  // measure 18
3020
0030
0000
0100
,  // measure 19
0002
0003
0000
1000
,  // measure 20
0200
0300
0000
0010
,  // measure 21
0002
0000
0000
0000
2003
0000
0000
3010
,  // measure 22
0001
0000
0000
0010
0000
0000
0000
0000
0000
0000
0000
0000
0000
0000
0000
0000
0000
0000
0000
0000
0000
0000
0000
0000
0100
0000
0000
0000
0000
0000
0000
0000
,  // measure 23
0002
1000
1003
0100
,  // measure 24
0020
0001
0031
0010
,  // measure 25
0200
1000
1300
0001
,  // measure 26
2000
0010
3010
0100
,  // measure 27
0100
0001
2000
0000
0000
0000
0000
3100
,  // measure 28
0020
0030
0002
0003
,  // measure 29
0200
0302
0023
2030
,  // measure 30
3020
0000
0030
0100
0200
0000
0000
0000
,  // measure 31
0300
0000
0000
0000
1000
0000
0000
0001
,  // measure 32
0002
0000
0003
0000
0010
0000
0000
1000
,  // measure 33
2000
3000
0200
0300
,  // measure 34
0010
0001
0010
0001
1000
0000
0100
0000
,  // measure 35
1000
0010
1000
0010
0100
0000
0001
0000
,  // measure 36
0020
2030
3200
0302
,  // measure 37
1000
0000
0000
0100
0200
0000
0303
0000
,  // measure 38
0100
0001
0100
0001
1000
0000
0100
0000
,  // measure 39
0010
0001
0010
0001
1000
0000
0010
0000
,  // measure 40
0200
0302
2003
3020
,  // measure 41
0230
0000
0000
0000
0002
0000
0003
0310
,  // measure 42
1000
0001
0020
0000
0000
0000
0000
0000
,  // measure 43
0000
0000
0230
0000
,  // measure 44
2300
0000
0000
0000
0000
0000
3001
0100
0002
0000
0000
0000
2003
0000
0000
0000
,  // measure 45
3200
0000
0310
0001
1001
0010
0100
0001
,  // measure 46
1001
0000
0100
0010
0001
0000
1000
0010
,  // measure 47
1010
0000
0001
0100
0010
0000
1000
0100
,  // measure 48
0110
1001
1010
0102
,  // measure 49
1003
2100
3001
0100
,  // measure 50
1010
0000
0010
0100
0020
0000
0100
0000
,  // measure 51
1000
0000
0130
0001
1000
0000
0100
0000
,  // measure 52
0011
0000
1000
0100
2000
0000
0100
0000
,  // measure 53
0001
0000
3100
0010
0001
1000
0010
0100
,  // measure 54
1001
0000
0100
0010
1010
0000
0100
0010
,  // measure 55
0011
0000
0010
0100
1100
0000
1000
0001
,  // measure 56
0101
1001
0021
1030
,  // measure 57
0201
1300
0001
0100
,  // measure 58
1010
0000
0100
0001
0200
0000
0010
0000
,  // measure 59
0001
0000
0310
1000
0001
0000
0010
0000
,  // measure 60
0110
0000
0001
0010
1100
0000
1000
0010
,  // measure 61
0110
0000
0000
0000
1000
0000
0010
0000
0101
0000
0000
0000
0001
0010
0001
0010
,  // measure 62
0200
0000
1300
1000
2000
0000
3010
0010
,  // measure 63
0020
0000
0031
0001
0002
0000
0103
0100
,  // measure 64
0200
0000
0310
0010
0020
0000
1030
0100
,  // measure 65
0020
0000
0031
0100
2000
0000
3100
0001
,  // measure 66
2000
0000
3100
0100
0200
0000
0301
0001
,  // measure 67
0002
0000
0013
0010
0020
0000
0130
0100
,  // measure 68
0200
0000
1300
1000
2000
0000
3001
0001
,  // measure 69
0002
0000
1003
0010
0001
1000
0100
0010
,  // measure 70
2000
0000
3100
0110
0020
0000
0031
1001
,  // measure 71
2000
0000
3010
0110
0200
0000
0301
0011
,  // measure 72
0020
0000
1030
1100
0200
0000
0310
0011
,  // measure 73
2001
0000
3020
0000
0031
0010
1000
0010
,  // measure 74
0002
0000
0013
1010
2000
0000
3001
0101
,  // measure 75
0200
0000
0000
0000
0301
0000
0011
0000
0020
0000
0000
0000
0130
0000
1000
0100
,  // measure 76
2000
0000
3010
0102
,  // measure 77
0000
0000
0000
1003
0000
0000
0100
0000
0011
0000
1100
0000
,  // measure 78
0020
0000
0031
2100
,  // measure 79
3000
0000
1010
0000
0101
0000
1001
0000
0000
0110
0000
0000
,  // measure 80
2002
0000
0000
0000
,  // measure 81
0003
0000
3002
0023
,  // measure 82
0200
0000
0000
0000
,  // measure 83
0030
0000
2300
3020
,  // measure 84
0200
0000
0000
0000
,  // measure 85
0000
0000
0000
0000
0030
0000
0310
0100
,  // measure 86
0001
0000
0000
0000
0001
0000
0000
0000
0001
0000
0000
0000
1000
0000
0001
0100
,  // measure 87
0020
0000
1030
1000
0001
0010
0100
1000
,  // measure 88
0100
0000
0001
0010
1100
0000
1001
0000
,  // measure 89
1010
0000
0001
0100
2010
0000
3002
0000
,  // measure 90
0013
0000
1000
0100
0011
0000
1001
0000
,  // measure 91
0101
0000
1000
0010
0102
0000
0010
0000
,  // measure 92
1003
0000
0000
1100
0000
0000
0010
0000
0001
0000
0000
1010
0000
0000
0100
0000
,  // measure 93
0001
0000
0000
0011
0000
0000
0100
0000
1000
0000
0000
0101
0000
0000
0010
0000
,  // measure 94
1000
0010
0100
0010
1000
0010
0100
0010
1000
0001
1000
0010
1000
0001
1000
0010
,  // measure 95
0100
0001
1000
0100
0010
0001
0010
0100
0010
0100
1000
0001
0100
0010
1000
0001
,  // measure 96
0100
0000
0000
0000
0020
1030
0000
0000
0101
0000
0000
1000
0000
0100
0010
0100
,  // measure 97
1000
0100
0010
0002
0000
0000
0000
1003
0000
0010
0000
0001
0000
0010
0000
1000
,  // measure 98
0000
0000
0000
0002
0013
0000
0000
1100
0000
0000
0010
0000
0001
0000
1000
0010
,  // measure 99
1000
0000
0001
0100
0001
0000
0010
0000
0200
0000
1000
0000
0310
0000
0110
0000
,  // measure 100
0000
0000
0000
0000
0000
0000
2000
0000
0000
3001
0000
0000
0000
0000
0000
0000
0000
0000
1010
0000
0000
0000
0000
0000
0010
0000
0000
0100
0000
0000
0000
0001
0000
0000
0000
1000
0000
0000
0000
0100
0000
0000
0010
0000
0000
0100
0000
0000
,  // measure 101
0010
0100
0000
1000
0001
0000
1000
0001
0000
0200
0000
0000
0000
0310
0000
0000
,  // measure 102
0000
0002
1003
0000
0000
0110
0000
0000
0001
0010
0100
0010
0002
0000
0000
0000
,  // measure 103
1003
0010
1000
0001
0100
0001
0010
0001
0010
0100
1000
0100
0010
0000
0000
0000
,  // measure 104
0200
1300
0000
0000
1010
0000
0000
0001
0000
0100
0010
0100
0001
0100
0010
2000
,  // measure 105
0000
0000
0000
3001
0000
0010
0000
1000
0000
0010
0000
0001
0000
0000
0000
2000
,  // measure 106
3010
0000
0000
1100
0000
0000
0001
0000
0010
0000
0001
1000
0010
0000
0100
0001
,  // measure 107
1000
0000
0100
0000
0010
0000
0001
1000
0001
1000
0002
0000
0000
0000
0203
0310
,  // measure 108
0100
0020
0000
0000
0000
1030
0000
0001
0010
0100
0010
0100
1000
0001
0000
0000
,  // measure 109
0100
0001
0000
1000
0000
0010
0000
0100
0000
0020
0000
0000
0000
2030
3100
0010
,  // measure 110
0100
0010
0000
0000
0001
0000
0000
1000
0000
0000
0100
0000
0000
0010
0000
0000
,  // measure 111
0002
2000
0000
0000
3003
0000
0000
0000
1001
0000
0000
0000
0000
0000
0010
0000
,  // measure 112
0200
0000
0300
0001
1000
0000
0100
0000
,  // measure 113
0110
0000
0001
0010
0011
0000
1000
0010
,  // measure 114
1010
0000
0100
0001
0101
0000
1000
0100
,  // measure 115
1100
0000
0100
0001
0010
0000
0001
0000
,  // measure 116
2001
0010
3002
0100
,  // measure 117
0023
0000
0100
0000
2030
0000
3100
0010
,  // measure 118
0002
1000
1000
0000
0100
0000
1003
0000
,  // measure 119
1001
0000
0100
0010
0001
1000
0001
1000
,  // measure 120
0010
0100
0001
0100
0010
1000
0010
1000
,  // measure 121
0100
0001
0100
0010
0001
0010
0001
1000
,  // measure 122
0010
1000
0010
0100
0001
0100
0001
1000
,  // measure 123
0100
0000
0010
0000
0100
0000
1000
0000
0001
0010
0100
0010
0001
0010
0100
0010
,  // measure 124
0001
1000
0100
1000
0001
1000
0100
1000
0001
0010
0100
1000
0001
0010
0100
1000
,  // measure 125
0001
0100
0010
1000
0001
0100
0010
1000
0001
0000
0001
0000
0010
0000
0010
0000
,  // measure 126
0100
0000
0100
0000
1000
0000
1000
0000
0020
0000
0000
0000
0230
0000
0301
0010
,  // measure 127
0001
1000
0010
0100
0001
0010
0100
1000
0100
0000
0000
0000
0011
0000
1000
0001
,  // measure 128
2000
3000
0000
0000
0010
0000
0000
0000
0001
0000
1000
0000
0001
0000
2000
3000
0001
0000
0200
0300
0010
0000
0100
0000
0000
0000
0001
0000
0010
0000
0000
0000
,  // measure 129
0100
0000
0000
0000
1100
0000
0000
0000
0000
0000
0000
0000
1010
0000
0000
0000
0001
0000
1000
0000
0002
0003
0000
0000
0100
0000
0000
0000
1000
0000
0001
0000
,  // measure 130
1000
0000
0002
0003
0200
0300
0000
0000
0001
0000
0000
0000
0100
0000
0000
0000
0010
0000
0000
0000
1000
0000
0000
0000
1002
0000
0000
0000
0000
0000
0000
0000
,  // measure 131
0013
0000
0000
0000
1000
0000
0000
0000
0010
0000
0000
0000
0100
0010
0100
0010
0100
0000
0000
0000
1000
0000
0000
0000
0001
0000
0000
0000
0100
0010
0100
0010
,  // measure 132
0100
0001
1000
0200
0010
1300
1001
0000
,  // measure 133
0201
0000
0000
0000
0310
0000
0000
1000
0000
0000
0010
0000
0100
0000
0000
0001
,  // measure 134
0010
0100
2000
0000
3002
0000
0103
0000
,  // measure 135
1010
0000
0100
0001
0100
0000
0010
0000
1000
0000
0100
1000
0000
0100
1000
0000
,  // measure 136
0010
1000
0000
0010
0100
0010
0000
0100
0001
0000
1000
0000
1001
0000
0000
0000
,  // measure 137
0011
0000
0100
1000
0100
0000
0010
0000
0001
0000
0100
0001
0000
0100
0001
0000
,  // measure 138
0020
0000
0130
1000
0100
0000
0010
0000
0001
0000
0100
0000
0120
0000
0000
0000
,  // measure 139
1030
0000
0000
0000
0001
0000
0000
0000
0010
0000
0000
0000
0100
0010
0100
0010
0100
0000
0000
0000
1000
0000
0000
0000
0001
0000
0000
0000
0100
0010
0100
0010
,  // measure 140
0100
0001
1000
0200
0310
0001
1001
0000
,  // measure 141
1020
0000
0000
0000
0130
0000
0000
0001
0000
0000
1000
0000
0100
0000
0000
0010
,  // measure 142
0001
0000
1000
0000
0010
1000
0001
0100
0001
1000
0100
0010
0002
0000
0000
0000
,  // measure 143
0000
0000
0000
0000
,  // measure 144
0000
0000
0000
2003
,  // measure 145
0000
0000
0000
0000
0000
0000
0000
0000
0000
0000
0000
0000
3010
0000
0000
0110
,  // measure 146
0000
0000
0001
0010
0200
0000
0000
0000
0000
0000
0310
0000
0220
0000
0000
0000
,  // measure 147
0000
0000
0000
0000
,  // measure 148
0000
0000
0000
0000
,  // measure 149
0000
0000
0000
0300
,  // measure 150
0000
2030
3200
0320
,  // measure 151
0000
0000
0000
0000
,  // measure 152
0000
0000
0000
0000
,  // measure 153
0000
0000
0000
0000
0000
0000
0000
0000
0000
0030
0000
0011
,  // measure 154
0000
0000
1100
0000
0000
0000
1001
0000
0000
0000
0000
0000
0000
0000
0000
0000
0000
0000
0010
0000
0000
0001
0000
0000
,  // measure 155
1000
0100
1000
0000
0010
0000
1000
0010
,  // measure 156
0100
0001
0100
0000
0010
0000
2000
0000
,  // measure 157
3200
0302
0023
0100
,  // measure 158
0000
0001
0002
0000
0033
0000
1000
0100
,  // measure 159
0001
0100
1000
0000
0001
0000
1000
0010
,  // measure 160
0001
0010
1000
0000
0001
0000
0200
0000
,  // measure 161
0320
2030
3002
0203
,  // measure 162
0000
0000
0320
0000
0000
1030
0001
0010
,  // measure 163
0200
0010
0000
0001
,  // measure 164
0000
2300
0000
3002
,  // measure 165
0000
0000
1003
0010
2000
0000
0000
0000
3001
0000
0010
0000
0100
0010
0100
0010
,  // measure 166
0001
1000
0001
1000
0200
0000
0000
0000
0000
0000
0000
0000
0310
0000
0000
0000
,  // measure 167
0001
0000
1000
0000
0100
0010
0100
0000
,  // measure 168
1000
0000
0001
0000
0100
0010
0100
0000
,  // measure 169
0010
0001
0010
1000
,  // measure 170
0001
0100
0010
1000
,  // measure 171
0100
0010
0002
0000
0000
0000
2000
0000
,  // measure 172
3003
1000
0010
0100
,  // measure 173
0001
0010
0200
0000
0000
0000
2300
0000
,  // measure 174
0000
3010
0100
0001
0010
0100
1001
0000
,  // measure 175
0001
1000
0010
0000
0001
0100
0010
0000
,  // measure 176
1000
0100
0010
0000
1000
0001
0020
0000
,  // measure 177
2030
3002
0203
2300
,  // measure 178
3020
0230
2300
3100
,  // measure 179
0001
1000
0020
0000
2000
0000
0000
0000
,  // measure 180
3030
1001
1100
0011
,  // measure 181
0010
0001
0200
0000
1300
0100
0002
0000
,  // measure 182
1003
0000
0010
0000
0100
0001
0100
0001
1000
0010
1000
0010
0200
0000
0000
0000
,  // measure 183
0301
0000
0001
0100
0002
0000
0000
0000
0013
0000
0110
0000
0200
0000
0000
0000
,  // measure 184
1300
0000
1000
0100
2000
0000
0000
0000
3001
0000
0101
0000
0200
0000
0000
0000
,  // measure 185
0310
0000
0010
0100
0020
0000
0000
0000
1030
0000
1001
0000
0002
0000
0000
0000
,  // measure 186
1003
0000
0100
0001
0200
0000
0000
0000
0310
0000
0110
0000
0200
0000
0000
0000
,  // measure 187
1300
0000
1000
0010
2000
0000
0000
0000
3010
0000
0110
0000
0200
0000
0000
0000
,  // measure 188
0301
0000
0001
0010
0002
0000
0000
0000
1003
0000
1010
0000
0020
0000
0000
0000
,  // measure 189
1030
0000
1000
0001
2000
0000
0000
0000
3100
0000
0110
0000
0010
0000
0001
0000
,  // measure 190
1000
0000
0001
0100
1000
0000
0001
0000
0010
0000
1000
0100
0002
0000
0000
0000
,  // measure 191
0103
0000
0010
0001
0020
0000
0000
0000
0130
0000
1001
0000
0020
0000
0000
0000
,  // measure 192
0031
0000
1000
0010
2000
0000
0000
0000
3001
0000
1010
0000
0200
0000
0000
0000
,  // measure 193
0301
0000
1000
0100
2000
0000
0000
0000
3010
0000
0110
0000
0102
0000
0000
0000
,  // measure 194
0013
0000
1010
1000
0200
0000
0310
0000
,  // measure 195
1001
0000
1000
0010
0200
0000
0000
0000
0301
0000
0001
0000
0010
0000
0000
0000
,  // measure 196
1001
0000
0001
0010
0200
0000
0000
0000
1300
0100
1000
0100
0020
0000
0000
0000
,  // measure 197
0000
0031
0102
0000
,  // measure 198
1003
0000
0000
0000
0000
0000
0001
0000
0000
0010
0000
0000
0100
0000
0000
0000
0000
0000
0000
0000
0011
0000
0000
0000
0000
0000
0000
0000
1100
0000
0000
0000
0000
0000
0000
0000
0020
0000
0000
0000
0000
0000
0000
0000
0000
0000
0000
0000
,  // measure 199
0000
0000
0000
0031
0000
0000
2200
0000
0000
3300
0000
1010
,  // measure 200
0000
0000
0000
0000
0101
0000
0000
0000
0000
0000
0000
0000
1010
0000
0000
0000
0010
0000
0000
0000
0100
0000
0000
0000
0001
0000
0000
0000
0010
0000
0000
0000
0100
0000
0000
0000
1000
0000
0000
0000
0000
0000
0000
0000
0000
0100
0000
0000
,  // measure 201
1000
0000
1000
0100
1000
0000
0000
0001
0100
0000
0100
0001
0100
0000
0000
0001
,  // measure 202
1000
0000
1000
0001
1000
0000
0000
0010
1000
0000
1000
0010
1000
0000
0000
0001
,  // measure 203
0010
0000
0001
0010
0001
0000
0000
0010
0100
0000
0010
0100
0010
0000
0000
0100
,  // measure 204
1000
0000
0100
1000
0100
0000
0000
1000
0001
0000
1000
0001
1000
0000
0000
0001
,  // measure 205
0100
0000
0010
0100
0010
0000
0000
1000
0001
0000
1000
0100
1000
0000
0000
0001
,  // measure 206
0010
0000
0001
0100
0001
0000
0000
1000
0010
0000
1000
0100
1000
0000
0000
0010
,  // measure 207
0100
0000
0001
0010
0001
0000
0000
1000
0010
0000
0100
0010
0200
0000
0000
0000
,  // measure 208
0000
0000
0000
0000
0302
0000
0000
0000
0003
0000
0000
0000
1001
0000
1000
0010
,  // measure 209
1000
0000
0010
0100
0010
0000
1000
0001
1000
0000
0001
0100
0010
0000
1000
0100
,  // measure 210
1000
0000
0001
0010
0001
0000
0100
0010
0100
0000
0001
0010
0100
0000
1000
0100
,  // measure 211
1000
0000
0001
1000
0001
0000
0010
0100
0010
0000
0001
0100
0010
0000
1000
0010
,  // measure 212
0100
0000
0001
0100
0002
0000
0000
0000
0023
0000
0000
0000
0130
0000
0000
1100
,  // measure 213
0000
0000
0001
0100
0010
0000
0000
0101
0000
0000
1000
0100
0010
0000
0000
1100
,  // measure 214
0000
0000
1000
0010
0100
0000
0000
1010
0000
0000
0001
0010
0100
1000
0001
0100
,  // measure 215
0010
1000
0001
0010
0100
1000
0001
0100
0010
1000
0100
0010
0001
1000
0001
1000
,  // measure 216
0001
0100
0010
1000
0100
1000
0100
0010
0001
1000
0010
0100
0002
0000
0000
0000
,  // measure 217
0103
0010
1000
0010
1000
0000
0001
0000
0010
0000
0100
0010
0001
0000
1000
0000
,  // measure 218
1100
0000
0001
0000
0011
0000
0000
0000
1000
0001
0100
0010
2000
0000
0000
0000
,  // measure 219
3010
0100
0010
0100
0001
0000
0010
0000
0110
0000
0100
1000
0001
0000
0100
0000
,  // measure 220
0101
0000
0010
0000
1010
0000
0000
0000
0001
1000
0001
1000
0100
0000
0100
0000
,  // measure 221
0100
0010
0001
0010
0001
0000
1000
0000
0010
0000
0100
0010
1000
0000
0001
0000
,  // measure 222
0101
0000
1000
0000
1010
0000
0000
0000
0001
0010
0100
1000
0002
0000
0000
0000
,  // measure 223
0013
0100
1000
0001
0020
0000
0000
0000
0130
1000
0001
0010
0200
0000
1300
0010
,  // measure 224
0100
0000
0001
0010
0000
0001
0100
0000
0001
1000
0000
1000
0200
0000
0000
0000
,  // measure 225
0310
0100
0010
0100
1000
0000
0001
0000
0100
0010
1000
0010
0100
0000
0001
0000
,  // measure 226
0011
1000
1100
0001
0101
1000
0020
0000
,  // measure 227
0130
0001
0100
0001
1000
0000
0100
0000
0010
0001
1000
0001
0010
0000
0001
0000
,  // measure 228
0101
0000
0101
0000
0110
0000
0000
1001
0000
0000
1100
0000
0110
0000
0010
0000
,  // measure 229
0001
0010
0001
0010
0100
0000
1000
0000
0010
0100
0001
0100
0010
0000
0100
0000
,  // measure 230
0101
0000
0010
0000
1010
0000
1000
0001
0000
1000
0001
1000
0020
0000
0000
0000
,  // measure 231
0130
0001
1000
0010
0200
0000
0000
0000
0301
1000
0010
0100
0001
0000
0101
0000
,  // measure 232
1000
0000
1100
0000
0010
0000
0001
0000
0010
0100
0010
0001
2000
0000
0000
0000
,  // measure 233
3010
0000
0001
0100
0001
0000
0100
0010
0100
0000
0010
1000
0010
0000
1000
0001
,  // measure 234
1000
0000
0100
0010
0100
0000
1000
0010
1000
0000
0100
1000
0200
0000
0000
0000
,  // measure 235
0310
0000
1000
0100
1000
0000
0001
0010
0001
0000
1000
0100
1000
0001
0000
0100
,  // measure 236
0010
0000
1000
0010
0200
0000
0001
0000
0310
0000
0000
0000
1001
0000
0000
0000
,  // measure 237
0110
0000
0000
0000
0100
0000
0010
0000
0100
0010
0100
0010
0100
0000
0010
0000
0100
0000
0010
0000
0000
0000
0100
0000
0010
0000
0000
0000
1000
0000
0100
0000
,  // measure 238
0010
0000
0000
0101
0000
0000
0010
0000
1000
0000
0100
0000
0110
0000
0000
0000
,  // measure 239
0010
0001
1000
0000
0010
1000
0000
0100
1000
0100
1000
0000
0001
0100
0000
0010
,  // measure 240
0100
0000
0000
1010
0000
0000
0101
0000
0000
0010
0100
0010
1000
0000
0100
0000
,  // measure 241
0020
0000
0031
0100
0010
0000
1000
0100
0010
0000
0001
0100
0010
0000
1000
0001
,  // measure 242
0010
0000
0001
1000
0010
0000
0100
0001
0010
0000
0100
0000
2000
0000
0100
0000
,  // measure 243
3001
0000
0010
0001
0100
0000
0010
1000
0100
0000
0010
0001
0100
0001
0000
0010
,  // measure 244
0100
0000
1000
0010
1000
0000
0010
0000
0001
0000
0020
0000
1030
0000
0000
0000
,  // measure 245
1002
0000
0013
0000
0000
1100
0000
0000
0001
0000
0101
0000
0100
0000
0000
0010
,  // measure 246
1000
0000
0001
0000
1000
0100
0000
0010
0001
1000
0010
0100
0001
0000
0100
0000
,  // measure 247
0020
0000
1030
0000
0001
0010
0000
0001
0100
0000
0001
0010
0000
0010
1000
0000
,  // measure 248
0100
1000
0000
0010
2000
0000
0000
0000
0000
0000
0000
0000
3010
0000
0000
0101
,  // measure 249
0000
0100
0010
0000
1010
0000
0000
0000
MMMM
0000
0000
0000
0110
0000
0000
0011
,  // measure 250
0000
0010
0100
0000
0010
0100
0000
0000
1000
0000
0001
0000
0101
0000
0000
0110
,  // measure 251
0000
1000
0010
0000
0110
0000
0000
0000
MMMM
0000
0000
0000
1001
0000
0000
1100
,  // measure 252
0000
0100
0010
0000
0100
0010
0000
0000
0001
0000
1000
0000
1010
0000
0000
0011
,  // measure 253
0000
0010
0100
0000
1100
0000
0000
0000
MMMM
0000
0000
0000
0101
0000
0000
1100
,  // measure 254
0000
0100
0010
0000
0100
0010
0000
0000
0001
0000
1000
0000
1010
0000
0000
0101
,  // measure 255
0000
0100
0010
1000
0010
0000
0000
1001
0000
0100
0010
0100
0001
0010
0100
1000
,  // measure 256
0001
0010
0100
1000
0010
0100
0001
0010
0200
0000
0300
0000
2100
0000
0000
0000
,  // measure 257
3010
1000
0010
0100
0001
0000
0001
0000
0100
0000
0001
0000
0011
0000
0001
0000
,  // measure 258
0100
0001
0011
0010
0100
1000
1020
0000
,  // measure 259
0032
0000
0000
0000
1003
0000
0100
0010
1000
0010
0100
0010
1000
0001
0100
0001
,  // measure 260
1000
0001
0100
0001
1000
0100
0010
0001
0010
0100
1000
0001
1000
0000
0000
0000
,  // measure 261
1000
0100
0010
0001
1000
0000
1000
0000
0100
0000
1000
0000
1010
0000
1000
0000
,  // measure 262
0100
1000
1010
0010
0100
0001
0012
0000
,  // measure 263
0023
0000
0000
0000
1030
0000
0010
0100
0010
0001
0010
0100
0010
0001
1000
0001
,  // measure 264
0010
0001
1000
0001
0020
0000
0031
1000
0010
1000
0010
0100
0002
0000
0000
0000
,  // measure 265
1003
0000
0100
1000
0200
0000
0000
0000
0310
0000
0010
0000
0020
0000
0001
0000
,  // measure 266
0031
0000
1001
0000
0010
1000
0200
0000
,  // measure 267
0310
0000
0001
0010
0002
0000
0000
0000
0103
0000
0010
0000
2000
0000
0001
0000
,  // measure 268
3001
0000
0010
0000
0210
0000
0000
0000
2300
0000
0000
0000
3010
0100
0001
0100
,  // measure 269
0010
1000
0010
1000
0001
0100
0001
0100
0010
1000
0001
1000
0100
0010
0100
0010
,  // measure 270
0001
1000
0100
0010
0001
1000
0010
1000
0010
0100
0001
1000
0100
1000
0100
0010
,  // measure 271
0001
1000
0010
0100
0001
1000
0100
0010
0001
1000
0010
0100
0001
0010
0001
0010
,  // measure 272
0001
0010
0100
1000
0001
0100
0010
1000
0001
0010
0100
1000
0010
0000
0100
0000
,  // measure 273
0001
0010
0001
0000
1000
0010
1000
0000
0100
0000
0010
0000
0001
1000
0001
0000
,  // measure 274
0010
0001
0010
0000
0100
1000
0100
0000
1000
0000
0010
0000
0100
0001
0100
0000
,  // measure 275
0001
1000
0001
0000
0010
0001
0010
0000
0100
0010
0100
0000
1000
0001
0010
0000
,  // measure 276
0001
1000
0010
0000
0100
0001
1000
0000
0100
0010
0001
0000
1000
0000
0010
0100
,  // measure 277
0010
0000
1000
0000
0100
0000
0010
0001
0010
0100
1000
0100
1000
0001
0100
0001
,  // measure 278
0100
0001
1000
0001
1000
0010
0100
0000
0010
0100
0001
0000
0010
0000
0100
1000
,  // measure 279
0001
0000
0100
0001
1000
0000
0100
0000
0010
0000
0001
0100
0010
0000
1000
0200
,  // measure 280
0000
0000
0300
0000
0011
0000
0001
0000
1010
0000
1000
0010
0100
0000
0100
0000
,  // measure 281
0100
0001
0100
0000
0010
1000
0010
0000
1000
0001
1000
0001
0010
0100
1000
0000
,  // measure 282
0100
0010
0001
0000
1000
0010
0100
0000
0001
0100
0010
1000
0010
1000
0001
0000
,  // measure 283
0010
0100
1000
0000
0001
0010
0001
0000
0010
0100
1000
0001
1000
0001
0100
0010
,  // measure 284
1000
0100
0010
0001
1000
0100
0010
0001
1000
0010
1000
0001
0100
0000
0100
0000
,  // measure 285
0100
0000
0001
0010
0100
0000
0010
0100
0010
0100
1000
0001
1000
0000
0010
0100
,  // measure 286
0010
0100
0001
1000
0001
1000
0010
0000
1000
0001
0010
0001
0020
0000
0000
0000
,  // measure 287
0130
1100
2000
0000
3001
0101
0100
1010
,  // measure 288
0000
0110
0000
0000
0011
0000
0000
0110
0000
0000
1001
0000
2000
0000
0000
0000
,  // measure 289
3010
0000
0100
0000
0001
1000
0001
1000
0001
0000
0010
0000
0100
1000
0100
1000
,  // measure 290
0100
0000
0010
0000
0001
0100
0001
0100
0001
0000
1000
0000
0100
0010
0001
0000
,  // measure 291
1000
0010
1000
0000
0001
0010
0100
0000
1000
0010
1000
0000
0001
0100
0010
0000
,  // measure 292
1000
0100
1000
0000
0001
0010
0100
0000
1000
0100
1000
0100
0010
0001
1000
0001
,  // measure 293
0020
0000
0000
0000
0031
0100
0010
0100
0002
0000
0000
0000
1003
0010
0100
0010
,  // measure 294
2000
0000
0000
0000
3100
1000
0001
1000
0100
0000
0010
0000
0002
0000
0000
0000
,  // measure 295
0103
0001
0010
0001
0200
0000
0000
0000
0310
1000
0100
1000
0020
0000
0000
0000
,  // measure 296
0130
0001
1000
0100
0010
0000
0001
0000
1000
0000
0100
0000
0010
0000
0100
0000
,  // measure 297
1000
0001
1000
0001
1000
0000
0010
0000
0100
0001
0100
0001
0100
0000
0010
0000
,  // measure 298
1000
0100
1000
0100
1000
0000
0001
0000
0100
0010
1000
0000
0001
0010
0001
0000
,  // measure 299
1000
0010
0100
0000
0001
0010
0001
0000
1000
0100
0010
0000
0001
0100
0001
0000
,  // measure 300
1000
0010
0100
0000
0001
0100
0001
0100
0010
1000
0001
1000
0010
0100
0001
0010
,  // measure 301
0200
0000
0000
0000
0310
0100
1000
0010
0200
0000
0000
0000
0301
0100
0010
1000
,  // measure 302
0200
0000
0320
0000
0031
1000
0010
0100
0002
0000
0000
0000
1003
0000
0010
1000
,  // measure 303
0100
0000
0010
0001
0100
0000
0010
1000
0100
0000
0010
0001
0100
0000
0000
1010
,  // measure 304
0000
0000
0011
0000
0010
0100
0010
0100
1000
0001
1000
0010
0200
0000
0000
0000
,  // measure 305
1300
0000
0000
0000
0100
0001
1000
0010
0100
0001
1000
0010
0100
0001
0010
0100
,  // measure 306
1000
1001
1001
0110
,  // measure 307
0101
0000
0001
0010
0001
0000
0100
0001
0000
0100
2000
0000
0000
0000
3100
0000
,  // measure 308
0110
1001
1010
0011
,  // measure 309
0011
0000
0100
0000
0010
0100
1000
0001
0010
0100
1000
0001
0010
0001
1000
0010
,  // measure 310
0100
0000
0000
0000
1001
0000
0000
0000
1001
0000
0000
0000
0110
0000
0000
0101
,  // measure 311
0000
1000
0100
0000
0020
0000
0001
0000
0200
0000
0330
0000
0000
0000
1100
0000
,  // measure 312
0000
0110
0000
0000
1100
0000
1000
0010
1000
0010
0100
0001
0020
0000
0000
0000
,  // measure 313
1030
0000
0010
0000
0002
0000
0000
0000
1003
0000
0010
0000
0100
0010
1000
0001
,  // measure 314
0100
0000
1001
0000
1001
0100
0011
0000
,  // measure 315
1000
0000
0001
0000
0010
1000
0000
0010
0002
0000
0000
0000
0103
0000
1010
0000
,  // measure 316
0002
0000
0000
0000
0023
0000
0000
0000
0130
1000
0100
1000
0002
0000
0000
0000
,  // measure 317
0103
0100
0200
0000
0310
0010
0020
0000
,  // measure 318
1030
0000
1000
0000
0001
0010
0100
1000
0010
0100
0001
0010
0200
0000
0000
0000
,  // measure 319
0000
0301
2100
0000
,  // measure 320
3020
0000
0000
0130
0000
1010
0000
0011
0000
0200
0000
0000
,  // measure 321
0000
0000
0000
0301
0000
0000
2200
0000
0000
3300
0000
1010
,  // measure 322
0000
0000
0000
0000
0101
0000
0000
0000
0000
0000
0000
0000
1001
0000
0000
0000
0000
0000
0000
0000
0000
0000
0000
0000
0110
0000
0000
0000
0000
0000
0000
0000
0000
0000
0000
0000
1001
0000
0000
0000
0000
0000
0000
0000
0000
1100
0000
0000
,  // measure 323
0000
0100
0010
0000
0011
0000
0000
0000
MMMM
0000
0000
0000
0110
0000
0000
1010
,  // measure 324
0000
0010
0100
0000
0010
0100
0000
0000
1001
0000
0010
0000
1100
0000
0000
0110
,  // measure 325
0000
0001
0010
0000
0110
0000
0000
0000
MMMM
0000
0000
0000
1001
0000
0000
0101
,  // measure 326
0000
0100
0010
0000
0100
0010
0000
0000
1001
0000
0100
0000
0011
0000
0000
1010
,  // measure 327
0000
0010
0100
0000
0101
0000
0000
0000
MMMM
0000
0000
0000
1100
0000
0000
0101
,  // measure 328
0000
0100
0010
0000
0100
0010
0000
0000
1001
0000
0100
0000
0011
0000
0000
1100
,  // measure 329
0000
0100
0010
0001
0010
0000
0000
1001
0000
0100
0010
0100
1000
0010
0100
0001
,  // measure 330
1000
0010
0100
0001
0010
0100
1000
0001
0010
0100
1000
0010
0100
0001
0010
0001
,  // measure 331
1000
0001
0100
0010
1000
0100
0010
0001
0200
0000
0300
0000
0110
0000
0000
0000
,  // measure 332
1000
0000
0001
0000
0010
0100
1000
0100
,  // measure 333
0110
0000
1001
0000
0010
0100
1000
0000
,  // measure 334
0010
0100
0110
0010
0100
0000
0001
1000
,  // measure 335
0100
0000
0110
0000
1000
0010
0110
0000
,  // measure 336
0001
0000
1000
0000
0010
0100
0001
0100
,  // measure 337
0110
0000
1001
0000
0010
0100
0001
0000
,  // measure 338
0010
0100
0110
0010
0100
0000
1000
0001
,  // measure 339
0100
0000
0110
0000
0001
0010
0200
0000
,  // measure 340
1300
0100
1000
0100
0000
1000
0001
0000
,  // measure 341
0001
0001
0100
0001
0010
0100
1000
0000
,  // measure 342
0001
0100
0001
0100
0000
0001
1000
0000
,  // measure 343
1000
1000
0100
1000
0001
0000
0100
0000
,  // measure 344
0010
0010
0000
1000
0001
1000
0001
0000
,  // measure 345
0010
0100
0010
0001
1000
0010
0200
0000
,  // measure 346
1300
0100
0002
0000
1003
0010
0002
0000
,  // measure 347
2003
0000
3100
0010
0100
0001
2000
0000
,  // measure 348
0100
0100
0000
0001
0000
0100
0100
0000
,  // measure 349
0001
3001
0000
1000
0010
0100
0002
0000
,  // measure 350
1000
1000
0000
0100
0000
1000
1000
0000
,  // measure 351
0100
0103
0000
0001
0100
0000
0020
0000
,  // measure 352
1000
1000
0000
0100
0000
1000
1000
0000
,  // measure 353
0100
0130
0000
1000
0100
0010
0002
0000
,  // measure 354
0103
0010
2000
0000
3100
0010
0002
0000
,  // measure 355
0103
0010
2000
0000
0002
0000
0000
0000
,  // measure 356
0000
0000
0000
0000
,  // measure 357
0000
0000
3003
0000
;
