#TITLE:Life Without You;
#SUBTITLE:;
#ARTIST:BEMANI Sound Team "Sota Fujimori";
#TITLETRANSLIT:;
#SUBTITLETRANSLIT:;
#ARTISTTRANSLIT:;
#GENRE:;
#CREDIT:;
#BANNER:;
#BACKGROUND:Life Without You-bg.png;
#LYRICSPATH:;
#CDTITLE:;
#MUSIC:Life Without You.ogg;
#OFFSET:0.105000;
#SAMPLESTART:14.295000;
#SAMPLELENGTH:10.000000;
#SELECTABLE:YES;
#BPMS:0.000000=150.000000
;
#STOPS:
;
#BGCHANGES:;
#KEYSOUNDS:;
#ATTACKS:;

//---------------dance-single - ----------------
#NOTES:
     dance-single:
     :
     Hard:
     11:
     0.452824,0.485915,0.174163,0.444115,0.030479,364.000000,344.000000,20.000000,51.000000,0.000000,0.000000,0.452824,0.485915,0.174163,0.444115,0.030479,364.000000,344.000000,20.000000,51.000000,0.000000,0.000000:
// measure 0
0000
0000
0000
0000
,  // measure 1
0000
0000
0000
0000
,  // measure 2
0000
0000
0000
0000
,  // measure 3
0000
0000
0000
0000
,  // measure 4
0000
0000
0000
0000
0000
0000
0000
1000
,  // measure 5
0010
0100
0010
1000
0001
0000
0000
1000
,  // measure 6
0001
0100
0010
1000
0100
0000
0000
0200
,  // measure 7
0000
0000
1300
0000
0001
0000
0010
0000
0001
0000
0000
1000
0000
0000
0200
0000
,  // measure 8
0000
0300
1000
0001
0100
0001
0010
0000
,  // measure 9
0110
0000
1001
0000
0001
0010
0100
1000
,  // measure 10
0010
0000
0110
0000
1000
0010
0100
0001
,  // measure 11
0010
0110
2000
3001
,  // measure 12
0020
0000
0130
1000
0001
1000
0010
0000
,  // measure 13
0200
0000
0300
0000
0010
0100
0010
1000
,  // measure 14
0002
0000
0003
0000
0100
0010
1000
0100
,  // measure 15
0020
0030
0011
1100
,  // measure 16
0001
0100
2020
3030
,  // measure 17
2002
0000
3003
0000
0001
0100
0010
0100
,  // measure 18
0002
0000
0013
0000
1000
0100
0010
0100
,  // measure 19
2000
3010
0002
1003
,  // measure 20
0020
0000
0130
0001
1000
0001
0010
0000
,  // measure 21
0200
0000
0300
0000
0010
0100
0010
0001
,  // measure 22
2000
0000
3000
0000
0100
0010
0001
0100
,  // measure 23
0020
0000
1030
0000
0001
1000
0100
0010
,  // measure 24
0002
0000
2003
0000
3020
0000
0130
0100
,  // measure 25
0001
0000
1000
0000
0010
0000
1000
0100
,  // measure 26
1000
0000
0001
0000
0010
0000
0001
0100
,  // measure 27
0001
0000
0100
0000
0010
0000
1000
0100
,  // measure 28
1000
0000
0000
0001
1000
0000
0000
0000
0100
0000
0000
0001
1000
0000
0000
0000
,  // measure 29
0100
0000
0010
0000
0001
0000
1000
0010
,  // measure 30
1000
0000
0100
0000
0010
0000
0001
0100
,  // measure 31
0001
0000
0010
0000
0100
0000
1000
0010
,  // measure 32
1000
0000
0000
0001
1000
0000
0000
0000
0010
0000
0000
0001
1000
0000
0000
0000
,  // measure 33
0100
0010
0001
0000
0010
0100
1000
0001
,  // measure 34
2000
0000
0000
3020
0000
0000
0200
0000
0000
0000
0000
0000
0330
0000
0000
0000
,  // measure 35
0010
0100
0001
1000
0001
0100
0020
0000
,  // measure 36
1030
0001
0100
0010
1000
0100
2000
0000
,  // measure 37
3001
0100
0010
0100
0001
0000
1000
0010
,  // measure 38
0100
0010
1000
0001
2000
0000
3200
0000
,  // measure 39
0310
0100
1000
0001
1000
0100
0020
0000
,  // measure 40
0031
1000
0100
0010
0001
0100
0002
0000
,  // measure 41
0103
0000
0001
0010
0001
1000
0100
0000
,  // measure 42
0010
0001
1000
0100
0001
0100
1000
0100
,  // measure 43
1000
0010
0100
0010
0000
0001
0010
0100
,  // measure 44
0010
0000
1000
0000
0001
0000
0000
0000
1000
0000
0000
0010
0000
0000
1001
0000
,  // measure 45
0000
0001
0010
0100
0010
0001
1000
0000
,  // measure 46
0100
1000
0010
0000
0010
0100
0010
0100
,  // measure 47
0001
0000
1000
0100
0100
0000
0001
0010
,  // measure 48
0020
0000
0000
0000
0031
1000
0010
0100
,  // measure 49
0000
0000
0000
0110
,  // measure 50
1001
0000
0101
0000
1000
0010
0100
0001
,  // measure 51
0010
0000
1100
0000
0001
0010
0100
1000
,  // measure 52
0010
0000
0101
0000
1000
0010
0100
0001
,  // measure 53
0000
0001
0100
1000
0200
0000
0301
0000
,  // measure 54
0020
0000
0030
0000
0100
0010
0100
1000
,  // measure 55
0002
0000
0003
0000
0010
0100
1000
0010
,  // measure 56
0200
0300
0101
1010
,  // measure 57
0001
0010
2200
3300
,  // measure 58
2002
0000
3003
0000
1000
0100
1000
0001
,  // measure 59
0020
0000
0130
0000
0001
0100
0001
1000
,  // measure 60
0020
0000
0130
0000
0001
0010
0100
0000
,  // measure 61
0001
1000
0100
1000
0001
1000
0010
0000
,  // measure 62
0020
0000
0030
0000
0100
0010
0100
0001
,  // measure 63
2000
0000
3000
0000
0010
0100
0001
0010
,  // measure 64
0200
0000
1300
0000
0001
1000
0010
0100
,  // measure 65
0002
2003
3200
0310
,  // measure 66
0011
0001
0100
0010
0000
1000
0010
0100
,  // measure 67
0000
0001
0010
0100
0000
2000
0000
0002
,  // measure 68
0000
0000
0000
3003
,  // measure 69
2002
0000
0000
3003
;

//---------------dance-single - ----------------
#NOTES:
     dance-single:
     :
     Challenge:
     14:
     0.644403,0.941459,0.322201,0.348326,0.387513,518.000000,481.000000,37.000000,40.000000,0.000000,0.000000,0.644403,0.941459,0.322201,0.348326,0.387513,518.000000,481.000000,37.000000,40.000000,0.000000,0.000000:
// measure 0
0000
0000
0000
0000
,  // measure 1
0000
0000
0000
0000
,  // measure 2
0000
0000
0000
0000
,  // measure 3
0000
0000
0000
0000
,  // measure 4
0000
0000
0000
0000
0000
0000
0000
0000
0000
0000
0000
0000
0000
0000
0000
0000
0000
0000
0000
0000
0000
0001
0000
1000
,  // measure 5
0010
0000
0000
0010
0000
1000
0001
0000
1000
0001
0000
0000
0200
0000
0000
0000
0000
0000
0301
0000
0000
1000
0000
0001
,  // measure 6
0010
0000
0000
0010
0000
0100
1000
0000
0100
1000
0000
0000
0200
0000
0000
0000
0000
0000
0310
0000
0000
0002
0000
0000
,  // measure 7
0000
0000
0000
0000
0000
0000
1003
0000
0000
0000
0010
0000
1000
0000
0000
0000
0010
0000
0100
0000
0000
0000
0000
0000
0001
0000
0000
0000
0000
0000
0000
0000
0000
1000
0000
0000
0000
0000
0000
0000
0000
0000
0200
0000
0000
0000
0000
0000
,  // measure 8
0000
0000
0000
0310
0000
0000
0001
0000
0000
0010
0000
0000
0100
0000
0100
1000
0000
1000
0020
0000
0000
0030
0000
0000
,  // measure 9
1000
0001
0100
0000
1000
0010
0100
0010
,  // measure 10
1000
0001
0010
0000
1000
0100
0010
0001
,  // measure 11
0100
0000
0000
0010
0000
0000
0100
0000
0000
0000
0000
0000
0002
0000
0000
0000
0000
0000
1003
0000
0000
0000
0010
0000
,  // measure 12
0000
0000
0000
0100
0000
0001
1000
0000
0000
0010
0000
1000
0001
0000
0000
0100
0000
0000
0010
0000
0000
0000
0000
0000
,  // measure 13
1001
1000
0100
0000
0001
0010
0100
0010
,  // measure 14
0001
1000
0010
0000
0001
0100
0010
1000
,  // measure 15
0100
0010
0000
0100
1000
0100
0010
0001
,  // measure 16
0200
0000
0320
0000
2030
0000
3001
1000
,  // measure 17
2002
0000
3003
0000
1000
0001
0010
0001
,  // measure 18
0100
0010
1010
0000
0001
1000
0010
1000
,  // measure 19
0100
0000
0000
0010
0000
0000
0110
0000
0000
0000
0000
0000
2000
0000
0000
0000
0000
0000
3001
0000
0000
0000
0010
0000
,  // measure 20
0000
0000
0000
0100
0000
1000
0001
0000
0000
0010
0000
0001
1000
0000
0000
0100
0000
0000
0010
0000
0000
0000
0000
0000
,  // measure 21
1001
0000
0101
0000
0001
1000
0100
1000
,  // measure 22
0001
0010
1100
0000
1000
0001
0100
0001
,  // measure 23
1000
0010
0110
0100
0001
0010
0001
0100
,  // measure 24
0020
0000
2030
0000
3002
0000
0103
0100
,  // measure 25
0010
0000
0000
0010
1000
0000
0000
0000
1000
0000
0001
0000
1000
0000
0100
0000
,  // measure 26
0010
0000
0000
0010
0001
0000
0000
0000
0001
0000
1000
0000
0001
0000
0100
0000
,  // measure 27
0010
0000
0000
0010
0100
0000
0000
0000
0100
0000
0001
0000
0010
0000
0001
0000
,  // measure 28
0101
0000
0000
1000
0001
0000
0000
0000
0101
0000
0000
1000
0001
0000
0000
0000
,  // measure 29
0010
0000
0000
0010
0100
0000
0000
0100
1000
0000
1000
0000
0001
0000
1000
0000
,  // measure 30
0010
0000
0000
0010
0100
0000
0000
0100
0001
0000
0001
0000
1000
0000
0001
0000
,  // measure 31
0010
0000
0000
0010
0001
0000
0000
0001
0100
0000
0100
0000
0010
0000
1000
0000
,  // measure 32
1100
0000
0000
0001
1000
0000
0000
0000
1100
0000
0000
0001
1000
0000
0000
0000
,  // measure 33
0100
0000
0000
0010
0000
0010
0001
0000
0000
0010
0000
0000
0100
0000
0000
1000
0000
0000
0001
0000
0000
0100
0000
0000
,  // measure 34
0020
0000
0000
2030
0000
0000
0002
0000
0000
0000
0000
0000
3003
0000
0001
0000
,  // measure 35
0010
0000
0000
0001
0000
0000
0100
0000
0000
0010
0000
0000
1000
0000
0010
1000
0000
0000
0002
0000
0000
0000
0000
0000
,  // measure 36
0013
0000
0000
0001
0000
0000
0100
0000
0000
0010
0000
0000
1000
0000
0010
1000
0000
0000
0200
0000
0000
0000
0000
0000
,  // measure 37
0310
1000
0010
0001
2000
0000
3100
1000
,  // measure 38
0001
0000
0000
0010
0000
0000
0001
0000
0001
1000
0000
0000
0020
0000
0000
0000
0000
0000
0130
0000
0000
0001
0000
1000
,  // measure 39
0100
0000
0000
1000
0000
0000
0010
0000
0000
0100
0000
0000
0001
0000
0100
0001
0000
0000
2000
0000
0000
0000
0000
0000
,  // measure 40
3100
0000
0000
1000
0000
0000
0010
0000
0000
0100
0000
0000
0001
0000
0100
0001
0000
0000
0200
0000
0000
0000
0000
0000
,  // measure 41
0310
0000
0000
0000
0000
0000
0010
0000
1000
0001
0000
1000
0010
0000
1000
0001
0000
0010
0001
0000
0010
0100
0000
0000
,  // measure 42
1000
0000
0100
1000
0000
0100
1000
0000
0000
0001
0000
0100
0010
0000
0100
0010
0000
1000
0010
0000
0000
0100
0000
0001
,  // measure 43
0000
0000
0010
0100
0000
0100
1000
0000
0001
0100
0000
0100
0000
0000
0010
0100
0000
0100
0001
0000
0000
1000
0000
0000
,  // measure 44
0010
0000
0000
0000
0100
0000
0001
0000
0000
0000
1000
0000
0001
0000
0000
0000
1000
0000
0100
0000
0000
0000
0000
0000
1100
0000
0000
0000
0000
0000
0000
0000
0000
0011
0000
0000
0000
0000
0000
0000
0000
0000
1001
0000
0000
0000
0000
0000
,  // measure 45
0001
0000
0100
0001
0000
0010
0001
0000
0010
0001
0000
0000
1000
0000
0010
1000
0000
0010
0000
0000
1000
0000
0000
0100
,  // measure 46
1000
0100
1000
0100
0000
0000
0010
0100
0010
0100
0000
1000
0100
0000
0000
0110
0000
0000
0011
0000
0000
1001
0000
0000
,  // measure 47
0201
0000
0000
0000
0000
0000
0310
0000
0010
1000
0000
0010
2000
0000
0000
0000
0000
0000
3001
0000
0001
0010
0000
0001
,  // measure 48
0010
0000
0000
0000
0000
0000
0200
0000
0000
0000
0000
0000
1300
0000
1000
0001
0000
0100
0001
0000
0100
0001
0000
0100
,  // measure 49
0020
0000
0030
0110
,  // measure 50
1001
0001
0010
0000
0001
1000
0010
0100
,  // measure 51
0001
0010
0100
0000
0001
1000
0100
1000
,  // measure 52
0010
0000
0000
0000
0000
0000
0100
0000
0000
0000
0000
0000
0010
0000
0000
0000
0000
0000
0000
0000
1000
0000
0000
0000
0000
0000
0000
0000
0001
0000
0100
0000
0000
0000
0000
0000
0010
0000
0000
0000
0000
0000
1000
0000
0000
0001
0000
0000
,  // measure 53
1000
0000
0000
0100
0000
1000
0100
0000
0000
0100
0000
1000
0200
0000
0000
0000
0000
0000
0310
0000
0000
0000
0000
0000
,  // measure 54
1001
1000
0010
0000
1000
0001
0010
0100
,  // measure 55
1000
0010
0100
0000
1000
0001
0100
0001
,  // measure 56
0010
0100
0000
1000
0001
0010
1000
0010
,  // measure 57
0002
0000
2003
0000
3020
0000
0130
0010
,  // measure 58
0110
0000
1001
0000
0001
1000
0100
0010
,  // measure 59
0001
0100
1001
0000
1000
0001
0100
0010
,  // measure 60
1000
0000
0000
0000
0000
0000
0100
0000
0000
0000
0000
0000
0010
0000
0000
0000
0000
0000
0000
0000
0001
0000
0000
0000
0000
0000
0000
0000
1000
0000
0100
0000
0000
0000
0000
0000
0010
0000
0000
0000
0000
0000
0001
0000
0000
1000
0000
0000
,  // measure 61
0001
0000
0000
0100
0000
0001
0100
0000
0000
0100
0000
0001
0200
0000
0000
0000
0000
0000
0310
0000
0000
0000
0000
0000
,  // measure 62
1001
0000
1100
0000
1000
0001
0100
0010
,  // measure 63
1000
0100
1001
0000
0001
1000
0100
0010
,  // measure 64
0001
0100
0000
0010
0001
0010
1000
0001
,  // measure 65
0200
0320
2030
3001
,  // measure 66
0101
0100
0010
1010
0000
1100
0100
0110
,  // measure 67
0000
0011
0001
0101
0000
0110
0000
2002
,  // measure 68
0000
0000
0000
3003
,  // measure 69
2002
0000
0000
3003
;

//---------------dance-single - ----------------
#NOTES:
     dance-single:
     :
     Medium:
     9:
     0.340862,0.394806,0.165455,0.235120,0.004354,274.000000,255.000000,19.000000,27.000000,0.000000,0.000000,0.340862,0.394806,0.165455,0.235120,0.004354,274.000000,255.000000,19.000000,27.000000,0.000000,0.000000:
// measure 0
0000
0000
0000
0000
,  // measure 1
0000
0000
0000
0000
,  // measure 2
0000
0000
0000
0000
,  // measure 3
0000
0000
0000
0000
,  // measure 4
0000
0000
0000
0000
0000
0000
0000
0001
,  // measure 5
0100
0000
0100
0001
1000
0000
0000
1000
,  // measure 6
0100
0000
1000
0001
0010
0000
0000
0001
,  // measure 7
0000
0000
0001
0000
0100
0000
0000
0000
0010
0000
0000
1000
0000
0000
0002
0000
,  // measure 8
0000
0003
0000
1000
0100
0000
0010
0000
,  // measure 9
0100
0000
1000
0000
0001
0100
0010
0000
,  // measure 10
1000
0000
0100
0000
0001
0010
0100
0000
,  // measure 11
1000
0010
0200
0310
,  // measure 12
0002
1003
0020
0130
,  // measure 13
0010
1000
0100
1001
,  // measure 14
0002
0103
2000
3100
,  // measure 15
0001
1000
0100
0001
,  // measure 16
1000
0010
0200
0300
,  // measure 17
2002
0000
3003
0000
0001
0100
0001
0000
,  // measure 18
0010
0000
1000
0000
0100
1000
0100
0000
,  // measure 19
0010
0001
2000
3001
,  // measure 20
0020
0130
0002
1003
,  // measure 21
0010
0000
0100
1001
,  // measure 22
2000
3100
0002
0103
,  // measure 23
1000
0001
0100
1000
,  // measure 24
0001
0010
0200
0300
,  // measure 25
0001
0010
0100
0000
,  // measure 26
1000
0010
0100
0000
,  // measure 27
0001
0010
0100
0000
,  // measure 28
0010
1001
0100
1001
,  // measure 29
0100
1000
0010
0000
,  // measure 30
0100
0001
0010
0000
,  // measure 31
0100
1000
0001
0000
,  // measure 32
0010
1001
0100
1001
,  // measure 33
0010
1000
0001
0010
,  // measure 34
0100
1000
0100
0000
,  // measure 35
1000
0000
0001
0000
0100
0010
0100
0000
,  // measure 36
1000
0000
0001
0000
0100
0001
0100
0000
,  // measure 37
0010
1000
0001
0100
,  // measure 38
0010
1000
0001
0010
,  // measure 39
0001
0000
1000
0000
0100
0010
0100
0000
,  // measure 40
0001
0000
1000
0000
0100
1000
0100
0000
,  // measure 41
0020
0030
0001
0010
,  // measure 42
1000
1000
0010
0001
,  // measure 43
2000
3010
0002
0103
,  // measure 44
0001
0010
0010
0100
,  // measure 45
1000
0010
0100
0010
,  // measure 46
0001
0010
1000
0001
,  // measure 47
0101
1000
1010
0001
,  // measure 48
2001
0000
0000
0000
3100
0010
0100
0010
,  // measure 49
0000
0000
0000
0110
,  // measure 50
1001
0000
0001
0000
0100
0001
0100
0000
,  // measure 51
0010
0000
1000
0000
0100
1000
0100
0000
,  // measure 52
0010
0002
0003
1000
,  // measure 53
0000
0001
1000
0001
1000
0000
0010
0000
,  // measure 54
0110
0000
0000
0000
0001
0100
0010
0000
,  // measure 55
0110
0000
0000
0000
1000
0010
0100
0000
,  // measure 56
0110
0000
0000
0000
0001
0010
0100
0000
,  // measure 57
1000
0010
0001
1000
,  // measure 58
0200
0000
0301
0000
1000
0010
1000
0000
,  // measure 59
0200
0000
1300
0000
0001
0010
0001
0000
,  // measure 60
0200
0301
0000
1000
,  // measure 61
0000
0001
1000
0001
1000
0000
0100
0000
,  // measure 62
0110
0000
0000
0000
0001
0010
0100
0000
,  // measure 63
0110
0000
0000
0000
1000
0100
0010
0000
,  // measure 64
0110
0000
0000
0000
0001
0100
0010
0000
,  // measure 65
1000
0010
0001
0010
,  // measure 66
0100
0000
0001
0100
0000
0100
0000
0010
,  // measure 67
0000
1000
0000
0100
0000
0020
0000
0002
,  // measure 68
0000
0000
0000
0033
,  // measure 69
2002
0000
0000
3003
;

//---------------dance-single - ----------------
#NOTES:
     dance-single:
     :
     Easy:
     5:
     0.274929,0.303697,0.235120,0.139330,0.000000,221.000000,194.000000,27.000000,16.000000,0.000000,0.000000,0.274929,0.303697,0.235120,0.139330,0.000000,221.000000,194.000000,27.000000,16.000000,0.000000,0.000000:
// measure 0
0000
0000
0000
0000
,  // measure 1
0000
0000
0000
0000
,  // measure 2
0000
0000
0000
0000
,  // measure 3
0000
0000
0000
0000
,  // measure 4
0000
0000
0000
0000
,  // measure 5
0001
0001
0010
0000
,  // measure 6
1000
1000
0010
0000
,  // measure 7
0001
0001
0100
0010
,  // measure 8
1000
0000
0001
0010
,  // measure 9
0100
1000
0001
0001
,  // measure 10
0100
0001
1000
1000
,  // measure 11
0010
0100
0000
1001
,  // measure 12
0000
0101
0000
1010
,  // measure 13
2000
3000
0001
0010
,  // measure 14
0200
0300
1000
0100
,  // measure 15
0020
0030
0001
1000
,  // measure 16
0010
0001
0010
0100
,  // measure 17
0000
0001
1000
1000
,  // measure 18
0100
1000
0001
0001
,  // measure 19
0010
0100
0000
1001
,  // measure 20
0000
1100
0000
0011
,  // measure 21
0001
0000
1000
0010
,  // measure 22
0200
0300
0001
0100
,  // measure 23
0020
0030
1000
0001
,  // measure 24
0010
1000
0010
0100
,  // measure 25
1100
0000
1000
0000
,  // measure 26
0101
0000
0001
0000
,  // measure 27
0011
0000
0001
0000
,  // measure 28
1010
0000
0101
0000
,  // measure 29
0011
0000
0001
0000
,  // measure 30
1010
0000
1000
0000
,  // measure 31
1100
0000
1000
0000
,  // measure 32
0101
0000
1010
0000
,  // measure 33
0001
0100
0001
0100
,  // measure 34
0010
1000
0001
0000
,  // measure 35
1000
0100
0010
0001
,  // measure 36
1000
0100
0010
0100
,  // measure 37
1000
0100
0010
0100
,  // measure 38
0010
0001
1000
0000
,  // measure 39
0001
0100
0010
1000
,  // measure 40
0001
0100
0010
0100
,  // measure 41
0002
0003
1000
0001
,  // measure 42
0010
0010
0001
1000
,  // measure 43
0000
0010
0100
0010
,  // measure 44
1000
0001
0200
0300
,  // measure 45
0001
0001
1000
1000
,  // measure 46
0020
0030
0100
0001
,  // measure 47
1001
0000
1100
0000
,  // measure 48
0210
0000
0310
0001
,  // measure 49
0000
0000
0000
1000
,  // measure 50
1001
0001
0100
0100
,  // measure 51
0010
1000
0001
0001
,  // measure 52
0010
0100
0000
1100
,  // measure 53
0000
1001
0000
0101
,  // measure 54
0001
0000
0010
0100
,  // measure 55
2000
3000
0010
0100
,  // measure 56
0002
0003
1000
0010
,  // measure 57
0001
0010
1000
0001
,  // measure 58
0000
1000
0100
0100
,  // measure 59
0010
0001
1000
1000
,  // measure 60
0010
0100
0000
0101
,  // measure 61
0000
1001
0000
1100
,  // measure 62
1000
0000
0010
0100
,  // measure 63
0002
0003
0010
0100
,  // measure 64
2000
3000
0001
0010
,  // measure 65
1000
0010
0001
1000
,  // measure 66
0010
0000
0000
0100
0000
0100
0000
0001
,  // measure 67
0000
0000
0000
1000
0000
0000
0000
0020
,  // measure 68
0000
0000
0000
0030
,  // measure 69
2002
0000
0000
3003
;

//---------------dance-single - ----------------
#NOTES:
     dance-single:
     :
     Beginner:
     3:
     0.157991,0.240345,0.069665,0.139330,0.000000,127.000000,119.000000,8.000000,16.000000,0.000000,0.000000,0.157991,0.240345,0.069665,0.139330,0.000000,127.000000,119.000000,8.000000,16.000000,0.000000,0.000000:
// measure 0
0000
0000
0000
0000
,  // measure 1
0000
0000
0000
0000
,  // measure 2
0000
0000
0000
0000
,  // measure 3
0000
0000
0000
0000
,  // measure 4
0000
0000
0000
0000
,  // measure 5
0001
0000
1001
0000
,  // measure 6
1000
0000
1001
0000
,  // measure 7
0001
0000
0100
0000
,  // measure 8
0020
0000
0030
0000
,  // measure 9
1000
0000
0001
0000
,  // measure 10
0100
0000
0001
0000
,  // measure 11
1000
0000
0000
0010
,  // measure 12
0000
0100
0000
0010
,  // measure 13
0010
0000
1000
0000
,  // measure 14
0100
0000
1000
0000
,  // measure 15
0001
0000
0010
0000
,  // measure 16
0100
0000
0010
0000
,  // measure 17
0000
0000
0001
0000
,  // measure 18
1000
0000
0001
0000
,  // measure 19
0100
0000
0000
0010
,  // measure 20
0000
0100
0000
0010
,  // measure 21
0010
0000
1000
0000
,  // measure 22
0001
0000
1000
0000
,  // measure 23
0100
0000
0010
0000
,  // measure 24
0001
0001
0001
0000
,  // measure 25
1000
0000
1000
0000
,  // measure 26
0010
0000
0010
0000
,  // measure 27
0001
0000
0001
0000
,  // measure 28
0100
0000
0100
0000
,  // measure 29
1000
0000
1000
0000
,  // measure 30
0100
0000
0100
0000
,  // measure 31
0001
0000
0001
0000
,  // measure 32
0010
0000
0010
0000
,  // measure 33
0100
0000
1000
0000
,  // measure 34
0200
0000
0300
0000
,  // measure 35
0010
0000
0010
0000
,  // measure 36
0001
0000
0001
0000
,  // measure 37
0100
0000
0001
0000
,  // measure 38
0200
0000
0300
0000
,  // measure 39
0010
0000
0010
0000
,  // measure 40
1000
0000
1000
0000
,  // measure 41
0001
0000
0100
0000
,  // measure 42
0020
0030
2000
3000
,  // measure 43
0002
0003
0020
0030
,  // measure 44
0200
0000
0300
0000
,  // measure 45
1000
0000
1000
0000
,  // measure 46
0001
0000
0001
0000
,  // measure 47
1001
0000
1001
0000
,  // measure 48
2002
0000
0000
3003
,  // measure 49
0000
0000
0000
0001
,  // measure 50
0001
0000
1000
0000
,  // measure 51
0010
0000
1000
0000
,  // measure 52
0001
0000
0000
0100
,  // measure 53
0000
0010
0000
0100
,  // measure 54
0100
0000
0001
0000
,  // measure 55
0010
0000
0001
0000
,  // measure 56
1000
0000
0100
0000
,  // measure 57
0010
0000
0100
0000
,  // measure 58
0000
0000
1000
0000
,  // measure 59
0001
0000
1000
0000
,  // measure 60
0010
0000
0000
0100
,  // measure 61
0000
0010
0000
0100
,  // measure 62
0100
0000
0001
0000
,  // measure 63
1000
0000
0001
0000
,  // measure 64
0010
0000
0100
0000
,  // measure 65
1000
1000
1000
0000
,  // measure 66
2002
0000
0000
0000
3003
0000
0000
0220
,  // measure 67
0000
0000
0330
0000
0000
0000
0000
2002
,  // measure 68
0000
0000
0000
0000
,  // measure 69
3003
0000
0000
0000
;
