#TITLE:Killer Ability;
#SUBTITLE:;
#ARTIST:BEMANI Sound Team "SYUNN";
#TITLETRANSLIT:;
#SUBTITLETRANSLIT:;
#ARTISTTRANSLIT:;
#GENRE:;
#CREDIT:;
#BANNER:;
#BACKGROUND:Killer Ability-bg.png;
#LYRICSPATH:;
#CDTITLE:;
#MUSIC:Killer Ability.ogg;
#OFFSET:-0.121000;
#SAMPLESTART:91.996002;
#SAMPLELENGTH:10.000000;
#SELECTABLE:YES;
#BPMS:0.000000=128.000000
;
#STOPS:
;
#BGCHANGES:;
#KEYSOUNDS:;
#ATTACKS:;

//---------------dance-single - ----------------
#NOTES:
     dance-single:
     :
     Challenge:
     15:
     0.605991,0.789314,0.024194,0.669355,0.818548,526.000000,523.000000,3.000000,83.000000,100.000000,0.000000,0.605991,0.789314,0.024194,0.669355,0.818548,526.000000,523.000000,3.000000,83.000000,100.000000,0.000000:
// measure 0
0000
0000
0000
0000
,  // measure 1
0000
0000
0000
0000
,  // measure 2
0000
0000
0000
0000
,  // measure 3
0000
0000
0000
0000
,  // measure 4
0000
0000
0000
0000
,  // measure 5
2010
0000
3100
MMMM
0100
0000
0010
MMMM
,  // measure 6
0010
0000
0100
MMMM
0100
0000
0010
MMMM
,  // measure 7
0012
0000
0103
MMMM
0100
0000
0010
MMMM
,  // measure 8
0001
1000
0100
1000
0001
1000
0100
1000
0001
1000
0100
1000
0001
0000
0001
0000
,  // measure 9
0020
0000
0000
1000
0000
1030
0000
0000
0020
0000
0000
0001
0000
0031
0000
0000
,  // measure 10
0020
0000
0000
1000
0000
1030
0000
0000
0020
0000
0000
0031
0000
0100
0000
0000
,  // measure 11
0020
0000
0000
0001
0000
0031
0000
0000
0020
0000
0000
1000
0000
1030
0000
0000
,  // measure 12
0020
0000
0000
0001
0000
0031
0000
0000
0010
0000
2000
0100
0000
3100
0000
1000
,  // measure 13
0100
0000
0010
0001
0000
0010
0000
0001
1000
0000
0010
1000
0000
0010
0000
1000
,  // measure 14
0001
0000
0010
0100
0000
0010
0000
0100
1000
0000
0010
0100
0000
0010
0000
0100
,  // measure 15
0001
1000
0001
1000
0100
0010
0000
0100
1000
0001
1000
0001
0100
0010
0000
0100
,  // measure 16
0001
1000
0001
1000
0100
0100
0100
0100
0001
1000
0001
0000
0100
0010
0100
0010
,  // measure 17
2000
0000
3000
0000
0010
1000
0100
1000
0001
0100
0000
1000
0100
0000
0010
0000
,  // measure 18
1000
0000
0100
0000
0100
0000
0001
0100
0000
0010
0000
0100
1000
0000
0100
0000
,  // measure 19
0002
0000
0003
0000
1000
0100
0100
0001
0000
1000
0001
1000
0002
0000
0003
0000
,  // measure 20
0001
0100
0100
1000
0000
0001
0010
0001
0020
0000
0000
0000
2030
0000
3020
0000
,  // measure 21
0032
0000
0003
0000
0010
0001
0100
0001
1000
0100
0000
0001
0100
0000
0010
0000
,  // measure 22
0001
0000
0100
0000
0100
0000
1000
0100
0000
0010
0000
0100
0001
0000
0100
0000
,  // measure 23
2000
0000
3000
0000
0001
0010
0010
1000
0000
0001
1000
0001
2000
0000
3000
0000
,  // measure 24
1000
0010
0010
0001
0000
1000
0100
1000
0200
0000
0000
0000
0310
0100
1000
0100
,  // measure 25
0020
0000
0030
0000
0001
0100
0010
1000
0100
0001
0000
0100
0010
0000
0100
0000
,  // measure 26
1000
0000
0010
0000
0010
0000
0001
0100
0000
0010
0000
1000
0100
0000
0010
0000
,  // measure 27
0002
0000
0003
0000
0001
0100
0100
0010
0000
0001
1000
0001
2000
0000
3000
0000
,  // measure 28
1000
0100
0100
0010
0000
1000
0010
1000
0020
0000
0000
0000
0032
0000
0023
0000
,  // measure 29
2030
0000
3000
0000
1000
0010
0100
0001
0010
1000
0000
0010
0100
0000
0010
0000
,  // measure 30
0001
0000
0100
0000
0100
0000
1000
0010
0000
0100
0000
0001
0010
0000
0100
0000
,  // measure 31
2000
0000
3000
0000
1000
0010
0010
0100
0000
1000
0001
1000
0002
0000
0003
0000
,  // measure 32
0001
0010
0010
0100
0000
0001
0100
0001
0200
0000
0000
0000
1000
0000
0000
0000
,  // measure 33
0302
0100
2003
0010
3002
0100
2003
0010
,  // measure 34
3200
0010
2300
0010
3002
0010
0203
0010
,  // measure 35
0302
0010
2003
0100
3002
0010
2003
0100
,  // measure 36
3020
0100
2030
0100
3002
0010
0203
0010
,  // measure 37
0302
1000
0203
1000
0302
1000
0203
1000
,  // measure 38
0320
0001
0230
0010
0302
0010
2003
0010
,  // measure 39
3200
0001
2300
0001
3200
0001
2300
0001
,  // measure 40
3200
0000
0010
0000
0302
0000
0100
0000
0103
0000
0001
1000
0000
0001
1000
0000
,  // measure 41
0200
0300
0000
MMMM
0100
0000
0000
MMMM
,  // measure 42
0100
0000
0000
MMMM
0100
0000
0000
MMMM
,  // measure 43
0100
0000
0010
MMMM
0010
0000
0100
MMMM
,  // measure 44
0100
0000
0000
0000
0010
0000
MMMM
0000
0010
0000
0002
0100
0000
0103
0000
0001
,  // measure 45
1000
0000
0001
0100
0000
0100
0000
1000
0001
0000
1000
0100
0000
0100
0000
0001
,  // measure 46
0010
0000
0001
0100
0000
0100
0000
1000
0010
0000
1000
0100
0000
0100
0000
0001
,  // measure 47
0010
0100
1000
0000
0010
0100
0001
0000
1000
0100
0010
0000
0001
0100
0010
0000
,  // measure 48
1000
0001
1000
0001
0100
0100
0100
0100
2000
0000
0000
0000
3002
0000
0100
0000
,  // measure 49
1003
0000
0000
0000
MMMM
0000
0000
MMMM
MMMM
0000
0000
MMMM
0000
0000
MMMM
0000
,  // measure 50
MMMM
0000
MMMM
0000
MMMM
0000
0000
MMMM
0000
MMMM
0000
0000
0010
0100
0010
0100
,  // measure 51
0002
0000
0003
0000
1000
0010
0010
0100
0000
1000
0100
0010
0002
0000
0003
0000
,  // measure 52
0001
0010
0010
0100
0000
0001
0100
0010
2000
0000
0000
0000
3200
0000
0302
0000
,  // measure 53
0203
0000
0300
0000
0010
0001
1000
0001
0100
0010
0000
1000
0100
0000
0001
0000
,  // measure 54
0100
0000
1000
0000
1000
0000
0100
0010
0000
1000
0000
0010
0100
0000
0001
0000
,  // measure 55
0200
0000
0300
0000
0001
0100
0100
0010
0000
0001
0100
0100
2000
0000
3000
0000
,  // measure 56
1000
0100
0100
0010
0000
1000
0100
0100
0002
0000
0000
0000
0103
0010
0100
0010
,  // measure 57
2000
0000
3000
0000
0100
0010
0100
1000
0001
0100
0000
0100
1000
0000
0001
0000
,  // measure 58
1000
0000
0100
0000
0100
0000
0010
1000
0000
0001
0000
1000
0100
0000
0001
0000
,  // measure 59
0100
0010
0100
0010
0001
0100
0100
0010
0000
0001
0100
0100
2000
0000
3000
0000
,  // measure 60
1000
0100
0100
0010
0000
1000
0100
0100
0002
0000
0000
0000
2003
0000
3020
0000
,  // measure 61
0130
0000
0000
0000
0100
0010
0100
0001
1000
0100
0000
0100
0001
0000
1000
0000
,  // measure 62
0001
0000
0100
0000
0100
0000
0010
0001
0000
1000
0000
0001
0100
0000
1000
0000
,  // measure 63
0100
0010
0100
0010
1000
0100
0100
0001
0000
0010
0100
0100
0002
0000
0003
0000
,  // measure 64
0001
0100
0100
1000
0000
0010
0100
0100
2000
0000
3000
0000
0002
0000
0003
0000
,  // measure 65
2002
0000
3003
MMMM
MMMM
0000
0000
0000
0000
0000
0000
0000
0000
0000
0000
0000
;
