#TITLE:Dance With The Dead;
#SUBTITLE:;
#ARTIST:BEMANI Sound Team "SYUNN";
#TITLETRANSLIT:;
#SUBTITLETRANSLIT:;
#ARTISTTRANSLIT:;
#GENRE:GLITCH DUBSTEP;
#CREDIT:;
#BANNER:;
#BACKGROUND:Dance With The Dead-bg.png;
#LYRICSPATH:;
#CDTITLE:;
#MUSIC:Dance With The Dead.ogg;
#OFFSET:-0.056000;
#SAMPLESTART:78.436005;
#SAMPLELENGTH:10.000000;
#SELECTABLE:YES;
#BPMS:0.000000=150.000000
;
#STOPS:
;
#BGCHANGES:;
#KEYSOUNDS:;
#ATTACKS:;

//---------------dance-single - ----------------
#NOTES:
     dance-single:
     :
     Challenge:
     16:
     0.671852,0.971800,0.518645,0.597760,0.795548,535.000000,476.000000,59.000000,68.000000,88.000000,0.000000,0.671852,0.971800,0.518645,0.597760,0.795548,535.000000,476.000000,59.000000,68.000000,88.000000,0.000000:
// measure 0
0000
0000
0000
0000
,  // measure 1
0000
0000
0000
0000
,  // measure 2
0000
0000
0000
0000
,  // measure 3
0000
0000
0000
0000
,  // measure 4
0000
0000
0000
0000
,  // measure 5
0120
0000
0000
0000
,  // measure 6
2030
0000
0000
0000
,  // measure 7
3002
0000
0000
0003
,  // measure 8
0210
0000
0010
0010
0010
0000
0300
0110
,  // measure 9
1001
0000
1000
0000
0200
0000
0000
0000
0310
0000
0000
0010
0000
0000
MMMM
0000
,  // measure 10
1001
0001
0200
0000
1000
0000
0302
0000
,  // measure 11
0103
0000
1000
0100
0000
0001
0020
0000
0130
0000
0001
0100
0000
1000
0020
0000
,  // measure 12
0130
0010
1000
0100
0110
MMMM
0110
0010
,  // measure 13
0001
1000
0100
1000
0010
1000
0010
1000
0001
1000
0100
1000
0010
1000
0010
1000
,  // measure 14
0001
0010
0100
0010
0001
0100
0010
1000
0001
0010
0100
0010
0001
0100
0010
1000
,  // measure 15
0100
0000
0100
0000
0100
0000
0010
0000
0010
0000
0010
0000
0002
0000
0000
0000
0000
0000
2000
0000
0000
3003
0000
0000
,  // measure 16
0110
0000
0000
0000
MMMM
0000
MMMM
MMMM
MMMM
0000
MMMM
0000
MMMM
0000
0000
0000
,  // measure 17
2001
0000
0000
0000
3100
0000
1000
0000
1001
0000
0100
0001
0000
0100
0001
0100
,  // measure 18
0010
0000
1000
0100
0000
0010
0000
0100
1000
0000
0100
1000
0001
0100
0010
0100
,  // measure 19
0002
0000
0000
0000
1003
0010
0000
0010
1000
0000
1000
0100
0000
0010
0001
0000
,  // measure 20
1000
0100
1000
0000
0001
0100
0010
0000
0100
0000
0100
0000
0200
0000
0000
0000
,  // measure 21
0310
0000
0000
0000
0000
0000
MMMM
0000
0000
0000
0000
0000
0001
0000
0000
1000
0000
0000
0000
0000
0000
1000
0000
0000
0001
0000
0010
0000
0001
0000
0010
0000
0000
0100
0000
0000
1000
0000
0000
0001
0000
0000
0010
0000
0000
0100
0000
0000
,  // measure 22
1000
0000
0010
0100
0000
0010
0100
0001
1000
0100
0010
0001
0200
0000
0300
0000
,  // measure 23
0210
0000
0000
0000
1300
0100
0000
0001
0100
0000
1000
0100
0000
0001
0100
0000
,  // measure 24
0110
0000
0010
0000
1000
0100
0000
0010
0001
0000
1100
0000
0220
0000
0330
0000
,  // measure 25
1001
0000
0000
MMMM
0000
0000
1000
0000
1000
0000
1000
0000
1010
0000
0000
0000
0010
0000
1000
0000
0100
0000
0000
0000
,  // measure 26
0110
0000
0010
0001
0100
0000
0110
0000
0010
1000
0100
0000
,  // measure 27
1001
1000
0100
0000
0100
0000
0011
1000
0100
0011
0100
1000
,  // measure 28
0011
1000
0100
0011
0100
1000
0020
0000
0130
0001
0001
0001
,  // measure 29
2000
0000
0000
0000
0000
0000
3100
0000
0010
0000
0100
0000
1000
0001
1000
0001
0100
0000
0000
0000
0001
0000
0100
0000
,  // measure 30
0101
0001
1000
0000
0100
1000
1100
0100
1000
0000
0010
1000
,  // measure 31
1010
0000
MMMM
0000
0001
0010
0000
1000
0010
0000
0001
0010
0000
1000
0010
0000
,  // measure 32
0100
1000
0010
0000
0010
0100
0000
0100
0001
0000
1000
0000
0010
0000
MMMM
0000
,  // measure 33
2001
0000
0000
0000
,  // measure 34
0020
3000
0000
0000
,  // measure 35
0002
0030
1000
0000
,  // measure 36
0200
0003
0010
0300
,  // measure 37
1200
0010
1000
0300
,  // measure 38
0201
0000
0000
0000
0010
0000
0000
0000
0001
0000
0000
0000
0310
1000
0001
1000
,  // measure 39
0200
0000
0000
0000
0010
0000
0000
0000
1000
0000
0000
0000
0310
0001
1000
0001
,  // measure 40
0200
0000
0000
0000
0010
0000
0000
0000
0301
0100
0010
1000
1001
0000
0000
0000
,  // measure 41
1200
0000
0000
0000
0000
0000
0000
0000
0000
0000
0000
0000
0000
0000
0000
0000
0000
0000
0000
0000
0000
0000
0000
0000
0000
0000
0000
0000
0000
0000
0000
0000
0000
0000
0000
0000
0000
0000
0000
0000
0000
0000
0000
0000
0000
0000
0000
0000
1000
0000
0000
0000
0000
0000
0000
0000
0000
0000
0000
0000
0000
0000
0000
0000
0000
0000
0000
0000
0000
0000
0000
0000
0010
0000
0000
0000
0000
0000
0000
0000
0000
0000
0000
0000
0000
0000
0000
0000
0000
0000
0000
0000
0000
0000
0000
0300
0200
0000
0000
0000
0000
0000
0000
0000
0000
0000
0000
0000
0000
0000
0000
0000
0000
0000
0000
0000
0000
0000
0000
0000
0000
0000
0000
0000
0000
0000
0000
0000
0000
0000
0000
0000
0000
0000
0000
0000
0000
0000
0000
0000
0000
0000
0000
0000
0301
0000
0000
0000
0000
0000
0000
0000
0000
0000
0000
0000
0000
0000
0000
0000
0000
0000
0000
0000
0000
0000
0000
0000
MMMM
0000
0000
0000
0000
0000
0000
0000
0000
0000
0000
0000
0000
0000
0000
0000
0000
0000
0000
0000
0000
0000
0000
0000
,  // measure 42
0201
0000
0000
0000
0000
0000
0000
0000
0000
0000
0000
0000
0000
0000
0000
0000
0000
0000
0000
0000
0000
0000
0000
0000
0000
0000
0000
0000
0000
0000
0000
0000
0000
0000
0000
0000
0000
0000
0000
0000
0000
0000
0000
0000
0000
0000
0000
0000
0001
0000
0000
0000
0000
0000
0000
0000
0000
0000
0000
0000
0000
0000
0000
0000
0000
0000
0000
0000
0000
0000
0000
0000
0010
0000
0000
0000
0000
0000
0000
0000
0000
0000
0000
0000
0000
0000
0000
0000
0000
0000
0000
0000
0000
0000
0000
0300
0200
0000
0000
0000
0000
0000
0000
0000
0000
0000
0000
0000
0000
0000
0000
0000
0000
0000
0000
0000
0000
0000
0000
0000
0000
0000
0000
0000
0000
0000
0000
0000
0000
0000
0000
0000
0000
0000
0000
0000
0000
0000
0000
0000
0000
0000
0000
0000
1300
0000
0000
0000
0000
0000
0000
0000
0000
0000
0000
0000
0000
0000
0000
0000
0000
0000
0000
0000
0000
0000
0000
0000
MMMM
0000
0000
0000
0000
0000
0000
0000
0000
0000
0000
0000
0000
0000
0000
0000
0000
0000
0000
0000
0000
0000
0000
0000
,  // measure 43
1200
0000
0000
0000
0000
0000
0000
0000
0000
0000
0000
0000
0000
0000
0000
0000
0000
0000
0000
0000
0000
0000
0000
0000
0000
0000
0000
0000
0000
0000
0000
0000
0000
0000
0000
0000
0000
0000
0000
0000
0000
0000
0000
0000
0000
0000
0000
0000
1000
0000
0000
0000
0000
0000
0000
0000
0000
0000
0000
0000
0000
0000
0000
0000
0000
0000
0000
0000
0000
0000
0000
0000
0010
0000
0000
0000
0000
0000
0000
0000
0000
0000
0000
0000
0000
0000
0000
0000
0000
0000
0000
0000
0000
0000
0000
0300
0200
0000
0000
0000
0000
0000
0000
0000
0000
0000
0000
0000
0000
0000
0000
0000
0000
0000
0000
0000
0000
0000
0000
0000
0000
0000
0000
0000
0000
0000
0000
0000
0000
0000
0000
0000
0000
0000
0000
0000
0000
0000
0000
0000
0000
0000
0000
0000
0310
0000
0000
0000
0000
0000
0000
0000
0000
0000
0000
0000
0000
0000
0000
0000
0000
0000
0000
0000
0000
0000
0000
0000
MMMM
0000
0000
0000
0000
0000
0000
0000
0000
0000
0000
0000
0000
0000
0000
0000
0000
0000
0000
0000
0000
0000
0000
0000
,  // measure 44
0201
0000
0000
0000
0000
0000
0000
0000
0000
0000
0000
0000
0000
0000
0000
0000
0000
0000
0000
0000
0000
0000
0000
0000
0000
0000
0000
0000
0000
0000
0000
0000
0000
0000
0000
0000
0000
0000
0000
0000
0000
0000
0000
0000
0000
0000
0000
0000
0001
0000
0000
0000
0000
0000
0000
0000
0000
0000
0000
0000
0000
0000
0000
0000
0000
0000
0000
0000
0000
0000
0000
0000
0010
0000
0000
0000
0000
0000
0000
0000
0000
0000
0000
0000
0000
0000
0000
0000
0000
0000
0000
0000
0000
0000
0000
0300
0100
0000
0000
0000
0000
0000
0000
0000
0000
0000
0000
0000
0010
0000
0000
0000
0000
0000
0000
0000
0000
0000
0000
0000
0001
0000
0000
0000
0000
0000
0000
0000
0000
0000
0000
0000
0000
0000
0000
0000
0000
0000
0000
0000
0000
0000
0000
0000
0001
0000
0000
0000
0000
0000
0000
0000
0000
0000
0000
0000
0000
0000
0000
0000
0000
0000
0000
0000
0000
0000
0000
0000
0100
0000
0000
0000
0000
0000
0000
0000
0000
0000
0000
0000
0000
0000
0000
0000
0000
0000
0000
0000
0000
0000
0000
0000
,  // measure 45
0201
0000
0000
0000
0010
0000
0001
0010
0000
0000
1000
0010
0000
0000
0001
0320
,  // measure 46
0100
0000
1000
0100
0000
0000
0001
0100
0000
0000
1000
0100
0000
0000
0001
0130
,  // measure 47
0010
0000
0010
0000
0010
0000
0100
0000
0100
0000
0100
0000
0001
1000
0001
1000
0001
1000
0100
0010
0100
0010
0100
0010
,  // measure 48
0002
0000
0003
0000
0202
0303
0000
0100
,  // measure 49
0220
0000
0330
0000
1000
0100
0001
0000
0220
0000
0330
0000
1000
0100
0001
0000
,  // measure 50
0220
0000
0330
0100
0010
0000
0001
0000
2002
0000
3003
0000
1000
0000
0010
0000
,  // measure 51
0100
0000
0000
0010
0000
0000
0100
0000
0000
0000
0001
0000
0000
0000
0100
0000
0000
0000
0010
0000
0000
0000
0000
0000
0110
0000
0000
0000
0000
0000
MMMM
0000
0000
0000
0000
0000
1000
0000
0000
0000
0000
0000
1000
0000
0000
0000
0000
0000
,  // measure 52
0100
0000
0000
0010
0000
0000
0100
0000
0000
0000
1000
0000
0000
0000
0100
0000
0000
0000
0010
0000
0000
0000
0000
0000
0110
0000
0000
0000
0000
0000
MMMM
0000
0000
0000
0000
0000
0001
0000
0000
0000
0000
0000
0001
0000
0000
0010
0000
0000
,  // measure 53
0200
0300
1010
1000
1100
MMMM
0011
MMMM
,  // measure 54
1100
0000
0000
0000
0000
0000
MMMM
0000
0000
0000
0000
0000
0022
0000
0000
0033
0000
0000
MMMM
0000
0000
0000
0000
0000
1100
0000
0000
0000
0000
0000
0000
0000
0010
0000
0000
0000
0001
0000
0000
0010
0000
0000
0100
0000
0000
0010
0000
0000
,  // measure 55
0001
0100
0001
0100
0020
0000
1030
0010
1000
0010
0200
0000
0301
0010
0001
0010
,  // measure 56
0200
0000
1300
0100
1000
0100
0020
0000
0031
0100
0010
1000
0100
0010
0001
0100
,  // measure 57
0020
0000
0000
0000
0031
0000
0010
0000
1000
0001
1000
0100
0002
0000
0103
0010
,  // measure 58
0001
0100
2000
0000
3001
0010
1000
0100
0001
0000
0001
0100
1000
0000
0010
0000
,  // measure 59
1010
0000
0102
1003
0201
0000
0000
0000
,  // measure 60
0310
0100
0010
0100
0010
0100
0010
0100
0001
1000
0001
0100
0010
1000
0000
1000
,  // measure 61
0100
0000
0000
0000
0010
0000
0000
0000
0001
0000
0200
0300
0000
0000
0200
0300
1000
0000
0010
0000
1000
0000
0010
0000
0200
0000
0000
0000
0301
0000
0010
0000
,  // measure 62
0001
0010
0200
0000
1300
0010
1000
0010
0100
0001
1000
0001
0010
0000
0010
0000
,  // measure 63
0200
0300
MMMM
0000
0110
1100
0101
0110
,  // measure 64
0101
0000
0000
1100
0000
0000
0120
0000
0000
0000
0000
0000
0000
0000
0000
0000
0000
0000
0031
0000
0001
0000
1000
0000
,  // measure 65
2002
0000
0000
0000
,  // measure 66
0003
0000
0000
0000
,  // measure 67
3000
0000
0000
0000
;
