#TITLE:DEEP PSYCHEDELIC STRIKER;
#SUBTITLE:;
#ARTIST:影虎。;
#TITLETRANSLIT:;
#SUBTITLETRANSLIT:;
#ARTISTTRANSLIT:Kagetora.;
#GENRE:Psytrance;
#CREDIT:;
#BANNER:;
#BACKGROUND:DEEP PSYCHEDELIC STRIKER-bg.png;
#LYRICSPATH:;
#CDTITLE:;
#MUSIC:DEEP PSYCHEDELIC STRIKER.ogg;
#OFFSET:-0.036000;
#SAMPLESTART:82.100998;
#SAMPLELENGTH:10.000000;
#SELECTABLE:YES;
#BPMS:0.000000=155.000000
;
#STOPS:
;
#BGCHANGES:;
#KEYSOUNDS:;
#ATTACKS:;

//---------------dance-single - ----------------
#NOTES:
     dance-single:
     :
     Challenge:
     17:
     0.910386,1.068101,0.693572,0.089756,1.338186,781.000000,696.000000,85.000000,11.000000,0.000000,0.000000,0.910386,1.068101,0.693572,0.089756,1.338186,781.000000,696.000000,85.000000,11.000000,0.000000,0.000000:
0000
0000
0000
0000
,
0000
0000
0000
0000
,
0000
0000
0000
0000
,
1001
0000
0001
0000
0100
0000
0100
0001
,
1001
0000
0000
0000
1000
0000
0000
0000
1010
0000
0000
1001
0000
0000
0011
0000
,
1001
0000
1000
0000
0100
0000
0100
1000
,
1001
0000
0000
0000
0001
0000
0000
0000
0101
0000
0000
1001
0000
0000
1100
0000
,
1001
0001
0010
0001
0100
0010
1000
0010
,
0100
0001
0100
0001
1000
0010
1000
0010
0100
0001
1000
0010
1000
0100
0010
0001
,
0200
0000
0000
0300
,
1001
0000
0000
1010
0000
0000
0101
0000
1010
0000
0000
0001
1000
0000
0100
0000
,
0010
0000
0001
0010
0000
0100
1000
0100
1000
0001
0000
0100
0001
0000
0100
0000
,
0010
0000
1000
0010
0000
1000
0001
1000
0010
0000
0000
0101
0000
0000
1000
0000
,
0010
0000
1000
0100
0000
0010
0001
0010
0001
1000
0000
0010
1000
0000
0010
0000
,
0100
0000
0001
0100
0000
0001
1000
0001
0010
0000
0100
0010
0000
0100
0010
0100
,
1000
0000
0001
0100
0000
0010
1000
0010
1000
0001
0000
0010
0100
0000
0010
0000
,
0001
0000
1000
0100
0000
1000
0001
1000
0100
0010
0000
0001
2000
0000
0000
0000
,
3010
0000
1000
0010
0200
0000
0000
0000
0301
0010
0000
0100
0020
0000
0000
0000
,
0130
0000
1000
0100
0000
1000
0001
1000
0010
0000
0100
0010
0000
0100
0010
0100
,
0001
0000
1000
0100
0000
1000
0001
1000
0001
0100
0000
0010
0001
0000
0010
0000
,
1000
0000
0001
0100
0000
0001
1000
0001
0100
0000
0000
1000
0010
0000
0010
0000
,
1000
0000
0001
0010
0000
0001
1000
0001
1000
0010
0000
0100
1000
0000
0100
0000
,
0001
0000
1000
0010
0000
1000
0001
1000
0100
0000
0010
0100
0000
0010
0100
0010
,
1000
0000
0010
0001
0000
1000
0001
1000
0001
0010
0000
0100
0010
0000
0001
0000
,
0100
0010
1000
0100
0000
0100
0010
0000
0010
0001
0100
0010
,
0001
0000
0010
0000
1000
0000
0001
0000
0010
0001
0010
0001
1000
0100
0010
0001
,
2000
0000
0000
0000
0000
0000
3001
0010
0100
1000
0100
0010
,
0011
0001
1000
1001
0001
0010
0011
0001
1000
1001
0001
0100
,
1010
1000
0001
1001
1000
0010
1010
1000
0001
1001
0000
0100
,
0110
0010
0001
0011
0000
0100
0110
0010
1000
1010
0000
0100
,
0101
0001
0010
1100
1000
0010
0101
0000
1001
0000
1100
0000
,
0110
0010
0001
0101
0000
0100
0110
0010
1000
1100
0000
0001
,
1001
1000
0010
0110
0000
0100
0101
0000
0010
1010
0000
0100
,
0110
0010
1000
1100
0000
0100
0110
0010
0001
0101
0000
1000
,
1001
0000
0101
0000
0100
0001
0010
0000
0010
0100
1000
0010
,
0220
0000
0000
0000
,
0000
0000
0000
0000
,
0330
0000
0000
0000
,
0000
0000
0000
0000
,
0001
0100
0010
0000
0100
0000
0100
0000
,
1000
0100
0010
0000
0100
0000
0100
0000
,
0001
0000
0100
0010
0000
0100
0001
0100
0001
0000
1000
0001
0000
0001
1000
0001
,
1000
0000
0100
0010
0000
0100
1000
0001
1000
0000
0001
1000
0010
0000
0010
0000
,
1000
0100
0010
0001
0000
0100
0001
0010
1000
0000
0010
0100
0000
0010
0001
0000
,
1000
0010
1000
0000
0001
0100
0000
0010
1000
0000
0100
0010
0000
0010
0001
0000
,
0001
0010
0100
1000
0000
0010
1000
0100
0001
0000
0100
0010
0000
0100
1000
0000
,
0001
0100
0001
0100
0000
0010
1000
0010
1000
0100
0000
0010
0000
0100
1000
0010
,
0100
0100
0001
0001
1000
1000
0100
0100
,
0010
0001
1000
0010
0100
0001
0010
0100
,
1000
0100
1000
0100
0010
0001
0010
0001
1000
0100
0010
0001
0100
0001
1000
0010
,
0100
0001
0010
0100
1000
0001
0100
0010
1000
0000
0100
0010
0000
0100
0010
0000
,
1001
0000
0000
0000
,
1001
0000
0000
0011
0000
0000
1100
0000
0011
0000
0000
1000
0001
0000
0100
0000
,
0010
1000
0010
1000
0000
0001
0100
0010
1000
0000
0001
0100
0000
0001
0100
0001
,
1000
0100
1000
0000
0100
1000
0000
0001
0010
0000
0001
1000
0000
0001
0100
0001
,
0010
0001
0010
0001
0000
1000
0100
0010
0001
0000
1000
0100
0000
1000
0100
1000
,
0001
0100
0001
0100
0000
0001
0100
0000
0010
1000
0000
0100
0000
0010
0001
0100
,
0010
1000
0010
1000
0000
0100
1000
0001
0100
0000
0010
1000
0000
0001
0010
0100
,
1000
0000
0010
1000
0000
0010
1000
0000
0001
0000
1000
0100
0000
1000
0001
0000
,
0010
0001
0010
0001
0000
0100
0001
1000
0100
0000
0010
0001
0000
1000
0010
0100
,
0001
0000
0010
0001
0000
0010
0001
1000
0010
0000
0000
0101
0000
0000
1010
0000
,
0220
0000
0000
0000
0330
0000
0001
0001
,
1000
0100
0001
0000
0100
1000
0000
0010
0001
0000
0010
1000
0000
0010
0001
0010
,
1000
0001
1000
0100
0000
0010
0001
1000
0001
0000
0100
0010
0000
1000
0010
1000
,
0001
0010
0001
0010
0000
0100
1000
0000
0001
0100
0000
1000
0000
0100
0001
0100
,
0010
0100
0010
0000
0100
0000
0001
0000
0010
0100
0010
0000
0100
0000
1000
0000
,
0010
1000
0010
0000
0100
0000
0001
0000
0010
0001
0010
0000
0100
0000
1000
0000
,
0010
1000
0010
1000
0001
0010
0001
0010
0100
1000
0001
0100
0010
1000
0100
0010
,
0002
0000
0000
0000
0000
0000
0013
0010
0010
0001
0100
0010
,
1010
1000
0100
1100
1000
0010
1010
1000
0100
0110
0010
0001
,
0011
0001
0100
0101
0001
0010
0011
0001
0100
0110
0010
1000
,
1001
0001
0010
0011
0000
0001
1001
1000
0010
1010
0000
1000
,
1001
0001
0010
1001
1000
0010
0101
0001
0010
1100
1000
0010
,
0110
0000
0101
0000
1100
0000
0110
0000
0010
0100
0100
0100
,
0110
0010
0001
0101
0000
0100
0110
0010
1000
1001
0001
0100
,
0110
0010
0100
0001
0010
0100
1100
0000
0010
0011
0000
0100
,
0110
0010
0010
0100
1000
0010
0200
0000
0000
0300
0000
0000
,
1001
0000
0000
0000
;

//---------------dance-single - ----------------
#NOTES:
     dance-single:
     :
     Hard:
     13:
     0.622466,0.785368,0.269269,0.130555,0.514059,534.000000,501.000000,33.000000,16.000000,0.000000,0.000000,0.622466,0.785368,0.269269,0.130555,0.514059,534.000000,501.000000,33.000000,16.000000,0.000000,0.000000:
// measure 0
0000
0000
0000
0000
,  // measure 1
0000
0000
0000
0000
,  // measure 2
0000
0000
0000
0000
,  // measure 3
1001
0000
0000
0000
0000
0000
0001
1000
,  // measure 4
1001
0000
0000
0000
0000
0000
0000
0000
1010
0000
0000
0011
0000
0000
0001
0000
,  // measure 5
1001
0000
0000
0000
0000
0000
1000
0001
,  // measure 6
1001
0000
0000
0000
0000
0000
0000
0000
0011
0000
0000
1010
0000
0000
1000
0000
,  // measure 7
1001
0001
0100
0001
1000
0010
1000
0010
,  // measure 8
0100
0001
1000
0100
0010
0001
0100
0010
,  // measure 9
0200
0000
0000
0300
,  // measure 10
0101
0000
0000
1100
0000
0000
1000
0000
1001
0000
0000
0000
0110
0000
0000
0000
,  // measure 11
0001
0100
0010
1000
0100
0001
0100
1000
,  // measure 12
0010
0000
0100
0000
0001
0000
0001
0000
1000
0000
0000
0010
0000
0000
0100
0000
,  // measure 13
0001
0010
0100
1000
0010
0001
0010
1000
,  // measure 14
0001
0000
0010
0000
0100
0000
0010
0000
0001
0000
0000
1000
0000
1000
0010
0000
,  // measure 15
1000
0100
0010
0001
0100
1000
0100
0001
,  // measure 16
0010
0000
0001
0000
1000
0000
0100
0000
1000
0000
0000
0001
0200
0000
0000
0000
,  // measure 17
0301
0000
0000
0010
0100
0000
0100
0000
1000
0000
0000
0010
0200
0000
0000
0000
,  // measure 18
0301
0000
1000
0000
0001
0000
0100
0000
0010
0000
0000
1000
0000
1000
0001
0000
,  // measure 19
0010
0100
1000
0010
1000
0001
0100
0010
,  // measure 20
1000
0000
0100
0000
0001
0000
0100
0000
1000
0000
0000
0001
0100
0000
0100
0000
,  // measure 21
0010
0100
0001
0010
0001
1000
0100
0010
,  // measure 22
0001
0000
0100
0000
1000
0000
0100
0000
0001
0000
1000
0001
0000
1000
0001
0000
,  // measure 23
0010
0100
1000
0001
1000
0100
0010
0001
,  // measure 24
0100
0001
0100
0001
0000
1000
0010
0000
1000
0100
0010
0001
,  // measure 25
0100
0000
0010
0000
0100
0000
0010
0000
1000
0000
0100
0000
0010
0001
0010
0001
,  // measure 26
0200
0000
0000
0000
0000
0000
0301
1000
0001
1000
0001
1000
,  // measure 27
0100
0000
0100
0010
0000
0010
0001
0000
0001
0100
0000
0100
,  // measure 28
0010
0000
0010
1000
0000
1000
0100
0000
0100
1000
0000
0001
,  // measure 29
0100
0000
0100
0010
0000
0010
1000
0000
1000
0100
0000
0100
,  // measure 30
0010
0000
0010
0001
0000
0001
0100
0000
0100
0000
0100
0000
,  // measure 31
1001
0000
0001
0101
0000
0000
1001
0000
0001
0101
0000
0000
,  // measure 32
1001
0000
1000
1100
0000
0000
1001
0000
1000
0100
0000
0100
,  // measure 33
0010
0000
0001
1001
0000
0000
0010
0000
1000
1001
0000
0000
,  // measure 34
0020
0000
0000
0000
0000
0000
0130
0000
0100
0010
0001
1000
,  // measure 35
0002
0000
0000
0000
,  // measure 36
0000
0000
0000
0000
,  // measure 37
0003
0000
0000
0000
,  // measure 38
0000
0000
0000
0000
,  // measure 39
0001
0100
0001
0000
1000
0000
0010
0000
,  // measure 40
1000
0100
1000
0000
0001
0000
0010
0000
,  // measure 41
0001
0100
0001
0000
1000
0100
1000
0000
,  // measure 42
0001
0000
0010
0000
0001
0000
0000
0000
1000
0000
0000
0010
0000
0000
1000
0000
,  // measure 43
0001
0100
0001
0100
0000
0010
0100
0000
0020
0000
0000
0000
0000
0000
0000
0000
,  // measure 44
1030
0010
1000
0000
0010
1000
0000
0010
0200
0000
0000
0000
0000
0000
0000
0000
,  // measure 45
0301
0010
0001
0010
0000
0100
0010
0000
0200
0000
0000
0000
0000
0000
0000
0000
,  // measure 46
1300
0100
1000
0100
0000
0010
0100
0000
0020
0000
0000
0000
0000
0000
0000
0000
,  // measure 47
0031
0010
0001
0010
0100
1000
0100
1000
,  // measure 48
0001
0100
0010
1000
0100
0010
0001
0100
,  // measure 49
1000
0100
0001
0100
1000
0100
0001
0100
,  // measure 50
0020
0000
0200
0000
,  // measure 51
0330
0000
0000
0000
,  // measure 52
1100
0000
0000
0101
0000
0000
0001
0000
1001
0000
0000
0000
0110
0000
0000
0000
,  // measure 53
1000
0100
0010
0001
0100
0001
0010
0001
,  // measure 54
1000
0000
0010
0000
0001
0000
0010
0000
1000
0000
0010
1000
0000
0010
0100
0000
,  // measure 55
0001
0010
0100
1000
0010
1000
0100
1000
,  // measure 56
0010
0000
1000
0000
0100
0000
0001
0000
0100
0000
1000
0000
0010
0100
0010
0000
,  // measure 57
0100
0001
0100
0010
1000
0010
0001
0010
,  // measure 58
1000
0000
0001
0100
0000
0001
0100
0000
0001
0000
1000
0100
0000
1000
0100
0000
,  // measure 59
0010
0001
0010
0100
1000
0100
0001
0100
,  // measure 60
1000
0000
0001
0000
0010
0000
0001
0000
0011
0000
0000
1010
0000
0000
1000
0000
,  // measure 61
2002
0000
0000
3003
,  // measure 62
0001
1000
0001
0000
1000
0001
0000
1000
0010
0000
0001
0010
0000
1000
0001
0000
,  // measure 63
1001
1000
0100
1000
0001
1000
0010
0100
,  // measure 64
0001
0000
0010
0000
1000
0000
0010
0000
0001
0100
0000
0100
0000
0100
0010
0000
,  // measure 65
1000
0100
1000
0100
0010
0001
0010
0001
,  // measure 66
1000
0010
1000
0010
0100
0001
0100
0001
,  // measure 67
1000
0000
0100
0000
0010
0000
0001
0000
0100
0000
0010
0000
1000
0100
1000
0100
,  // measure 68
0020
0000
0000
0000
0000
0000
0031
1000
0001
1000
0001
1000
,  // measure 69
0010
0000
0010
0100
0000
0100
0001
0000
0001
0010
0000
0010
,  // measure 70
0100
0000
0100
1000
0000
1000
0001
0000
0100
0010
0000
1000
,  // measure 71
0100
0000
0100
0010
0000
0010
0001
0000
0001
0100
0000
0100
,  // measure 72
0010
0000
0010
1000
0000
1000
0100
0000
1000
0001
0000
0100
,  // measure 73
0010
0000
0010
0000
0010
0000
0110
0000
0000
0110
0010
1000
,  // measure 74
0100
0000
0010
0001
0000
0100
0001
0010
0100
1000
0010
1000
,  // measure 75
0001
0010
0100
1000
0010
0100
0001
1000
0100
0010
0100
0010
,  // measure 76
0001
0010
0001
1000
0010
0100
0002
0000
0000
0003
0000
0000
,  // measure 77
1001
0000
0000
0000
;

//---------------dance-single - ----------------
#NOTES:
     dance-single:
     :
     Medium:
     10:
     0.522219,0.596880,0.505899,0.155034,0.183593,448.000000,386.000000,62.000000,19.000000,0.000000,0.000000,0.522219,0.596880,0.505899,0.155034,0.183593,448.000000,386.000000,62.000000,19.000000,0.000000,0.000000:
// measure 0
0000
0000
0000
0000
,  // measure 1
0000
0000
0000
0000
,  // measure 2
0000
0000
0000
0000
,  // measure 3
1001
0000
0000
0000
0000
0000
0100
1000
,  // measure 4
1001
0000
0000
0000
0000
0000
0000
0000
0100
0000
0000
0100
0000
0000
0001
0000
,  // measure 5
1001
0000
0000
0000
0000
0000
0010
1000
,  // measure 6
1001
0000
0000
0000
0000
0000
0000
0000
0010
0000
0000
0010
0000
0000
0001
0000
,  // measure 7
1000
0010
1000
0000
0001
0010
0100
0000
,  // measure 8
1000
0100
1000
0100
0010
0001
0100
0010
,  // measure 9
2000
0000
0000
3000
,  // measure 10
1001
0000
0000
0001
0000
0000
0100
0000
0010
0000
0000
0000
0110
0000
0000
0000
,  // measure 11
0100
0000
0001
0000
0100
0001
1000
0001
,  // measure 12
1000
0000
0001
0000
0100
0000
0000
0000
0010
0000
0000
1000
0000
0000
0001
0000
,  // measure 13
0010
0000
0001
0000
0010
0001
1000
0001
,  // measure 14
1000
0000
0001
0000
0010
0000
0000
0000
0100
0000
0000
1000
0000
0000
0010
0000
,  // measure 15
0100
0000
0010
0000
0010
1000
0100
1000
,  // measure 16
0100
1000
0010
0000
0100
0000
2001
0000
,  // measure 17
3100
1002
0103
0120
,  // measure 18
1030
0000
0001
0000
0010
0000
0001
0000
1000
0000
0000
0010
0000
0000
0100
0000
,  // measure 19
0001
0100
0001
0000
1000
0100
0010
0100
,  // measure 20
0010
0100
1000
0000
0001
0100
0010
0010
,  // measure 21
1000
0100
1000
0000
0001
0100
0010
0100
,  // measure 22
0010
0000
0100
0000
0001
0000
0000
0000
1001
0000
0000
0001
0000
0000
0010
0000
,  // measure 23
0100
1000
0001
0000
0100
0001
0100
0010
,  // measure 24
1000
0000
1000
0100
0000
1000
0010
0000
1000
0001
0000
1000
,  // measure 25
0100
0010
0100
0010
0001
0100
0010
1000
,  // measure 26
0200
0000
0000
0000
0000
0000
0310
0001
1000
0001
1000
0001
,  // measure 27
0010
0011
0110
0110
,  // measure 28
1001
0000
0000
0011
0000
0000
1001
0000
0000
1100
0000
1000
,  // measure 29
0100
1100
0110
0110
,  // measure 30
1001
0000
0000
1100
0000
0000
1001
0000
1000
0000
1000
0000
,  // measure 31
1100
0000
0100
0010
0000
0000
0011
0000
0010
0100
0000
0000
,  // measure 32
1100
0000
1000
0001
0000
0000
0101
0000
0001
0100
0000
0100
,  // measure 33
0010
0000
1000
0100
0000
0000
0010
0000
0001
0100
0000
0000
,  // measure 34
0020
0000
0000
0000
0000
0000
0230
0000
0000
0301
0010
0100
,  // measure 35
2000
0000
0000
0000
,  // measure 36
0000
0000
0000
0000
,  // measure 37
3000
0000
0000
0000
,  // measure 38
0000
0000
0000
0000
,  // measure 39
1000
0100
1000
0000
0001
0000
1000
0000
,  // measure 40
0001
0100
0001
0000
0010
0000
0100
0000
,  // measure 41
1000
0001
1000
0000
0010
0000
0010
0000
,  // measure 42
1000
0001
1000
0000
0200
0000
0300
0000
,  // measure 43
0001
0100
0001
0100
0020
0000
0000
0000
,  // measure 44
1030
0000
0100
0010
0002
0000
0000
0000
,  // measure 45
1003
0100
1000
0100
0020
0000
0000
0000
,  // measure 46
0031
0000
0100
0010
2000
0000
0000
0000
,  // measure 47
3001
0010
0001
0000
1000
0010
0100
0000
,  // measure 48
0001
0100
0001
0000
1000
0100
0010
0000
,  // measure 49
0001
0010
0001
0010
0100
1000
0100
1000
,  // measure 50
0020
0000
0200
0000
,  // measure 51
0330
0000
0000
0000
,  // measure 52
1001
0000
0000
1000
0000
0000
0100
0000
0010
0000
0000
0000
0110
0000
0000
0000
,  // measure 53
0001
0010
0001
0000
1000
0010
0100
0001
,  // measure 54
0100
0000
0001
0000
0010
0000
0000
0000
1000
0000
0000
0010
0000
0000
0001
0000
,  // measure 55
1000
0010
1000
0000
0001
0010
0100
1000
,  // measure 56
0100
1000
0010
0000
0101
0001
0010
0000
,  // measure 57
0001
0100
0001
0100
1000
0100
0001
0000
,  // measure 58
1000
0100
1000
0100
0001
0100
1000
0000
,  // measure 59
0010
0100
0101
0000
0010
0100
1100
0000
,  // measure 60
0101
0000
0000
0000
1100
0000
0000
0000
0011
0000
0000
1010
0000
0000
1000
0000
,  // measure 61
2002
0000
0000
3003
,  // measure 62
0100
0000
0010
0000
0110
0000
0000
0000
1010
0000
0000
0011
0000
0000
0001
0000
,  // measure 63
1001
1000
0010
0000
0100
0001
1000
0010
,  // measure 64
0100
0001
0010
0001
0010
1000
0010
0001
,  // measure 65
1000
0100
1000
0000
0001
0100
0010
0000
,  // measure 66
1000
0010
1000
0000
0001
0010
0100
1000
,  // measure 67
0010
1000
0010
1000
0001
0100
0001
0100
,  // measure 68
0020
0000
0000
0000
0000
0000
0130
0001
1000
0001
1000
0001
,  // measure 69
0100
0101
1001
1001
,  // measure 70
0011
0110
1100
1001
,  // measure 71
1010
1010
1001
1001
,  // measure 72
1100
0110
0011
1001
,  // measure 73
1001
0000
0001
0000
0001
0000
0101
0000
0000
0100
0010
0100
,  // measure 74
0010
1010
1001
0011
,  // measure 75
0010
0100
0010
0100
0000
0000
1000
0000
0010
0100
0000
0000
,  // measure 76
0001
0000
0010
0100
0010
0100
2000
0000
0000
3000
0000
0000
,  // measure 77
1001
0000
0000
0000
;

//---------------dance-single - ----------------
#NOTES:
     dance-single:
     :
     Easy:
     7:
     0.257612,0.314147,0.236630,0.179513,0.000000,221.000000,192.000000,29.000000,22.000000,0.000000,0.000000,0.257612,0.314147,0.236630,0.179513,0.000000,221.000000,192.000000,29.000000,22.000000,0.000000,0.000000:
// measure 0
0000
0000
0000
0000
,  // measure 1
0000
0000
0000
0000
,  // measure 2
0000
0000
0000
0000
,  // measure 3
0000
0000
0000
0000
,  // measure 4
0000
0000
0000
0000
,  // measure 5
0000
0000
0000
0000
,  // measure 6
0000
0000
0000
0000
,  // measure 7
0001
0001
0100
0100
,  // measure 8
0010
1000
0100
0010
,  // measure 9
0002
0000
0000
0000
,  // measure 10
1003
0000
0000
0000
,  // measure 11
1001
1000
0100
0010
,  // measure 12
0100
0010
0001
0000
,  // measure 13
1000
0001
0100
0010
,  // measure 14
0100
0010
1000
0000
,  // measure 15
0001
0010
0001
1000
,  // measure 16
0001
1000
0010
1010
,  // measure 17
0000
0011
0000
1001
,  // measure 18
1000
0010
0100
0100
,  // measure 19
0001
0010
0100
1000
,  // measure 20
0001
0010
0100
0000
,  // measure 21
1000
0010
0100
0001
,  // measure 22
1000
0010
0100
0000
,  // measure 23
0001
0100
0010
1000
,  // measure 24
0200
0300
0020
0030
,  // measure 25
0001
0100
0010
1000
,  // measure 26
0002
0000
1003
1000
,  // measure 27
1001
0000
0011
0000
,  // measure 28
1001
0000
0011
0000
,  // measure 29
1001
0000
1010
0000
,  // measure 30
1001
0000
1010
0000
,  // measure 31
0110
0000
0110
0000
,  // measure 32
1001
0000
1001
0000
,  // measure 33
0100
0010
0100
0010
,  // measure 34
2000
3000
0002
0003
,  // measure 35
2002
0000
0000
0000
,  // measure 36
0000
0000
0000
0000
,  // measure 37
3003
0000
0000
0000
,  // measure 38
0000
0000
0000
0000
,  // measure 39
0001
0001
0100
0100
,  // measure 40
1000
1000
0010
0010
,  // measure 41
0001
0001
1000
1000
,  // measure 42
0100
0100
0010
0000
,  // measure 43
0002
0000
0013
0000
,  // measure 44
2000
0000
3100
0000
,  // measure 45
2000
0000
3010
0000
,  // measure 46
0002
0000
0103
0000
,  // measure 47
0001
0001
0100
0010
,  // measure 48
1000
1000
0100
0010
,  // measure 49
0001
0100
0010
1000
,  // measure 50
0200
0000
0320
0000
,  // measure 51
0030
0000
0000
0000
,  // measure 52
0001
0000
0000
0000
,  // measure 53
1001
0001
1000
0000
,  // measure 54
0010
1000
0001
0010
,  // measure 55
0001
1000
0001
0000
,  // measure 56
0100
0001
1000
0100
,  // measure 57
0010
0100
0010
0000
,  // measure 58
0001
1000
0001
0100
,  // measure 59
0010
0100
0010
0100
,  // measure 60
0001
1000
0002
0000
,  // measure 61
1003
0000
0000
0000
,  // measure 62
0002
0000
2003
0000
,  // measure 63
3010
0010
0100
0000
,  // measure 64
0001
0001
0010
0000
,  // measure 65
0100
0100
1000
1000
,  // measure 66
0001
0001
0100
0100
,  // measure 67
0010
1000
0001
0100
,  // measure 68
0020
0000
0130
0100
,  // measure 69
0110
0000
0101
0000
,  // measure 70
0110
0000
0101
0000
,  // measure 71
1001
0000
1100
0000
,  // measure 72
1001
0000
1100
0000
,  // measure 73
0220
0000
0330
0000
,  // measure 74
1001
0000
1001
0000
,  // measure 75
0001
0001
1000
1000
,  // measure 76
0002
0000
2003
0000
,  // measure 77
3001
0000
0000
0000
;

//---------------dance-single - ----------------
#NOTES:
     dance-single:
     :
     Beginner:
     3:
     0.139880,0.219903,0.114235,0.097916,0.000000,120.000000,106.000000,14.000000,12.000000,0.000000,0.000000,0.139880,0.219903,0.114235,0.097916,0.000000,120.000000,106.000000,14.000000,12.000000,0.000000,0.000000:
// measure 0
0000
0000
0000
0000
,  // measure 1
0000
0000
0000
0000
,  // measure 2
0000
0000
0000
0000
,  // measure 3
0000
0000
0000
0000
,  // measure 4
0000
0000
0000
0000
,  // measure 5
0000
0000
0000
0000
,  // measure 6
0000
0000
0000
0000
,  // measure 7
1000
0000
1000
0000
,  // measure 8
0001
0000
0001
0000
,  // measure 9
0020
0000
0000
0000
,  // measure 10
0030
0000
0000
0000
,  // measure 11
1000
0000
0100
0000
,  // measure 12
1000
0000
0010
0000
,  // measure 13
0001
0000
0100
0000
,  // measure 14
0001
0000
0010
0000
,  // measure 15
1000
0000
0100
0000
,  // measure 16
0010
0000
0001
0000
,  // measure 17
1000
0000
0001
0000
,  // measure 18
1000
0000
0001
0000
,  // measure 19
0100
0000
0100
0000
,  // measure 20
0010
0000
1000
0000
,  // measure 21
0100
0000
0100
0000
,  // measure 22
0010
0000
0000
0000
,  // measure 23
0100
0000
0100
0000
,  // measure 24
1000
0000
0000
0000
,  // measure 25
0001
0000
0001
0000
,  // measure 26
1000
0000
1000
0000
,  // measure 27
1001
0000
0000
0000
,  // measure 28
1001
0000
0000
0000
,  // measure 29
0110
0000
0000
0000
,  // measure 30
0110
0000
0000
0000
,  // measure 31
1001
0000
0001
0000
,  // measure 32
1001
0000
1000
0000
,  // measure 33
0001
0000
0001
0000
,  // measure 34
2000
0000
3000
0000
,  // measure 35
1001
0000
0000
0000
,  // measure 36
0000
0000
0000
0000
,  // measure 37
0000
0000
0000
0000
,  // measure 38
0000
0000
0000
0000
,  // measure 39
0001
0000
0100
0000
,  // measure 40
0001
0000
0100
0000
,  // measure 41
1000
0000
0100
0000
,  // measure 42
1000
0000
0100
0000
,  // measure 43
0002
0000
0003
0000
,  // measure 44
2000
0000
3000
0000
,  // measure 45
0200
0000
0300
0000
,  // measure 46
0020
0000
0030
0000
,  // measure 47
0001
0000
0001
0000
,  // measure 48
0010
0000
0010
0000
,  // measure 49
0100
0000
1000
0000
,  // measure 50
0002
0000
0000
0000
,  // measure 51
0003
0000
0000
0000
,  // measure 52
2000
0000
3000
0000
,  // measure 53
0001
0000
0100
0000
,  // measure 54
1000
0000
0010
0000
,  // measure 55
1000
0000
0100
0000
,  // measure 56
0001
0000
0010
0000
,  // measure 57
0100
0000
0100
0000
,  // measure 58
1000
0000
0010
0000
,  // measure 59
0100
0000
0100
0000
,  // measure 60
0001
0000
2000
0000
,  // measure 61
3000
0000
0000
0000
,  // measure 62
0002
0000
0003
0000
,  // measure 63
1000
0000
0100
0000
,  // measure 64
0100
0000
0010
0000
,  // measure 65
0001
0000
0001
0000
,  // measure 66
1000
0000
1000
0000
,  // measure 67
0010
0000
0100
0000
,  // measure 68
0020
0000
0030
0000
,  // measure 69
0110
0000
0000
0000
,  // measure 70
0110
0000
0000
0000
,  // measure 71
1001
0000
0000
0000
,  // measure 72
1001
0000
0000
0000
,  // measure 73
0110
0000
0000
0000
,  // measure 74
0110
0000
0010
0000
,  // measure 75
0100
0000
0001
0000
,  // measure 76
2000
0000
3000
0000
,  // measure 77
1001
0000
0000
0000
;
