#TITLE:Couleur=Blanche;
#SUBTITLE:;
#ARTIST:#FFFFFF;
#TITLETRANSLIT:;
#SUBTITLETRANSLIT:;
#ARTISTTRANSLIT:;
#GENRE:;
#CREDIT:;
#BANNER:;
#BACKGROUND:Couleur-Blanche-off-bg.png;
#LYRICSPATH:;
#CDTITLE:;
#MUSIC:Couleur=Blanche.ogg;
#OFFSET:-2.685000;
#SAMPLESTART:92.939087;
#SAMPLELENGTH:10.000000;
#SELECTABLE:YES;
#BPMS:0.000000=185.000000
,128.000000=180.000000
,130.000000=170.000000
,132.000000=160.000000
,134.000000=145.000000
,136.000000=127.500000
,139.000000=110.000000
,141.000000=100.000000
,142.000000=95.000000
,143.000000=90.000000
,146.000000=105.000000
,148.000000=124.999992
,150.000000=130.000000
,152.000000=140.000000
,154.000000=150.000000
,156.000000=160.000000
,158.000000=165.000000
,160.000000=180.000000
,162.000000=200.000000
,166.000000=205.000000
,168.000000=225.000000
,170.000000=235.000000
,174.000000=249.999985
,176.000000=262.500000
,178.000000=275.000000
,180.000000=280.000000
,182.000000=305.000000
,196.000000=185.000000
;
#STOPS:145.000000=1.373000,
344.000000=-2.270270,
351.000000=0.324000
;
#BGCHANGES:48.000=Couleur-Blanche-on-bg.png=0.000=1=0=1===CrossFade==,
116.000=Couleur-Blanche-off-bg.png=1.000=1=0=1===CrossFade==,
144.000=none-bg.png=1.000=0=0=1===CrossFade_Faster==,
145.021=Last Dress-bg.png=1.000=0=0=1===CrossFade_Faster==,
153.000=Never See You Again-bg.png=1.000=0=0=1===CrossFade_Fastest==,
161.000=Hansel to Gretel-bg.png=1.000=0=0=1===CrossFade_Fastest==,
169.000=Papipopepipupepa-bg.png=1.000=0=0=1===CrossFade_Fastest==,
182.000=Hansel to Gretel-bg.png=1.000=0=0=1=====,
182.250=none-bg.png=1.000=0=0=1===CrossFade_Fastest==,
184.000=Never See You Again-bg.png=1.000=0=0=1=====,
184.250=none-bg.png=1.000=0=0=1===CrossFade_Fastest==,
186.000=Last Dress-bg.png=1.000=0=0=1=====,
186.250=none-bg.png=1.000=0=0=1===CrossFade_Faster==,
189.500=Couleur-Blanche-off-bg.png=1.000=0=0=1=====,
189.750=none-bg.png=1.000=1=0=1===CrossFade==,
196.000=Couleur-Blanche-off-bg.png=1.000=0=0=1=====,
262.000=Couleur-Blanche-on-bg.png=1.000=1=0=1===CrossFade==,
334.000=Couleur-Blanche-off-bg.png=1.000=1=0=1===CrossFade==,
344.000=Couleur-Blanche-on-bg.png=0.300=0=0=1=====,
360.000=Couleur-Blanche-off-bg.png=0.500=1=0=1===CrossFade==,
99999=-nosongbg-=1.000=0=0=0 // don't automatically add -songbackground-
;
#KEYSOUNDS:;
#ATTACKS:;

//---------------dance-single - ----------------
#NOTES:
     dance-single:
     :
     Hard:
     15:
     0.721940,1.115091,0.488087,0.165199,0.431769,673.000000,608.000000,65.000000,22.000000,0.000000,0.000000,0.721940,1.115091,0.488087,0.165199,0.431769,673.000000,608.000000,65.000000,22.000000,0.000000,0.000000:
// measure 0
0000
0000
0000
0000
,  // measure 1
0010
1000
0010
0100
0002
0000
0100
0000
,  // measure 2
0103
0010
1000
0100
0010
0001
0010
0000
,  // measure 3
1000
0100
0010
0001
2000
0000
0001
0000
,  // measure 4
3001
0100
0010
0100
0001
1000
0100
0010
,  // measure 5
0001
1000
0010
0100
0002
0000
0100
0000
,  // measure 6
0103
0001
0100
0001
0010
0001
0100
0010
,  // measure 7
1000
0100
1000
0010
0200
0000
0010
0000
,  // measure 8
0310
0100
1000
0100
0001
0010
0100
0000
,  // measure 9
1000
0000
0001
0000
0100
0010
0000
0010
0100
0000
0000
0001
0000
0000
0001
0000
,  // measure 10
1000
0000
0100
0010
0100
0010
0100
0000
1000
0001
0000
0001
1000
0000
0010
0000
,  // measure 11
0100
0001
0100
0001
1000
0001
1000
0001
1000
0100
0010
0001
0010
0100
1000
0001
,  // measure 12
0100
0000
0000
0000
0000
0000
0000
0000
0000
0000
0000
0100
1000
0000
0000
0000
,  // measure 13
1020
0130
0101
0000
1010
0210
0301
0000
,  // measure 14
1010
0000
0110
0000
0101
0000
0000
0000
1100
0000
0000
0001
0100
0000
0000
0000
,  // measure 15
0021
0130
1100
0000
0011
0210
1300
0000
,  // measure 16
0011
0000
0110
0000
1100
0000
0000
0000
0101
0000
0000
1000
0100
0000
0000
0000
,  // measure 17
0201
0310
1010
0000
0101
0120
1030
0000
,  // measure 18
0101
0000
0110
0000
1010
0000
0000
0000
0101
0000
0000
0001
0010
0000
0000
0000
,  // measure 19
1100
0110
0011
0000
1200
0320
0031
0000
,  // measure 20
1000
0000
0001
0010
0001
0010
0001
0000
0010
0000
0100
1000
0100
0000
0000
0000
,  // measure 21
0010
0001
1000
0100
0000
1000
0010
0000
,  // measure 22
1000
0000
0100
0000
0010
0000
0001
0000
0000
0000
1000
0000
0010
0000
1000
0001
,  // measure 23
0100
0001
1000
0010
0000
1000
0100
0000
,  // measure 24
1000
0000
0010
0000
0100
0000
0001
0000
1000
0000
0100
0010
0100
0000
0010
0001
,  // measure 25
0010
0000
0100
0000
1000
0000
0001
0000
0000
0000
0001
0000
1000
0000
0010
1000
,  // measure 26
0010
0100
0001
1000
0000
1000
0001
0100
,  // measure 27
1000
0100
0001
0010
0000
0010
0100
0000
,  // measure 28
1000
0000
0010
0000
0001
0000
0010
0000
1000
0000
0010
0100
0010
0000
0000
0000
,  // measure 29
1001
0000
0010
0000
1000
0100
0100
0000
,  // measure 30
0110
0000
0001
1000
1001
0000
0010
1000
,  // measure 31
0000
1000
0100
0000
0110
0000
0001
1000
,  // measure 32
0001
1000
0010
0100
0010
0000
0110
0000
,  // measure 33
0001
0010
0100
1000
,  // measure 34
0001
1000
0010
0100
0010
0000
0100
0000
,  // measure 35
0001
0100
0010
1000
,  // measure 36
0200
0300
1000
0110
,  // measure 37
0100
0010
0001
0000
0101
0000
1010
0000
,  // measure 38
0011
0000
0000
0000
2100
0000
0000
0000
3001
0000
0100
0000
0001
0010
0001
0000
,  // measure 39
0010
0100
0010
0000
1000
0010
0001
0000
,  // measure 40
1000
0100
0201
0000
1300
0000
0001
0100
,  // measure 41
0010
0000
0110
0000
0100
0001
0020
0000
,  // measure 42
0000
0032
0103
1010
,  // measure 43
0010
0100
0001
0000
0100
0010
0100
0010
,  // measure 44
1000
0001
1000
0100
0010
0001
1000
0010
,  // measure 45
0100
0001
1000
0100
0020
0000
0000
0000
,  // measure 46
0000
0000
0000
0000
,  // measure 47
0000
0000
0000
0000
,  // measure 48
0000
0000
0000
0000
,  // measure 49
0030
0000
0000
0000
0000
0000
0000
0000
0001
0000
0000
1000
0000
0000
1000
0000
,  // measure 50
0001
0000
0010
0000
0100
0000
0010
0000
0001
0000
0100
0000
0000
1000
0000
0000
,  // measure 51
0100
0000
0001
0000
1000
0000
0100
0000
0010
0000
0000
0100
0000
0000
1100
0000
,  // measure 52
1000
0000
0000
0001
0000
0000
0011
0000
0001
0000
0100
0000
0010
0000
0000
1000
,  // measure 53
0000
0000
0100
0000
0010
0000
0100
0000
1000
0000
0000
0001
0000
0000
0001
0000
,  // measure 54
1000
0000
0100
0000
0010
0000
0100
0000
1000
0000
0010
0000
0000
0001
0000
0000
,  // measure 55
0010
1000
0001
0010
0100
1000
0001
0200
,  // measure 56
0000
0000
0310
1000
0100
0020
0000
0000
,  // measure 57
0031
0000
1000
0000
0010
0000
1000
0000
0001
0000
0000
0100
0000
0000
1010
0000
,  // measure 58
0010
0000
0100
0000
0001
0000
1000
0000
0100
0000
0010
0000
0000
0100
0000
0000
,  // measure 59
1000
0000
0001
0000
0010
0000
0001
0000
1000
0000
0000
0001
0000
0000
0101
0000
,  // measure 60
0100
0000
0000
0010
0000
0000
1010
0000
1000
0000
0100
0000
0001
0000
0000
0100
,  // measure 61
0000
1000
0001
0010
0100
1000
0010
0100
,  // measure 62
0010
0000
1000
0000
0001
0100
0001
0000
0100
0000
0001
0000
0010
0000
0100
0000
,  // measure 63
0010
0000
0001
0000
1000
0001
1000
0000
0100
1000
0100
1000
0001
1000
0001
1000
,  // measure 64
0001
0100
0010
1000
0010
0100
0001
1000
0100
0010
0001
1000
0100
0010
0001
0010
,  // measure 65
0100
1000
0001
0100
2002
0000
0000
0000
,  // measure 66
0000
0000
0000
0000
0000
0000
0000
0000
3003
0000
0011
0000
0000
1100
0000
0000
,  // measure 67
1010
0000
0010
0000
0100
0001
0100
0001
1000
0000
0000
0100
0000
0100
0010
0000
,  // measure 68
0001
0000
0010
0000
0001
1000
0001
0000
0100
0000
0110
0000
0000
1010
0000
0000
,  // measure 69
1001
0000
0001
0000
0010
0100
0010
0000
0100
0000
0000
0001
0000
0000
1000
0000
,  // measure 70
0010
0000
0000
0001
0000
0000
0010
0000
0100
0000
1000
0000
1010
0000
0000
1001
,  // measure 71
0000
0000
0101
0000
0001
0000
1000
0000
0001
0000
0000
0100
0000
0100
0010
0000
,  // measure 72
1000
0000
0010
0000
1000
0001
1000
0000
0100
0000
0110
0000
0000
0011
0000
0000
,  // measure 73
1001
0000
0001
0000
0100
0001
0100
0001
1000
0000
0100
0000
0010
0000
0001
0000
,  // measure 74
0010
0100
0010
0000
0001
0000
0100
0000
0010
0000
1000
0000
0010
0100
0010
0000
,  // measure 75
1000
0100
1000
0000
0001
0100
0001
0000
0100
0000
0100
0010
0000
0010
1000
0000
,  // measure 76
0001
0000
0010
0000
0001
0100
0001
0000
1000
0000
1100
0000
0000
1001
0000
0000
,  // measure 77
0101
0000
0001
0000
0100
0010
0100
0000
0010
0000
0000
0001
0000
0000
1000
0000
,  // measure 78
0100
0000
0000
0001
0000
0000
0100
0000
0010
0000
1000
0000
1100
0000
0000
0011
,  // measure 79
0000
0000
1010
0000
0010
0000
0100
0000
0001
0000
0001
0010
0000
0010
0100
0000
,  // measure 80
1000
0000
0001
0000
1000
0010
1000
0000
0001
0000
0100
0001
0000
0100
0001
0000
,  // measure 81
1000
0001
1000
0000
0010
0100
0010
0000
1000
0000
0100
0000
0010
0000
0001
0000
,  // measure 82
0100
0010
0100
0000
0001
0000
0010
0000
0100
1000
0100
1000
0010
0100
0010
0100
,  // measure 83
0001
1000
0001
1000
0100
1000
0100
1000
0100
0000
0000
0000
0000
0000
0000
0000
,  // measure 84
0000
0000
0000
0000
,  // measure 85
0000
0000
0000
0000
,  // measure 86
0000
0000
0000
0000
,  // measure 87
0000
0000
0000
0000
,  // measure 88
1000
0001
1000
0001
0010
0100
0010
0100
1000
0001
1000
0001
0100
0010
0100
0010
,  // measure 89
1000
0010
0100
0001
1000
0010
0100
0001
1000
0100
0010
0001
1000
0010
0100
0001
,  // measure 90
0100
0000
0000
0000
;

//---------------dance-single - ----------------
#NOTES:
     dance-single:
     :
     Challenge:
     17:
     0.787375,1.115091,0.645777,0.150181,0.514369,734.000000,648.000000,86.000000,20.000000,44.000000,0.000000,0.787375,1.115091,0.645777,0.150181,0.514369,734.000000,648.000000,86.000000,20.000000,44.000000,0.000000:
// measure 0
0000
0000
0000
0000
,  // measure 1
0010
1000
0100
0010
0001
0000
0010
0000
,  // measure 2
0100
1000
0001
0100
0001
0010
0001
0000
,  // measure 3
0100
0001
0010
0100
1000
0000
0100
0000
,  // measure 4
0010
0001
1000
0100
1000
0010
0100
0001
,  // measure 5
1000
0100
0001
0100
1000
0000
0010
0000
,  // measure 6
0100
0001
1000
0001
1000
0100
0010
0100
,  // measure 7
1000
0010
0001
0010
0100
0000
0001
0000
,  // measure 8
0100
0010
0001
0010
1000
0001
0100
0000
,  // measure 9
0001
0000
0100
0000
0010
1000
0000
1000
0001
0000
0000
0010
0000
0000
0100
0000
,  // measure 10
1000
0000
0001
1000
0010
1000
0010
0000
1000
0001
0000
0010
0001
0000
0010
0001
,  // measure 11
0010
0100
0010
0100
1000
0001
1000
0001
0100
0010
0100
0010
1000
0100
0010
0001
,  // measure 12
0010
0000
0000
0000
0000
0000
0000
0000
0000
0000
0000
1000
0100
0000
0000
0000
,  // measure 13
0102
0013
0110
MMMM
0101
0021
0130
MMMM
,  // measure 14
0101
0000
0011
0000
0110
0000
MMMM
0000
1100
0000
0000
0001
0100
0000
0000
0000
,  // measure 15
2100
3010
0110
MMMM
1100
1020
0130
MMMM
,  // measure 16
1100
0000
1010
0000
0110
0000
MMMM
0000
0101
0000
0000
1000
0100
0000
0000
0000
,  // measure 17
0102
0013
0110
MMMM
0101
0021
0130
MMMM
,  // measure 18
0101
0000
0011
0000
0110
0000
MMMM
0000
1100
0000
0000
1000
0010
0000
0000
0000
,  // measure 19
2100
3020
0130
MMMM
1100
1010
0101
MMMM
,  // measure 20
1100
0000
1000
0100
1000
0100
1000
0000
0010
0000
0100
0001
0100
0000
0000
0000
,  // measure 21
0010
1000
0100
0001
0000
0100
0010
0000
,  // measure 22
0001
0000
0010
0000
0100
0000
1000
0000
0000
0000
0010
0000
0100
0000
0010
1000
,  // measure 23
0010
1000
0100
0001
0000
0100
0010
0000
,  // measure 24
0001
0000
0010
0000
0100
0000
1000
0000
0001
0000
1000
0100
1000
0000
0010
1000
,  // measure 25
0010
0000
0100
0000
0001
0000
1001
0000
0000
0000
1000
0000
0001
0100
0001
0100
,  // measure 26
0001
0000
0010
0000
0100
0000
0010
0000
0001
0000
0100
0001
0100
0000
0010
1000
,  // measure 27
0010
0000
1000
0000
0100
0000
0110
0000
0000
0000
0010
0000
0100
1000
0100
1000
,  // measure 28
0100
1000
1020
0000
0130
0001
0021
0000
,  // measure 29
0130
0000
1010
0000
1000
0100
0001
0000
,  // measure 30
0110
0000
1001
0001
0101
0000
1100
0000
,  // measure 31
1000
0010
0001
0000
0110
0000
1001
0001
,  // measure 32
0011
0100
1000
0100
1000
0000
1001
0000
,  // measure 33
1010
0100
0001
0100
0001
0000
1001
0000
,  // measure 34
0011
0100
1000
0001
0100
0000
1001
0000
,  // measure 35
0010
1000
0100
0001
,  // measure 36
0220
0330
0001
0011
,  // measure 37
0100
1000
0001
0000
1020
0000
0031
0000
,  // measure 38
1010
0000
1000
0000
0100
0000
0000
0000
0001
0010
0001
0000
0100
0000
1000
0000
,  // measure 39
0100
0010
0100
0000
0100
0000
0001
0000
0001
0000
0000
0000
1000
0000
0100
0000
,  // measure 40
0110
0000
1000
0010
0110
0000
0100
0001
,  // measure 41
1001
0000
0110
0000
0010
0001
0200
0000
,  // measure 42
1300
0100
0001
0010
0001
0100
0101
0000
,  // measure 43
0010
1000
0200
0000
1300
0100
1000
0100
,  // measure 44
0010
0001
0100
0010
0100
0001
0010
0001
,  // measure 45
1000
0010
0100
0001
0020
0000
0000
0000
,  // measure 46
0000
0000
0000
0000
,  // measure 47
0000
0000
0000
0000
,  // measure 48
0000
0000
0000
0000
,  // measure 49
0030
0000
0000
0000
0000
0000
0000
0000
1000
0000
0000
0010
0000
0000
0100
0000
,  // measure 50
0001
0000
0010
0000
0001
0000
0100
0000
0100
0000
0010
0000
0000
0001
0000
0000
,  // measure 51
0010
0000
1000
0000
0100
0000
1000
0000
1100
0000
0000
0110
0000
0000
1100
0000
,  // measure 52
0011
0000
0000
0110
0000
0000
0011
0000
0001
0000
0100
0000
0010
0000
0000
1000
,  // measure 53
0000
0000
0100
0000
0001
0000
0100
0000
1000
0000
0000
0010
0000
0000
0100
0000
,  // measure 54
0001
0000
0010
0000
0001
0000
0100
0000
0100
0000
1000
0000
0000
0100
0000
0000
,  // measure 55
0001
0010
1000
0010
0100
1000
0010
2000
,  // measure 56
0000
3000
0001
0100
0001
0020
0000
0030
,  // measure 57
0001
0000
0010
0000
0100
0000
1000
0000
0001
0000
0001
0100
0000
0000
1000
0000
,  // measure 58
0100
0000
0010
0000
1000
0000
0001
0000
0100
0000
0001
0010
0000
0010
0100
0000
,  // measure 59
1000
0000
0001
0000
0100
0000
0010
0000
0101
0000
0000
0110
0000
0000
0101
0000
,  // measure 60
1010
0000
0000
0110
0000
0000
1010
0000
1000
0000
0100
0000
0010
0001
0000
0010
,  // measure 61
0001
0000
0100
0000
1000
0000
0100
0000
0001
0000
0100
0010
0000
0100
0010
0000
,  // measure 62
1000
0000
0001
0000
1000
0100
0010
0000
0001
0000
0010
0100
0000
1000
0100
0000
,  // measure 63
1000
0000
0001
0000
0010
0001
0010
0000
0100
0010
0100
0010
0001
1000
0001
1000
,  // measure 64
0010
0100
0010
0100
0001
0010
0100
1000
0100
0010
0001
0100
0010
1000
0100
1000
,  // measure 65
0001
1000
0010
0100
2002
0000
0000
0000
,  // measure 66
0000
0000
0000
0000
0000
0000
0000
0000
3003
0000
1010
0000
0000
0101
0000
0000
,  // measure 67
0011
0000
1000
0000
0100
1000
0100
1000
0100
0000
0010
0001
0000
0001
0010
0000
,  // measure 68
0001
0000
0100
0000
0010
1000
0010
0000
0100
0000
0110
0000
0000
1010
0000
0000
,  // measure 69
1100
0000
0100
0000
1000
0001
0010
0100
1000
0000
0010
0100
0000
0100
0001
0000
,  // measure 70
1000
0000
0100
0010
0000
0010
0001
0000
1000
0000
0010
0000
0110
0000
0000
1001
,  // measure 71
0000
0000
0110
0000
0010
0000
0001
0000
0100
0000
0010
1000
0000
1000
0010
0000
,  // measure 72
1000
0000
0100
0000
0010
0001
0010
0000
0100
0000
0110
0000
0000
0011
0000
0000
,  // measure 73
0101
0000
0100
0000
0001
0010
0001
0010
0100
0000
1000
0000
0010
0000
0001
0000
,  // measure 74
0010
0100
0010
0000
0100
0000
0001
0000
0010
0000
1000
0000
0010
0100
0010
0000
,  // measure 75
0001
0010
0001
0010
0100
1000
0100
1000
0010
0000
0100
0001
0000
0100
0010
0000
,  // measure 76
0100
0000
0001
0000
0010
0001
1000
0001
0100
0000
1010
0000
0000
1100
0000
0000
,  // measure 77
0011
0000
0010
0000
0001
1000
0001
0000
0100
0000
0010
1000
0000
1000
0100
0000
,  // measure 78
0010
0000
0010
0001
0000
0001
0100
0000
1000
0000
0100
0000
0110
0000
0000
1001
,  // measure 79
0000
0000
0110
0000
0100
0000
0001
0000
0100
0000
1000
0100
1000
0100
1000
0000
,  // measure 80
0001
0100
0010
0000
1000
0001
0010
0000
0100
0000
0010
0001
0010
0001
0010
0000
,  // measure 81
0001
0100
0010
0000
1000
0100
0010
0100
0010
0000
0001
0000
0100
0000
1000
0000
,  // measure 82
0100
0010
0100
0000
0010
0000
1000
0000
0100
0010
0100
0010
0001
0100
0001
0100
,  // measure 83
0010
1000
0001
0010
0100
1000
0001
0100
0001
0000
0000
0000
0000
0000
0000
0000
,  // measure 84
0000
0000
0000
0000
,  // measure 85
0000
0000
0000
0000
,  // measure 86
0000
0000
0000
0000
,  // measure 87
0000
0000
0000
0000
,  // measure 88
0001
0100
0010
1000
0001
0010
0100
1000
0001
0100
0010
1000
0001
0010
0100
1000
,  // measure 89
0001
0100
0010
1000
0100
0010
0001
0100
0010
1000
0100
0010
0001
0100
0010
1000
,  // measure 90
0100
0000
0000
0000
;

//---------------dance-single - ----------------
#NOTES:
     dance-single:
     :
     Medium:
     12:
     0.549232,0.844766,0.360433,0.307870,0.168953,512.000000,464.000000,48.000000,41.000000,0.000000,0.000000,0.549232,0.844766,0.360433,0.307870,0.168953,512.000000,464.000000,48.000000,41.000000,0.000000,0.000000:
// measure 0
0000
0000
0000
0000
,  // measure 1
0001
0010
0100
2000
0000
0000
0000
0000
,  // measure 2
3000
0100
0010
0100
1000
0100
0010
0000
,  // measure 3
0001
0100
0010
2000
0000
0000
0000
0000
,  // measure 4
3000
0010
0100
0001
1000
0100
0010
0001
,  // measure 5
1000
0010
0100
0002
0000
0000
0000
0000
,  // measure 6
0003
0100
0001
0100
0010
1000
0001
1000
,  // measure 7
0001
0010
0100
2000
0000
0000
0000
0000
,  // measure 8
3000
0100
0010
0000
0110
0000
1001
0000
,  // measure 9
0010
0000
1000
0000
0010
0000
0000
0000
1010
0000
0000
1001
0000
0000
0101
0000
,  // measure 10
0001
0000
0010
0000
0001
0000
0000
0000
0011
0000
0000
1001
0000
0000
1100
0000
,  // measure 11
0200
0000
0000
0000
,  // measure 12
0300
0000
0000
1001
,  // measure 13
1020
0130
1020
0130
,  // measure 14
2010
0000
0000
0000
3100
0000
0000
0000
1010
0000
0000
0001
0100
0000
0000
0000
,  // measure 15
0201
0310
0201
0310
,  // measure 16
0102
0000
0000
0000
0013
0000
0000
0000
0101
0000
0000
0010
1000
0000
0000
0000
,  // measure 17
1200
0310
1200
0310
,  // measure 18
2100
0000
0000
0000
3010
0000
0000
0000
1100
0000
0000
0010
0001
0000
0000
0000
,  // measure 19
0021
1030
0201
1300
,  // measure 20
1000
0000
0010
0000
0100
0010
0100
0000
0001
0000
0010
0100
0010
0000
0000
0000
,  // measure 21
0100
0010
0001
0010
0000
0100
1000
0000
,  // measure 22
0100
0010
0001
0010
0000
0100
1000
0010
,  // measure 23
0100
0010
1000
0010
0000
0100
0001
0000
,  // measure 24
0100
0010
1000
0010
0000
0100
0001
0010
,  // measure 25
0100
1000
0010
0200
0000
0310
0100
0000
,  // measure 26
0001
0100
0001
0100
0010
1000
0010
0000
,  // measure 27
0100
0001
0010
2000
0000
3010
0100
0000
,  // measure 28
0010
0001
0100
0000
0010
1000
0100
0000
,  // measure 29
0110
0000
0001
0000
0010
0100
1000
0000
,  // measure 30
0010
0000
1000
0100
0110
0000
0001
0010
,  // measure 31
0000
0100
1000
0000
0010
0000
0100
0000
,  // measure 32
0001
0100
0001
0100
0020
0000
0000
0000
,  // measure 33
2030
0000
3002
0000
,  // measure 34
1003
0100
1000
0100
0020
0000
0000
0000
,  // measure 35
0032
0000
2003
0000
,  // measure 36
0002
3003
0002
0100
,  // measure 37
0013
1000
0010
0000
2000
0000
3020
0000
,  // measure 38
0032
0000
0203
0000
0310
1000
0010
0000
,  // measure 39
1000
0100
1000
0100
0001
0000
0100
0000
,  // measure 40
1000
0100
2000
0000
3001
0000
0100
0010
,  // measure 41
0100
0010
1000
0200
,  // measure 42
0000
0320
0031
1000
,  // measure 43
0010
0100
0010
0000
1000
0000
0001
0000
,  // measure 44
1000
0100
0010
0000
0001
0010
0001
0000
,  // measure 45
1000
0010
1000
0000
0020
0000
0000
0000
,  // measure 46
0000
0000
0000
0000
,  // measure 47
0000
0000
0000
0000
,  // measure 48
0000
0000
0000
0000
,  // measure 49
0030
0000
0000
0000
0000
0000
0000
0000
0001
0000
0000
0100
0000
0000
0100
0000
,  // measure 50
0010
0000
1000
0000
0010
0000
1000
0000
0001
0000
0010
0000
0000
0100
0000
0000
,  // measure 51
1000
0000
0100
0000
0001
0000
0100
0000
1000
0000
0000
0100
0000
0000
0010
0000
,  // measure 52
1000
0000
0000
0100
0000
0000
0010
0000
0001
0000
1000
0000
0010
0000
0000
0100
,  // measure 53
0000
0000
0001
0000
0100
0000
0010
0000
1000
0000
0000
0100
0000
0000
0100
0000
,  // measure 54
0010
0000
0001
0000
0010
0000
0001
0000
1000
0000
0010
0000
0000
0100
0000
0000
,  // measure 55
0001
0100
1000
0100
0001
0100
0001
0200
,  // measure 56
0000
0000
0310
1000
0010
2000
0000
0000
,  // measure 57
3001
0000
0010
0000
0001
0000
0000
0000
1000
0000
0000
0010
0000
0000
0010
0000
,  // measure 58
0100
0000
0001
0000
0100
0000
0001
0000
1000
0000
0100
0000
0000
0010
0000
0000
,  // measure 59
0001
0000
0010
0000
1000
0000
0010
0000
0001
0000
0000
0010
0000
0000
0100
0000
,  // measure 60
0001
0000
0000
0010
0000
0000
0100
0000
1000
0000
0001
0000
0100
0000
0000
0010
,  // measure 61
0000
0000
1000
0000
0010
0000
0100
0000
0001
0000
0000
0010
0000
0000
0010
0000
,  // measure 62
0100
0000
1000
0000
0100
0000
1000
0000
0001
0000
0100
0000
0000
0010
0000
0000
,  // measure 63
1000
0010
0001
0010
1000
0010
1000
0010
,  // measure 64
0110
0000
0001
0010
0001
0010
0110
0000
,  // measure 65
1000
0100
0010
0000
0200
0000
0000
0000
,  // measure 66
0000
0000
0000
0000
0000
0000
0000
0000
0300
0000
1100
0000
0000
1001
0000
0000
,  // measure 67
0011
0000
0001
0000
0010
0100
1000
0000
0001
0000
0000
1000
0000
0000
0100
0000
,  // measure 68
0010
0000
0001
0000
0010
0000
0100
0000
0000
0000
1010
0000
0000
1001
0000
0000
,  // measure 69
0101
0000
0100
0000
0010
0000
0100
0000
1000
0000
0000
0100
0000
0000
0001
0000
,  // measure 70
1000
0000
0000
0100
0000
0000
0001
0000
0100
0000
0010
0000
0110
0000
0000
1100
,  // measure 71
0000
0000
1001
0000
1000
0000
0010
0000
1000
0000
0000
0001
0000
0000
0100
0000
,  // measure 72
0010
0000
1000
0000
0010
0000
0100
0000
0000
0000
0011
0000
0000
1001
0000
0000
,  // measure 73
1100
0100
0010
0100
1000
0010
0100
2000
,  // measure 74
0000
0000
3001
0010
0100
0002
0000
0000
,  // measure 75
0103
0000
0100
0000
0010
0000
0010
0000
1000
0000
0000
0001
0000
0000
0010
0000
,  // measure 76
0001
0000
1000
0000
0001
0000
0010
0000
0001
0000
0101
0000
0000
1001
0000
0000
,  // measure 77
1010
0000
0010
0000
0100
0000
0010
0000
0001
0000
0000
0010
0000
0000
1000
0000
,  // measure 78
0001
0000
0000
0100
0000
0000
1000
0000
0100
0000
0001
0000
1001
0000
0000
1010
,  // measure 79
0000
0000
0011
0000
0001
0000
0100
0000
0001
0000
0000
1000
0000
0000
0010
0000
,  // measure 80
1000
0000
0001
0000
1000
0000
0010
0000
1000
0000
1100
0000
0000
1001
0000
0000
,  // measure 81
0011
0010
0100
0010
0001
0100
0010
0002
,  // measure 82
0000
0000
1003
0100
0010
2000
0000
0000
,  // measure 83
3010
0100
0010
0100
0000
0000
0000
0000
,  // measure 84
0000
0000
0000
0000
,  // measure 85
0000
0000
0000
0000
,  // measure 86
0000
0000
0000
0000
,  // measure 87
0000
0000
0000
0000
,  // measure 88
0001
1000
0001
1000
0001
1000
0001
1000
,  // measure 89
0010
0100
0010
0100
0010
0100
0010
0100
0010
0100
0010
0100
0010
0100
0010
0100
,  // measure 90
0010
0000
0000
0000
;

//---------------dance-single - ----------------
#NOTES:
     dance-single:
     :
     Easy:
     7:
     0.310016,0.371697,0.210253,0.435524,0.000000,289.000000,261.000000,28.000000,58.000000,0.000000,0.000000,0.310016,0.371697,0.210253,0.435524,0.000000,289.000000,261.000000,28.000000,58.000000,0.000000,0.000000:
// measure 0
0000
0000
0000
0000
,  // measure 1
0001
0100
0002
0000
,  // measure 2
0003
1000
0100
0010
,  // measure 3
0001
0100
0002
0000
,  // measure 4
0003
0100
0010
1000
,  // measure 5
0100
0010
0200
0000
,  // measure 6
0300
1000
0100
1000
,  // measure 7
0010
1000
0020
0000
,  // measure 8
0030
0100
0110
1001
,  // measure 9
0001
0010
0001
0010
,  // measure 10
0100
1000
0010
0100
,  // measure 11
0002
0000
0000
0000
,  // measure 12
0003
0000
0000
0000
,  // measure 13
2020
3030
0220
0330
,  // measure 14
0202
0303
0001
1000
,  // measure 15
0022
0033
0220
0330
,  // measure 16
2200
3300
0001
1000
,  // measure 17
0202
0303
0220
0330
,  // measure 18
2020
3030
0001
1000
,  // measure 19
2200
3300
0022
0033
,  // measure 20
1000
0100
0001
0010
,  // measure 21
1000
0010
0100
0000
,  // measure 22
0001
0010
0100
0000
,  // measure 23
1000
0010
0100
0100
,  // measure 24
0001
0010
0100
0100
,  // measure 25
2000
0010
3001
0000
,  // measure 26
0002
0010
1003
0000
,  // measure 27
0001
0010
0100
0100
,  // measure 28
2000
0010
3002
0100
,  // measure 29
1003
0000
0011
0000
0000
0100
1000
0000
,  // measure 30
0001
0100
1000
1010
,  // measure 31
0000
0001
0100
0000
0001
0000
0010
0000
,  // measure 32
2000
0000
3200
0000
,  // measure 33
0320
0000
0032
0000
,  // measure 34
2003
0000
3020
0000
,  // measure 35
0230
0000
0302
0000
,  // measure 36
0003
0000
0001
0010
,  // measure 37
1000
0010
0001
0100
,  // measure 38
0010
2000
3001
0010
,  // measure 39
0001
1000
0001
0000
0100
0000
0010
0000
,  // measure 40
1000
0001
2000
0000
3100
0000
0010
0000
,  // measure 41
0001
1000
0010
0020
,  // measure 42
0000
0230
0301
0001
,  // measure 43
1000
1000
0100
0010
,  // measure 44
0001
0100
0010
0010
,  // measure 45
0100
0100
0110
0000
,  // measure 46
0000
0000
0000
0000
,  // measure 47
0000
0000
0000
0000
,  // measure 48
0000
0000
0000
0000
,  // measure 49
0000
0000
0001
0010
,  // measure 50
0010
0100
1000
0010
,  // measure 51
0100
0010
1010
0000
,  // measure 52
0011
0000
1001
0100
,  // measure 53
1000
0001
0100
0010
,  // measure 54
1000
0100
0010
0100
,  // measure 55
1000
0010
0002
0100
,  // measure 56
0000
2003
0100
0000
,  // measure 57
3010
0010
1000
0100
,  // measure 58
0100
0010
0001
0100
,  // measure 59
0010
0100
0101
0000
,  // measure 60
1100
0000
1001
0010
,  // measure 61
0001
1000
0010
0100
,  // measure 62
0001
0001
0100
0010
,  // measure 63
1000
1000
0002
0010
,  // measure 64
1003
2000
0010
3001
,  // measure 65
0100
0100
0020
0000
,  // measure 66
0000
0000
0030
0000
,  // measure 67
1001
1001
0010
0001
,  // measure 68
0010
0000
0200
0000
0000
1000
0000
0000
,  // measure 69
0010
0301
0100
1000
,  // measure 70
0100
0010
0002
0100
,  // measure 71
2003
0100
3010
0001
,  // measure 72
0010
0000
0200
0000
0000
1000
0000
0000
,  // measure 73
0010
0301
0100
0110
,  // measure 74
0000
1000
1001
0000
,  // measure 75
0001
0010
0100
1000
,  // measure 76
0100
0000
0020
0000
0000
0001
0000
0000
,  // measure 77
0100
1030
0010
0001
,  // measure 78
0010
0100
2000
0010
,  // measure 79
3002
0010
0103
1000
,  // measure 80
0100
0000
0020
0000
0000
0001
0000
0000
,  // measure 81
0100
1030
0010
0110
,  // measure 82
0100
0001
1001
1000
,  // measure 83
0100
0010
0000
0000
,  // measure 84
0000
0000
0000
0000
,  // measure 85
0000
0000
0000
0000
,  // measure 86
0000
0000
0000
0000
,  // measure 87
0000
0000
0000
0000
,  // measure 88
0002
0000
0000
0000
,  // measure 89
2000
0000
0000
0000
,  // measure 90
3003
0000
0000
0000
;

//---------------dance-single - ----------------
#NOTES:
     dance-single:
     :
     Beginner:
     4:
     0.169490,0.236534,0.090108,0.217762,0.000000,158.000000,146.000000,12.000000,29.000000,0.000000,0.000000,0.169490,0.236534,0.090108,0.217762,0.000000,158.000000,146.000000,12.000000,29.000000,0.000000,0.000000:
// measure 0
0000
0000
0000
0000
,  // measure 1
0000
0000
0000
0000
,  // measure 2
0000
0000
0000
0000
,  // measure 3
0000
0000
0000
0000
,  // measure 4
0000
0000
0000
0000
,  // measure 5
0000
0000
0000
0000
,  // measure 6
0000
0000
0000
0000
,  // measure 7
0000
0000
0000
0000
,  // measure 8
0000
0000
0000
0000
,  // measure 9
1000
0000
1000
0000
,  // measure 10
0001
1000
0001
1000
,  // measure 11
0002
0000
0000
0000
,  // measure 12
0003
0000
0000
0000
,  // measure 13
2002
0000
3003
0000
,  // measure 14
2002
0000
3003
0000
,  // measure 15
0220
0000
0330
0000
,  // measure 16
0220
0000
0330
0000
,  // measure 17
2002
0000
3003
0000
,  // measure 18
2002
0000
3003
0000
,  // measure 19
0220
0330
0220
0330
,  // measure 20
0000
0000
0000
0000
,  // measure 21
0001
0001
0001
0000
,  // measure 22
1000
1000
1000
0000
,  // measure 23
0010
0010
0010
0000
,  // measure 24
0100
0100
0100
0000
,  // measure 25
0001
1000
0001
0000
,  // measure 26
1000
0001
1000
0000
,  // measure 27
0010
0000
0100
0000
,  // measure 28
0220
0000
0330
0000
,  // measure 29
1001
0000
0000
0100
,  // measure 30
1000
0000
1001
0000
,  // measure 31
0000
0100
0001
0100
,  // measure 32
0002
0000
0003
0000
,  // measure 33
2000
0000
3000
0000
,  // measure 34
0200
0000
0300
0000
,  // measure 35
0020
0000
0030
0000
,  // measure 36
0000
0000
0000
0010
,  // measure 37
0000
0010
0000
1000
,  // measure 38
0001
1000
0000
0100
,  // measure 39
0000
0010
0000
0001
,  // measure 40
0000
1000
0000
0001
,  // measure 41
0001
0000
0001
1000
,  // measure 42
1000
0000
0001
0000
,  // measure 43
0010
0000
0100
0100
,  // measure 44
0100
0000
1000
0000
,  // measure 45
0010
0000
0100
0000
,  // measure 46
0000
0000
0000
0000
,  // measure 47
0000
0000
0000
0000
,  // measure 48
0000
0000
0000
0000
,  // measure 49
0000
0000
0010
0000
,  // measure 50
0100
0000
0001
0001
,  // measure 51
0001
0000
0010
0000
,  // measure 52
0100
0000
0010
0000
,  // measure 53
0100
0000
1000
0000
,  // measure 54
0010
0000
0001
0000
,  // measure 55
0010
0000
2000
0000
,  // measure 56
3000
0002
0000
0003
,  // measure 57
1000
1000
0100
0000
,  // measure 58
0010
0000
0001
0001
,  // measure 59
0001
0000
0100
0000
,  // measure 60
0010
0000
0100
0000
,  // measure 61
0010
0000
1000
0000
,  // measure 62
0100
0000
0001
0000
,  // measure 63
0100
0000
2000
0000
,  // measure 64
3000
0002
0000
0003
,  // measure 65
1000
1000
0000
0000
,  // measure 66
0000
0000
0000
0000
,  // measure 67
0000
0000
0001
0000
,  // measure 68
0100
0000
0001
0000
,  // measure 69
1000
1000
0100
0000
,  // measure 70
0010
0000
0001
1000
,  // measure 71
0001
1000
0001
0000
,  // measure 72
0010
0000
0001
0000
,  // measure 73
0100
0000
0010
0010
,  // measure 74
0000
1000
1000
0000
,  // measure 75
0100
0100
1000
0000
,  // measure 76
0100
0000
1000
0000
,  // measure 77
0001
0001
0100
0000
,  // measure 78
0010
0000
1000
0001
,  // measure 79
1000
0001
1000
0000
,  // measure 80
0010
0000
1000
0000
,  // measure 81
0100
0000
0010
0010
,  // measure 82
0000
0001
0001
0000
,  // measure 83
0100
0100
0000
0000
,  // measure 84
0000
0000
0000
0000
,  // measure 85
0000
0000
0000
0000
,  // measure 86
0000
0000
0000
0000
,  // measure 87
0000
0000
0000
0000
,  // measure 88
2002
0000
0000
0000
,  // measure 89
0000
0000
0000
0000
,  // measure 90
3003
0000
0000
0000
;
