#TITLE:Chirality;
#SUBTITLE:;
#ARTIST:かめりあ;
#TITLETRANSLIT:;
#SUBTITLETRANSLIT:;
#ARTISTTRANSLIT:Camellia;
#GENRE:;
#CREDIT:;
#BANNER:;
#BACKGROUND:Chirality-bg.png;
#LYRICSPATH:;
#CDTITLE:;
#MUSIC:Chirality.ogg;
#OFFSET:0.037000;
#SAMPLESTART:68.626999;
#SAMPLELENGTH:10.000001;
#SELECTABLE:YES;
#BPMS:0.000000=200.979996
;
#STOPS:
;
#BGCHANGES:;
#KEYSOUNDS:;
#ATTACKS:;

//---------------dance-single - ----------------
#NOTES:
     dance-single:
     :
     Hard:
     13:
     0.679521,0.869218,0.732524,0.313939,0.123673,500.000000,423.000000,77.000000,33.000000,0.000000,0.000000,0.679521,0.869218,0.732524,0.313939,0.123673,500.000000,423.000000,77.000000,33.000000,0.000000,0.000000:
0000
0000
0000
0000
,
0000
0000
0000
0000
,
0000
0000
0000
0000
,
0000
0000
0000
0000
,
0000
0000
0000
0000
,
0000
0000
0000
0000
,
0001
0010
0100
1000
0010
0100
0001
0000
,
1000
0010
0100
0001
0010
0000
0001
0010
,
0100
1000
0010
0100
0001
0000
1000
0010
,
0100
0001
0010
0000
0002
0010
2003
0010
,
3001
0011
0000
0000
0011
0100
1000
0010
,
0000
0000
0000
0000
,
1000
1010
0000
0000
1010
0100
0001
0010
,
0000
0000
0000
0000
,
1000
1100
0000
0000
0110
0001
0100
0010
,
0000
0000
0000
0000
,
0001
0101
0000
0000
0110
1000
0100
0010
,
0000
0000
0000
0000
0002
2003
3010
1010
,
1001
0000
0000
0000
0101
0000
0000
0000
1000
0000
0000
0100
0000
0000
0010
0000
,
0002
0000
1000
0000
0103
0010
0001
0000
,
0110
0000
0000
0000
1001
0000
0000
0000
0001
0000
0000
0100
0000
0000
0010
0000
,
1000
0000
0000
0000
0010
0000
0000
0010
0001
0000
0000
0001
1000
0000
0000
1000
,
0100
0000
0000
0000
0002
0000
0000
0000
0100
0000
0000
0100
0003
0000
0100
0000
,
0002
0000
0103
0100
1000
0010
0020
0000
,
0230
0000
0000
0001
0000
0000
0001
0000
0301
0000
0010
0000
,
1000
0010
0100
0110
,
1001
0000
0000
0000
0010
0000
0100
0000
0001
0000
0000
0100
0000
0000
0010
0000
,
2000
0000
0001
0000
3100
0010
1000
0000
,
0110
0000
0000
0000
1001
0000
0000
0000
1000
0000
0000
0100
0000
0000
0010
0000
,
0001
0000
0000
0000
0010
0000
0000
0010
1000
0000
0000
1000
0001
0000
0000
0001
,
0200
0000
0000
0000
0300
0000
0010
0000
0100
0000
0001
0000
1000
0000
0000
0001
0000
0000
0001
0000
0000
1000
0000
0000
,
0001
0100
0010
1000
1000
0100
0020
0030
,
1100
0010
0101
1000
,
1100
0000
0001
0000
0101
0000
1000
0100
,
1000
0001
0000
1000
0000
0010
0000
0001
,
0000
1000
0000
0010
0000
0001
0000
0010
,
1000
0001
0000
0010
0000
1000
0000
0001
,
0000
0010
0000
1000
0000
0011
0000
0101
,
0001
0100
0000
1000
0000
0010
0000
0001
,
0000
0100
0000
1000
0000
0010
0000
1000
,
1000
0100
0000
0001
0000
0010
0000
1000
,
0000
0100
0000
0020
0002
0000
0033
0000
,
1000
1010
0000
1000
1001
0000
0001
0011
,
0000
0001
1001
0000
0001
1000
1000
0001
,
1000
1001
0000
0001
0101
0000
0001
1001
,
0000
1000
1100
0000
1000
0001
0001
1000
,
0010
0110
0000
0010
1010
0000
1000
1100
,
0000
0100
0110
0000
2002
0000
3003
0000
,
0100
0110
0000
0100
0101
0000
0001
0011
,
0000
0010
0110
0000
2000
0100
3002
0103
,
2100
0000
0000
0000
3010
1001
0000
1100
,
0000
0000
0000
0000
,
0102
0000
0000
0000
0013
1001
0000
0101
,
0000
0000
0000
0000
,
0210
0000
0000
0000
0301
1001
0000
0110
,
0000
0000
0000
0000
,
0210
0000
0000
0000
1300
1001
0000
0220
,
0330
0000
0000
0000
2000
3200
0301
0010
,
0100
1000
0001
0010
1000
0001
0100
0010
,
0001
1000
0010
0001
0010
0100
1000
0100
,
0001
0010
1000
0010
0001
0100
0001
0010
,
0001
1000
0010
1000
0010
0001
1000
0100
,
0001
1000
0100
0001
1000
0001
0100
1000
,
0010
0001
1000
0001
0010
1000
0010
0001
,
0010
0000
0000
1000
0000
0000
0001
0000
0010
0000
0000
1000
0000
0000
0010
0000
,
0001
1000
0002
0100
0000
1003
1001
2200
,
3300
0000
1001
0001
1000
0100
0001
1000
,
0010
0100
1000
0001
0100
1000
0100
0010
,
0001
0010
1000
0100
0001
0100
1000
0010
,
1000
0100
1000
0001
0100
0001
0100
1000
,
0001
0010
1000
0001
0010
1000
0001
1000
,
0010
0001
0100
1000
0001
1000
0100
0001
,
0100
0000
0000
1000
0000
0000
0100
0000
0001
0000
0000
1000
0000
0000
0100
0000
,
0011
0000
0000
1001
0000
0000
0101
0000
1100
0000
0000
1001
0000
0000
1010
0000
,
0100
0101
0000
0001
0000
0001
0101
0000
,
0101
0000
0011
0011
0000
0011
0000
1000
,
1100
0000
1100
0000
1010
1010
0000
1010
,
0000
1001
1001
0000
0110
0000
1001
0001
,
0100
0000
1000
0000
0100
0001
0100
0001
0200
0000
0302
0000
0023
0000
0230
0000
,
1300
0100
0010
0001
0100
0010
1000
0000
,
0001
0100
0010
1000
0100
0000
1000
0100
,
0010
0001
0100
0010
1000
0000
0001
0100
,
0010
0000
0000
1000
0000
0000
0100
0000
0000
0001
0000
0000
1000
0000
0000
0000
0010
0000
0000
0000
0001
0000
0000
0000
,
0000
0101
0000
0000
0000
0000
0000
0000
0000
0000
0000
0000
0000
0000
0000
0000
;

//---------------dance-single - ----------------
#NOTES:
     dance-single:
     :
     Challenge:
     17:
     0.958125,1.185298,0.932303,0.456638,0.675444,705.000000,607.000000,98.000000,48.000000,0.000000,0.000000,0.958125,1.185298,0.932303,0.456638,0.675444,705.000000,607.000000,98.000000,48.000000,0.000000,0.000000:
0000
0000
0000
0000
,
0000
0000
0000
0000
,
0000
0000
0000
0000
,
0000
0000
0000
0000
,
0000
0000
0000
0000
,
0000
0000
0000
0000
,
0001
0001
0010
0100
1000
0010
0100
0001
,
0001
0000
0010
0000
0100
0000
1000
0001
0100
0010
0100
0001
1000
0000
1000
0000
,
0100
0010
0001
0100
0010
1000
1000
0100
,
0010
0000
0001
0100
0010
0000
1000
0100
1000
0001
0100
0010
0100
0000
0010
0000
,
0110
0110
0000
0000
0110
0001
0010
0100
,
0000
2000
3020
0230
0302
0003
0000
0000
,
0110
0110
0000
0000
0110
1000
0100
0010
,
0000
0000
0001
0010
0001
0000
0010
0100
1000
0000
0001
0000
1000
0000
0100
0000
,
0110
0110
0000
0000
0110
0001
0100
0010
,
0000
2020
0030
3000
,
0110
0000
0110
0000
0000
0000
0000
0000
0110
0000
1000
0000
0100
0010
0001
0010
,
0002
0000
0003
0000
0200
0001
0320
1000
,
0130
0000
0000
0000
0001
1000
0001
1000
0001
0000
0010
0100
0000
0100
1000
0000
,
2001
0000
0010
0000
3001
0100
0010
0000
,
1001
0000
0000
0000
1000
0001
1000
0001
1000
0000
0100
0010
0000
0010
0001
0000
,
0001
0000
0100
0000
1000
0000
0000
0100
0001
0000
0000
1000
0010
0000
0000
0100
,
0010
0000
0000
0000
0201
0000
0000
0000
0310
0000
1000
0001
0000
1000
0100
0000
,
0200
0000
0301
0001
0100
1000
0200
0300
,
0110
0000
0000
0021
0000
0000
0031
0000
0100
0000
0010
0000
,
1000
0010
0100
0000
0001
0010
0200
1000
,
0310
0000
0000
0000
0100
0010
0100
0010
0001
0000
1000
0001
0000
1000
0100
0000
,
2100
0000
0001
0000
3100
1000
0010
0000
,
0110
0000
0000
0000
0100
0010
0100
0010
1000
0000
0001
1000
0000
0001
0100
0000
,
0102
0000
0000
0000
0013
0000
0000
0100
1000
0000
0000
0001
0010
0000
0000
0100
,
0020
0000
0000
0000
0000
0000
0000
0000
0000
0000
0000
0000
0031
0000
0000
0000
0010
0000
0000
0000
1000
0000
0000
0000
0001
0000
0000
0100
0000
0000
0010
0000
0000
0100
0000
0000
0010
0000
0000
0000
0000
0000
0001
0000
0000
0000
0000
0000
,
1000
0010
0100
0010
0100
0000
0001
0000
0001
0000
0010
0000
0200
0000
0300
0000
,
1100
0000
0101
0000
1100
0010
0101
0000
,
1100
0000
0010
0000
0101
0000
1000
0000
0100
0000
0010
0000
0001
1000
0001
1000
,
0100
0200
0000
0010
0000
0301
0000
0200
,
0000
1000
0000
0010
0000
0301
0100
1000
,
0010
0200
0000
0010
0000
1300
0000
0200
,
0000
0000
0001
0000
0000
0000
0310
1000
0010
1000
0001
0100
0001
0000
0010
0000
,
0100
1100
0000
1001
0000
0101
0000
0210
,
0000
1000
0000
0301
0000
0110
0010
1000
,
0100
1100
0000
1001
0000
0101
0000
0210
,
0000
1000
0000
0302
2000
0000
3003
0000
,
0011
1001
0000
1001
0101
0000
1010
1001
,
0000
0000
1001
0000
1100
0000
0000
0000
0011
0000
0010
0100
0010
0000
0100
0000
,
1100
1001
0000
0101
1001
0000
1010
1001
,
0000
0000
0011
0000
1001
0000
1000
0001
0010
0100
0010
0100
1000
0000
0001
0000
,
0101
0110
0000
1010
0110
0000
0011
0110
,
0000
1100
0110
0000
2002
0000
3003
0000
,
1010
0110
0000
0011
0110
0000
1100
1001
,
0000
0000
0101
0000
0110
0000
0000
0000
0010
1000
0001
1000
0010
1000
0001
0010
,
0200
0000
0000
0000
0310
1001
0000
0101
,
0000
0002
0023
0230
2300
3000
0000
0000
,
2100
0000
0000
0000
3010
1001
0000
1100
,
0000
0000
0000
0000
0000
0000
1000
0000
0000
0100
0000
0000
0010
0000
0000
0000
0000
0000
0001
0000
0000
0010
0000
0000
0001
0000
0000
0010
0000
0000
0100
0000
0000
1000
0000
0000
0001
0000
0000
0000
0001
0000
0000
0000
0100
0000
0000
0000
,
0102
0000
0000
0000
0013
1001
0000
0101
,
0000
0220
0300
0030
,
2100
0000
0000
0000
3010
1000
0010
1000
0001
0100
0010
0100
0001
0010
0100
1000
,
0100
0000
0010
0010
0200
1000
0320
0001
,
0130
1000
0100
0000
1000
0000
0010
1000
0010
0000
1000
0000
0100
0010
0100
0000
,
0010
0000
0001
1000
0001
0000
0100
0000
0010
0100
0001
0000
0010
0100
1000
0000
,
0001
0100
0001
0000
1000
0000
0001
0010
0001
0000
1000
0000
0010
0100
0010
0000
,
1000
0000
0100
0010
0100
0000
0010
0000
0001
0100
0010
0000
1000
0100
1000
0000
,
0001
0100
0001
0100
0001
0000
0010
0100
1000
0000
0010
0000
0100
0001
0100
0000
,
0001
0000
0000
0000
0000
0000
1000
0000
0000
0100
0000
0000
0001
0000
0000
0000
0000
0000
0100
0000
0000
0000
0000
0000
0010
0000
0000
0000
0000
0000
0100
0000
1000
0000
0100
0000
1000
0000
0000
0000
0000
0000
0010
0000
0000
0000
0000
0000
,
1000
0000
0010
0100
0000
0100
0001
0000
0001
0000
0010
0100
0000
0100
1000
0000
,
0010
0000
0001
0000
0010
0100
0010
0000
0000
0000
1000
0000
0001
0000
0100
0000
,
0020
0000
0000
0000
0130
0000
0001
0010
0001
0000
0100
0000
0010
1000
0010
0000
,
1000
0000
0100
0010
0001
0000
1000
0000
0001
0100
0010
1000
0001
0100
0010
1000
,
0001
0100
0001
0000
0010
0000
0100
1000
0100
0000
0010
0000
0001
0100
0010
0000
,
1000
0000
0100
0010
0001
0000
1000
0000
0010
0100
0001
0010
0100
1000
0010
0100
,
0001
1000
0001
1000
0001
0000
1000
0100
0010
0100
0010
0000
0001
0100
0010
0100
,
0010
0000
1000
0001
0010
0001
0010
0000
0100
1000
0000
0100
1000
0000
0001
1000
,
0002
0000
0100
0000
2003
0000
0100
0000
3001
0010
0100
1000
0001
0010
0100
1000
,
0001
0100
0001
1000
0001
0100
0001
1000
0100
0010
0001
0100
0001
1000
0001
0010
,
0100
1100
0000
0101
0000
1100
1100
0000
,
0101
0000
1001
1001
0000
0110
0000
0011
,
1001
0000
1010
0000
0110
0110
0000
0011
,
0000
0110
1001
0000
1001
0000
0010
1000
,
0001
0100
0010
0100
0001
0010
0100
1000
0200
0000
0320
0000
0032
0000
2003
0000
,
3001
0001
0100
0010
1000
0100
0010
0001
,
0001
0000
0100
0000
0010
0000
1000
0001
0100
0010
0100
0001
1000
0000
1000
0000
,
0010
0100
0001
0010
0100
1000
1000
0010
,
0100
0000
0000
0000
0000
0000
0001
0000
0000
0000
0000
0000
0010
0000
0000
0100
0000
0000
1000
0000
0000
0010
0000
0000
0100
0000
0000
0000
0000
0000
0000
0000
0001
0000
0000
0000
0000
0000
0000
0000
0010
0000
0000
0000
0000
0000
0000
0000
,
0000
1010
0000
0000
0000
0000
0000
0000
0000
0000
0000
0000
0000
0000
0000
0000
;

//---------------dance-single - ----------------
#NOTES:
     dance-single:
     :
     Medium:
     11:
     0.543617,0.671669,0.218806,0.332965,0.104646,400.000000,377.000000,23.000000,35.000000,0.000000,0.000000,0.543617,0.671669,0.218806,0.332965,0.104646,400.000000,377.000000,23.000000,35.000000,0.000000,0.000000:
0000
0000
0000
0000
,
0000
0000
0000
0000
,
0000
0000
0000
0000
,
0000
0000
0000
0000
,
0000
0000
0000
0000
,
0000
0000
0000
0000
,
1000
0100
0010
0100
0001
0100
1000
0000
,
0001
0100
0010
1000
0001
1000
0001
0100
,
0010
0100
1000
0100
0001
0000
1000
0100
,
0010
0001
1000
0001
0100
0100
0010
0010
,
1000
1010
0000
0000
0001
0100
0001
0100
,
0000
0000
0000
0000
,
0001
0011
0000
0000
1000
0100
1000
0100
,
0000
0000
0000
0000
,
0001
0101
0000
0000
1000
0010
0100
0010
,
0000
0000
0000
0000
,
1000
1100
0000
0000
0001
0010
0100
0010
,
0000
0000
0000
0000
2000
0000
3010
0100
,
0001
0000
0000
0000
0100
0000
0000
0000
0010
0000
0000
0010
0000
0000
0010
0000
,
2000
0000
0001
0000
3010
0100
0010
0000
,
1000
0000
0000
0000
0100
0000
0000
0000
0010
0000
0000
0010
0000
0000
0010
0000
,
0002
0000
0000
0000
0003
0000
0000
0001
1000
0000
0000
0001
0100
0000
0000
0010
,
0100
0000
0000
0000
0020
0000
0000
0000
1000
0000
0000
1000
0030
0000
1000
0000
,
0002
0000
0013
0000
0100
0100
0100
0000
,
0120
0000
0000
0000
0000
0000
0031
0000
0010
0000
0100
0000
,
1000
0001
0202
0303
,
0001
0000
0000
0000
0010
0000
0000
0000
0100
0000
0000
0100
0000
0000
0100
0000
,
2000
0000
0001
0000
3100
0010
0100
0000
,
1000
0000
0000
0000
0010
0000
0000
0000
0100
0000
0000
0100
0000
0000
0100
0000
,
0002
0000
0000
0000
0003
0000
0000
0001
1000
0000
0000
0001
0010
0000
0000
0100
,
0020
0000
0032
1003
,
0010
1000
0010
0000
0100
0100
0100
0000
,
0101
0001
1100
1000
,
0110
0010
2002
3003
,
0001
0100
0000
0010
0000
1000
0000
0001
,
0000
0100
0000
0010
0000
1000
0000
0001
,
1000
0100
0000
0010
0000
0001
0000
1000
,
0000
0100
0000
0010
0000
0002
0000
0013
,
0100
1000
0000
0001
0000
0010
0000
0100
,
0000
1000
0000
0001
0000
0010
0000
0100
,
1000
0010
0000
0100
0000
0001
0000
0100
,
0000
0010
0000
2000
0000
0000
3000
0000
,
0001
0010
0000
0001
1000
0000
0100
1000
,
0000
0100
0010
0000
0022
0000
0033
0000
,
1000
0100
0000
1000
0001
0000
0010
0001
,
0000
0010
0100
0000
2200
0000
3300
0000
,
0001
0100
0000
0100
0010
0000
0010
1000
,
0000
1000
0001
0000
0220
0000
0330
0000
,
1000
0100
0000
0010
0100
0000
0001
0100
,
0000
1000
0001
0000
0100
0010
1000
0001
,
0200
0000
0000
0000
0301
1000
0000
1001
,
0000
0000
0000
0000
,
1200
0000
0000
0000
1300
0001
0000
1001
,
0000
0000
0000
0000
,
1020
0000
0000
0000
0130
0010
0000
0110
,
0000
0000
0000
0000
,
0021
0000
0000
0000
0130
0010
0000
0110
,
0000
0000
0000
0000
0002
0203
0310
1000
,
0001
0010
0000
0100
1000
0000
0001
0010
,
0000
0010
1000
0000
0010
0100
0001
1000
,
0100
1000
0000
0001
0100
0000
0010
1000
,
0000
0001
0010
0000
0010
0100
1000
0100
,
0010
0001
0000
1000
0001
0000
0100
0001
,
0000
0001
0010
0000
0100
1000
0020
0000
,
0130
0000
0000
0100
0000
0000
0100
0000
0001
0000
0000
0001
0000
0000
0001
0000
,
1000
0010
1000
0200
0000
0301
0100
1000
,
0000
0000
0100
0010
0001
0000
1000
0100
,
0000
0100
0001
0000
0100
0010
1000
0001
,
0010
0001
0000
1000
0010
0000
0100
0001
,
0000
1000
0100
0000
0100
0010
0001
0010
,
0100
1000
0000
0001
1000
0000
0010
1000
,
0000
1000
0100
0000
0010
0001
0200
0000
,
0310
0000
0000
0010
0000
0000
0010
0000
1000
0000
0000
1000
0000
0000
1000
0000
,
0001
0000
0000
0001
0000
0000
0001
0000
0010
0000
0000
0010
0000
0000
0010
0000
,
0100
0100
0000
1000
0000
0100
1000
0000
,
0110
0000
0001
0001
0000
0100
0000
0001
,
0100
0000
0110
0000
1000
0010
0000
0010
,
0000
1000
0010
0000
1001
0000
0001
0010
,
0001
0010
0100
1000
0002
0203
0320
2030
,
3001
0100
0010
0100
1000
0100
0001
0000
,
1000
0100
0010
0001
1000
0001
1000
0100
,
0010
0100
0001
0100
1000
0000
0001
0100
,
0010
0000
0000
1000
0000
0000
0100
0000
0000
0010
0000
0000
0100
0000
0000
0000
1000
0000
0000
0000
0010
0000
0000
0000
,
0000
0001
0000
0000
0000
0000
0000
0000
0000
0000
0000
0000
0000
0000
0000
0000
;

//---------------dance-single - ----------------
#NOTES:
     dance-single:
     :
     Easy:
     7:
     0.339761,0.553139,0.294912,0.304426,0.000000,250.000000,219.000000,31.000000,32.000000,0.000000,0.000000,0.339761,0.553139,0.294912,0.304426,0.000000,250.000000,219.000000,31.000000,32.000000,0.000000,0.000000:
0000
0000
0000
0000
,
0000
0000
0000
0000
,
0000
0000
0000
0000
,
0000
0000
0000
0000
,
0000
0000
0000
0000
,
0000
0000
0000
0000
,
0001
0010
0100
1000
,
0001
0010
0000
0001
,
0010
0100
1000
0001
,
0010
0001
1000
0001
,
0010
0000
0000
0000
0001
0000
0000
1000
,
0000
0000
0000
0000
,
0010
0000
0000
0000
1000
0000
0000
0001
,
0000
0000
0000
0000
,
0100
0000
0000
0000
0100
0000
0000
0001
,
0000
0000
0000
0000
,
0100
0000
0000
0000
0100
0000
0000
1000
,
0000
0000
1000
0010
,
0100
0100
0001
0001
,
0002
0000
1003
0001
,
0010
0010
0100
0100
,
0200
0000
1300
0001
,
1000
0010
0100
0100
,
0100
0001
0100
0010
,
2000
0000
3001
0200
,
0000
0301
0010
1000
,
0100
0100
1000
1000
,
2000
0000
3001
1000
,
0010
0010
0100
0100
,
0200
0000
0301
1000
,
0002
0000
0023
0130
,
0100
1000
1000
1000
,
0010
0100
0101
0000
,
0010
0100
1100
0000
,
1001
0000
0000
0001
0000
0001
0000
0100
,
0000
0100
0000
0001
0000
0001
0000
0000
,
1000
0000
0000
1000
0000
1000
0000
0100
,
0000
0100
0000
1000
0000
0000
0000
0000
,
0001
0000
0000
1000
0000
1000
0000
0010
,
0000
0010
0000
1000
0000
0000
0000
0000
,
1000
0000
0000
0001
0000
0001
0000
0010
,
0000
0010
0000
0001
0000
0000
0000
0000
,
0202
0000
0000
0303
0000
0000
0220
0000
,
0000
0330
0000
0000
0101
0000
0000
0000
,
2020
0000
0000
3030
0000
0000
2002
0000
,
0000
3003
0000
0000
1010
0000
0000
0000
,
0022
0000
0000
0033
0000
0000
2002
0000
,
0000
3003
0000
0000
0011
0000
0000
0000
,
2002
0000
0000
3003
0000
0000
0220
0000
,
0000
0330
0000
0000
0001
0000
0010
0000
,
0200
0000
0300
0000
1000
0001
0000
0001
,
0000
0000
0000
0000
,
0200
0000
0300
0000
0001
1000
0000
1000
,
0000
0000
0000
0000
,
0200
0000
0300
0000
1000
0010
0000
0010
,
0000
0000
0000
0000
,
0200
0000
0300
0000
0001
0010
0000
0010
,
0000
0000
0000
0100
,
1000
0100
0100
1000
,
0100
1000
0010
0000
,
0100
0001
0100
0100
,
0001
0010
0001
0000
,
1000
0001
1000
1000
,
0010
0100
0010
0000
,
0101
0000
1100
0000
,
0100
0100
0200
0300
,
0000
0001
1000
0001
,
0010
0100
1000
0000
,
1000
0001
1000
0010
,
0100
0001
1000
0000
,
0001
0010
1000
0100
,
0001
0010
0100
0000
,
1100
0000
0101
0000
,
1010
0000
0011
0000
,
1001
0001
0101
0000
,
1001
1000
1100
0000
,
0011
0001
1001
0000
,
1010
1000
1001
0001
,
0011
0011
0220
0330
,
0001
0010
0100
1000
,
0001
0010
0000
0001
,
0010
0100
1000
0001
,
0100
0010
2000
0000
,
0000
3000
0000
0000
0000
0000
0000
0000
0000
0000
0000
0000
0000
0000
0000
0000
;

//---------------dance-single - ----------------
#NOTES:
     dance-single:
     :
     Beginner:
     3:
     0.176676,0.276569,0.190266,0.076106,0.000000,130.000000,110.000000,20.000000,8.000000,0.000000,0.000000,0.176676,0.276569,0.190266,0.076106,0.000000,130.000000,110.000000,20.000000,8.000000,0.000000,0.000000:
0000
0000
0000
0000
,
0000
0000
0000
0000
,
0000
0000
0000
0000
,
0000
0000
0000
0000
,
0000
0000
0000
0000
,
0000
0000
0000
0000
,
0000
0000
0000
0000
,
0000
0000
0000
0000
,
0000
0000
0000
0000
,
0000
0000
0000
0000
,
1001
0000
1001
0000
,
0000
0000
0000
0000
,
0110
0000
0110
0000
,
0000
0000
0000
0000
,
1001
0000
1001
0000
,
0000
0000
0000
0000
,
0110
0000
0110
0000
,
0000
0000
0000
0000
,
0001
0000
0010
0000
,
0100
0000
0000
0000
,
1000
0000
0010
0000
,
0100
0000
0000
0000
,
0001
0000
0010
0000
,
0001
0000
0000
0000
,
1000
0000
0010
0000
,
1000
0000
0010
0000
,
0100
0000
0001
0000
,
1000
0000
0000
0000
,
0010
0000
1000
0000
,
0001
0000
0000
0000
,
2000
0000
3000
0000
,
0002
0000
0003
0000
,
1000
0000
0010
0000
,
0001
0000
0010
0000
,
1000
0000
0000
0100
,
0000
0000
0000
0000
,
0001
0000
0000
0010
,
0000
0000
0100
0000
,
1000
0000
0000
0001
,
0000
0000
0000
0000
,
0100
0000
0000
0010
,
0000
0000
1000
0000
,
0001
0000
0001
0000
,
0010
0010
0010
0000
,
1000
0000
1000
0000
,
0010
0010
0010
0000
,
1000
0000
1000
0000
,
0100
0100
0100
0000
,
0010
0000
0010
0000
,
0001
0000
0001
0000
,
1001
0000
1001
0000
,
0000
0000
0000
0000
,
1001
0000
1001
0000
,
0000
0000
0000
0000
,
0110
0000
0110
0000
,
0000
0000
0000
0000
,
0110
0000
0110
0000
,
0000
0000
0000
0000
,
0001
0000
0100
0000
,
0010
0000
0010
0000
,
1000
0000
0010
0000
,
0100
0000
0100
0000
,
0001
0000
0010
0000
,
0100
0000
1000
0000
,
0001
0000
0001
0000
,
2002
0000
3003
0000
,
0000
0000
0001
0000
,
0100
0000
0001
0000
,
0001
0000
1000
0000
,
0010
0000
1000
0000
,
1000
0000
0001
0000
,
0010
0000
0001
0000
,
1001
0000
0000
0000
,
1001
0000
0000
0000
,
1000
0000
0100
0000
,
0010
0000
0000
0000
,
0001
0000
0010
0000
,
0100
0000
0000
0000
,
1000
1000
1000
0000
,
0002
0000
0000
0000
,
0003
0000
0000
2000
,
0000
0000
0000
3000
,
0000
2002
0000
0000
,
0000
3003
0000
0000
0000
0000
0000
0000
0000
0000
0000
0000
0000
0000
0000
0000
;
