#VERSION:0.83;
#TITLE:Butterfly Twist;
#SUBTITLE:;
#ARTIST:Yooh;
#TITLETRANSLIT:;
#SUBTITLETRANSLIT:;
#ARTISTTRANSLIT:;
#GENRE:;
#ORIGIN:;
#CREDIT:;
#BANNER:;
#BACKGROUND:Butterfly Twist-bg.png;
#PREVIEWVID:;
#JACKET:Butterfly Twist-jacket.jpg;
#CDIMAGE:;
#DISCIMAGE:;
#LYRICSPATH:;
#CDTITLE:;
#MUSIC:Butterfly Twist.ogg;
#OFFSET:-0.412000;
#SAMPLESTART:25.893000;
#SAMPLELENGTH:10.000000;
#SELECTABLE:YES;
#BPMS:0.000=160.000,
67.000=320.000,
68.000=160.000,
227.000=320.000,
228.000=160.000;
#STOPS:67.000=0.188,
227.000=0.188;
#DELAYS:;
#WARPS:;
#TIMESIGNATURES:0.000=4=4;
#TICKCOUNTS:0.000=4;
#COMBOS:0.000=1;
#SPEEDS:0.000=1.000=0.000=0;
#SCROLLS:0.000=1.000;
#FAKES:;
#LABELS:0.000=Song Start;
#BGCHANGES:;
#KEYSOUNDS:;
#ATTACKS:
;

//---------------dance-single - ----------------
#NOTEDATA:;
#CHARTNAME:;
#STEPSTYPE:dance-single;
#DESCRIPTION:;
#CHARTSTYLE:Pad;
#DIFFICULTY:Challenge;
#METER:16;
#RADARVALUES:0.844578,0.947861,0.419981,0.242297,0.811695,732.000000,680.000000,52.000000,30.000000,0.000000,0.000000,0.000000,0.000000,0.000000,0.844578,0.947861,0.419981,0.242297,0.811695,732.000000,680.000000,52.000000,30.000000,0.000000,0.000000,0.000000,0.000000,0.000000;
#CREDIT:Mei;
#NOTES:
0000
0000
0000
0000
,
0000
0000
0000
0000
,
0000
0000
0000
0000
,
0000
0000
0000
0000
,
0000
0000
0000
0000
,
1000
0010
0100
0010
1000
0001
0010
1000
,
0000
1000
0010
0001
0000
0001
1001
1000
,
0001
0010
0100
0010
0001
1000
0010
0001
,
0010
0000
0000
0010
1000
0000
0000
1000
0001
0000
0000
0010
0100
0000
0010
0000
,
0001
0010
0100
0010
0001
1000
1010
0100
,
0000
0001
0101
0010
0000
1000
1001
0001
,
1000
0010
0100
0010
1000
0001
0011
0100
,
0000
1000
1100
0010
0000
0001
1001
1000
,
0001
0000
0010
0000
0100
0010
0000
0010
0100
0000
1000
0000
0001
1000
0000
0001
,
1000
0000
0001
0000
0100
0010
0000
0010
0100
0000
0001
0000
1000
0001
0000
1000
,
0001
0000
0010
0000
0100
0000
1000
0000
0100
0010
0001
1000
0010
0100
0010
0100
,
0002
0023
2030
3010
,
1001
0000
0000
0000
0110
0000
0000
0100
0001
0100
0001
0000
0010
0001
0010
0000
,
0100
0000
0100
0000
0020
0000
0000
0130
1000
0100
1000
0000
0001
0100
0001
0000
,
0200
0000
0000
0000
0301
0100
0010
0000
0001
1000
0010
0000
0001
1000
0100
0000
,
0020
0000
0130
0001
0100
1000
0100
0001
,
0200
0000
0000
0000
1300
0000
0000
0010
1000
0010
1000
0000
0100
1000
0100
0000
,
0010
0000
0010
0000
0200
0000
0000
1300
0001
0010
0001
0000
1000
0010
1000
0000
,
0020
0000
0030
0000
1001
0000
0001
0010
0000
0010
0100
0000
0100
1000
0000
1000
,
0010
0001
0010
1000
0001
1000
0001
0010
,
0110
0000
0000
0000
1001
0000
0000
0010
1000
0010
1000
0000
0001
0100
0001
0000
,
0010
0000
0010
0000
0200
0000
0000
1300
0100
1000
0100
0000
0010
0001
0010
0000
,
0200
0000
0000
0000
1300
0100
0010
0000
1000
0001
0010
0000
1000
0001
0100
0000
,
0020
0000
0130
1000
0100
0010
0100
0001
,
0200
0000
0000
0000
0310
0000
0000
1000
0001
0010
0001
0000
1000
0010
1000
0000
,
0001
0000
0001
0000
0020
0000
0000
0130
1000
0001
0100
0000
0001
1000
0100
0000
,
0010
0001
1000
0010
0001
0010
1000
0010
,
0100
0000
0000
0100
0001
0000
0000
0001
1000
0000
0000
0100
0010
0000
0100
0000
,
2002
0000
0000
0000
,
3003
0000
0000
0000
,
0001
0010
0001
0000
0010
0100
0010
0000
1000
0100
1000
0100
0000
0010
0100
1000
,
0001
1000
0010
1000
0000
0010
0000
0100
0000
0001
0010
0000
0100
1000
0100
1000
,
0001
0100
0001
0000
0100
0010
0100
0000
1000
0010
1000
0010
0000
0100
0010
1000
,
0001
1000
0100
1000
0000
0100
0000
0010
0000
0001
1000
0000
0001
1000
0010
1000
,
0001
0100
0010
0000
1000
0010
0100
0000
0001
0100
0010
1000
0000
1000
0100
0010
,
0001
0010
0001
1000
0000
0100
0000
0010
0000
0100
1000
0001
1000
0010
0100
0001
,
0100
0010
1001
1000
0100
0001
0100
0010
,
0100
0010
0001
0100
0010
1000
0001
0000
,
1100
0010
1001
0001
0100
1000
0100
0010
,
0100
0010
1000
0100
0010
0001
2000
3010
,
0011
1000
0010
0100
0001
0010
0011
0000
,
1010
0001
0010
0100
1000
0010
1010
0000
,
0011
0110
0011
0000
1010
0110
1010
0000
,
0001
0000
0000
0000
0000
0000
0000
0000
0000
0001
0000
0000
0010
0000
0000
0000
0100
0000
0000
0000
1000
0000
0000
0000
0100
0000
0000
0000
0000
0000
0000
0000
0000
1000
0000
0000
0001
0000
0000
0000
0000
0000
0100
0000
0000
0000
0000
0000
,
0010
0000
1000
0000
0010
0000
1000
0000
1001
0000
0001
0010
0000
0010
0100
0000
,
0010
0000
0001
0000
0010
0000
0001
0000
1001
0000
1000
0010
0000
0010
0100
0000
,
0001
1000
0001
0000
0010
0000
0100
0000
1000
0000
0010
1000
0000
1000
0001
0000
,
1000
0001
1000
0000
0100
0000
0010
0000
0001
0000
0100
0001
0020
0000
0000
0000
,
0130
0000
1000
0010
0000
0100
0001
0100
0001
0000
0010
0100
0000
1000
0010
1000
,
0010
0000
0100
0001
0000
0010
0100
0010
0100
0000
1000
0001
0000
0100
0010
0100
,
0001
1000
0001
1000
0001
1000
0001
1000
0100
0010
0100
0010
0100
0010
0100
0010
,
0100
0000
0000
1000
0000
0000
1000
0000
0000
0000
0000
0000
0001
0000
0100
0000
1000
0000
0100
0000
0000
0000
0000
0000
,
2002
0000
3003
0000
0001
0000
1000
0000
0001
0100
0010
0000
1010
0000
1001
0000
,
1000
0100
0010
0000
0011
0000
1001
0000
0001
0100
0010
0000
1000
0100
0010
0000
,
2002
3003
1000
0001
1010
1001
1100
0000
,
0011
1001
0101
0000
0110
1001
0110
0000
,
2002
0000
3003
0000
1000
0000
0001
0000
0100
0010
1000
0000
1001
0000
0011
0000
,
0100
0010
0001
0000
1001
0000
1010
0000
0100
0010
1000
0000
0001
0010
0100
0010
,
0200
0000
0300
0000
1001
0000
0001
1000
0000
1000
0010
0000
0010
0100
0000
0100
,
0001
0010
1000
0010
0001
1000
0001
1000
,
0020
0000
0000
0000
0031
0000
0000
1000
0010
0100
0010
0000
1000
0001
0010
0000
,
1000
0001
0100
0000
1000
0100
0010
0000
1000
0010
0100
0000
1000
0100
0010
0000
,
0002
0000
0003
0000
0001
1000
0010
0000
0001
1000
0100
0000
0001
0100
0010
0000
,
0001
0010
0100
0000
0001
0100
0010
0000
2000
0000
3001
0000
1001
0000
1000
0000
,
0020
0000
0000
0000
0130
0000
0000
0010
1000
0100
0010
0000
0001
0100
0010
0000
,
1010
0000
0011
0000
0200
0000
0000
1300
0100
0010
0001
0000
0100
0010
1000
0000
,
0001
0010
0100
0010
1000
0010
0100
0010
,
0001
0000
0000
0001
0100
0000
0000
0100
0010
0000
0000
1000
0001
0000
0010
0000
,
0100
0000
0000
0000
,
0000
0000
0000
0000
,
1000
0010
1000
0000
0010
0100
0010
0000
0001
0100
0001
0100
0000
0010
0100
0001
,
1000
0001
0010
0001
0000
1000
0000
0100
0000
0010
0001
0000
0100
0001
0100
0001
,
1000
0001
0010
0000
0001
1000
0010
0000
1000
0001
0010
0100
0000
0010
0100
1000
,
0100
0010
0001
1000
0000
0010
0000
0100
0000
0001
0010
0000
0100
1000
0100
1000
,
0001
1000
0100
0000
1000
0001
0100
0000
0010
0100
0001
1000
0000
0100
1000
0100
,
0010
0001
1000
0010
0000
0100
0000
0001
1000
0100
0010
0001
1000
0001
0100
0010
;

//---------------dance-single - ----------------
#NOTEDATA:;
#CHARTNAME:;
#STEPSTYPE:dance-single;
#DESCRIPTION:;
#CHARTSTYLE:Pad;
#DIFFICULTY:Hard;
#METER:14;
#RADARVALUES:0.674970,0.784436,0.104995,0.234220,0.569398,585.000000,572.000000,13.000000,29.000000,0.000000,0.000000,0.000000,0.000000,0.000000,0.674970,0.784436,0.104995,0.234220,0.569398,585.000000,572.000000,13.000000,29.000000,0.000000,0.000000,0.000000,0.000000,0.000000;
#CREDIT:Mei;
#NOTES:
0000
0000
0000
0000
,
0000
0000
0000
0000
,
0000
0000
0000
0000
,
0000
0000
0000
0000
,
0000
0000
0000
0000
,
1000
0001
0010
0001
0010
0200
1300
0010
,
0000
0100
0001
0100
0000
0010
1000
0010
,
0100
0001
0010
0001
0010
0100
1000
0020
,
0130
0000
0000
0100
0001
0000
0000
0001
1000
0000
0000
1000
0100
0000
0010
0000
,
0001
0010
1000
0010
1000
0020
0031
0100
,
0000
0010
1000
0100
0000
0010
0001
1000
,
0001
0100
1000
0100
1000
0100
0010
1000
,
0000
0100
0010
0001
0000
0100
0010
1000
,
0001
0000
0010
0000
0001
0010
0000
0000
0100
0000
1000
0000
0100
1000
0000
0000
,
0001
0000
0100
0000
0001
0100
0000
0000
0010
0000
1000
0000
0010
1000
0000
0000
,
0001
0000
1000
0000
0100
0000
0010
0000
0001
1000
0001
0000
0100
0010
0100
0000
,
0002
0000
0000
1003
,
1001
0000
0000
0000
0010
0000
0000
0100
1000
0000
0001
0000
0100
0000
0010
0000
,
1000
0000
1000
0000
0200
0000
0300
0010
0001
0000
0001
0000
1000
0001
1000
0000
,
0020
0000
0000
0000
0130
0001
0100
0000
0010
0100
0010
0000
1000
0010
1000
0000
,
0002
0000
0013
0100
0100
1000
1000
0001
,
0200
0000
0000
0000
0310
0000
0000
0010
1000
0000
0001
0000
0010
0000
0100
0000
,
1000
0000
1000
0000
0020
0000
0000
0130
0010
0000
0100
0000
0001
1000
0001
0000
,
2000
0000
0000
0000
3010
0000
0000
0100
0000
0000
0001
0000
0000
0010
0000
0000
,
0001
1000
0001
1000
0100
0010
0100
1000
,
0002
0000
0000
0000
0103
0000
0000
0001
0100
0000
0010
0000
1000
0000
0010
0000
,
0100
0000
1000
0000
0200
0000
0000
0310
1000
0000
0010
0000
0100
0001
0100
0000
,
0002
0000
0000
0000
0013
0001
0010
0000
0100
0010
0100
0000
1000
0100
1000
0000
,
0002
0000
0103
0010
0010
1000
1000
0001
,
0002
0000
0000
0000
1003
0000
0000
0001
1000
0000
0010
0000
1000
0001
1000
0000
,
0100
0000
0100
0000
0020
0000
0000
0031
1000
0000
0100
0000
1000
0001
1000
0000
,
0010
0100
0001
0010
1000
0010
0100
0010
,
0100
0000
0000
0100
1000
0000
0000
1000
0001
0000
0000
0001
0100
0000
0010
0000
,
2002
0000
0000
0000
,
0000
0000
0000
0000
,
3003
0000
0000
0000
,
0000
0000
0000
0000
,
1100
0000
0000
0100
1000
0000
0000
0000
0101
0000
0000
0100
0001
0000
0000
0000
,
1010
0000
0000
0010
1000
0000
0000
0000
0011
0000
0000
0010
0001
0000
0000
0000
,
1010
0000
0000
0010
1000
0000
0001
0000
0011
0000
0000
0001
0010
0000
0100
0000
,
1100
0000
0000
0100
1000
0000
0001
0000
0100
0001
1000
0010
0100
0001
0010
0100
,
1000
0000
0100
0000
0010
0000
0000
0010
0001
0000
0000
0001
1000
0000
0000
1000
,
0010
0000
0000
0010
0100
0000
0000
0100
0001
0000
0000
0001
0010
0000
0000
0000
,
1000
0000
0001
0000
0010
0000
0000
0010
0001
0000
0000
0001
0100
0000
0000
0100
,
0010
0000
0000
0010
1000
0000
0000
1000
0001
0000
0010
0000
1000
0000
0010
0000
,
0100
0000
1000
0000
0010
0000
0000
0010
0100
0000
0000
0100
0001
0000
0000
0001
,
0010
0000
0000
0010
0100
0000
0000
0100
1000
0000
0000
1000
0010
0000
0000
0000
,
0010
0000
0100
0000
0001
0000
0000
0001
0010
0000
0100
0000
1000
0000
0000
0100
,
0010
0000
0000
0010
0001
0000
0000
0001
1000
0000
0000
1000
0010
0000
0100
0000
,
0001
0000
0010
0000
0001
0000
0010
0000
0100
0000
0000
0100
0000
0000
0100
0000
,
1000
0000
0010
0000
1000
0000
0010
0000
0100
0000
0000
0100
0000
0000
0100
0000
,
0001
0000
0010
0000
1000
0000
0010
0000
0001
0000
0000
0001
0000
0000
0001
0000
,
1000
0000
0010
0000
0001
0000
0010
0000
1000
0000
0100
1000
0020
0000
0000
0000
,
0130
0000
0001
1000
0000
0010
1000
0000
0100
0000
1000
0001
0000
0010
0001
0000
,
0100
0000
0010
1000
0000
0100
0010
0000
0100
0000
0010
0001
0000
0100
0010
0000
,
1000
0010
1000
0010
0100
0001
0100
0001
2000
0000
0000
0000
3002
0000
0000
0000
,
0013
0000
0000
0100
0000
0000
0010
0000
0000
0000
0000
0000
1000
0000
0100
0000
1000
0000
0100
0000
0000
0000
0000
0000
,
1001
0000
0000
0000
0001
0000
0001
0000
1000
0010
1000
0000
0100
0000
0010
0000
,
0001
0010
0001
0000
0100
0000
0010
0000
1000
0010
1000
0000
0100
0000
0010
0000
,
0002
0000
1003
1000
0110
0010
0100
0001
,
0110
0010
0100
1000
0110
0010
0100
0001
,
2000
0000
0000
0000
3001
0000
0001
0000
0010
0100
0010
0000
1000
0000
0010
0000
,
0100
0010
0100
0000
0001
0000
0100
0000
0010
0100
0010
0000
0002
0000
0000
0000
,
1003
0000
0000
0000
0010
0000
0000
1000
0000
0000
0001
0000
0000
0010
0000
0000
,
0100
0010
0100
0010
0001
1000
0010
1000
,
0002
0000
0000
0000
0103
0000
0000
1000
0100
0000
0001
0000
0100
0010
0100
0000
,
0010
1000
0010
0000
1000
0001
1000
0000
0001
0010
0001
0000
0010
0100
0010
0000
,
0200
0000
0000
0000
1300
0100
0010
0000
0100
0010
0001
0000
0010
0001
1000
0000
,
0001
1000
0010
0000
1000
0010
0100
0000
0002
0000
0000
0000
0013
0000
0100
0000
,
2000
0000
0000
0000
3010
0000
0000
0001
0100
0001
0100
0000
0001
0010
0001
0000
,
1000
0000
1000
0000
0200
0000
0300
1000
0100
1000
0100
0000
1000
0010
1000
0000
,
0010
0001
0010
0100
0010
1000
0010
0100
,
0001
0000
0000
0001
0010
0000
0000
0010
0100
0000
0000
0100
1000
0000
0001
0000
,
0100
0000
0000
0000
,
0000
0000
0000
0000
,
1000
0000
0000
1000
0100
0000
0000
0100
0010
0001
0000
1000
0000
0001
0010
0000
,
0100
0000
0000
0100
1000
0000
0000
0001
1000
0000
0010
0000
0100
0001
0100
0001
,
1000
0000
0000
1000
0010
0000
0000
0100
0010
1000
0000
0001
0000
1000
0010
0000
,
0100
0000
0000
0100
0001
0000
0000
1000
0001
0000
0100
0000
0010
1000
0010
1000
,
0001
0000
0000
0010
0100
0000
0000
1000
0100
0010
0000
0001
0000
1000
0010
0000
,
0100
0000
0000
0001
0100
0000
0000
0100
0010
1000
0010
1000
0001
0100
0010
0100
;

//---------------dance-single - ----------------
#NOTEDATA:;
#CHARTNAME:;
#STEPSTYPE:dance-single;
#DESCRIPTION:;
#CHARTSTYLE:Pad;
#DIFFICULTY:Medium;
#METER:12;
#RADARVALUES:0.531900,0.587873,0.306910,0.290756,0.100957,461.000000,423.000000,38.000000,36.000000,0.000000,0.000000,0.000000,0.000000,0.000000,0.531900,0.587873,0.306910,0.290756,0.100957,461.000000,423.000000,38.000000,36.000000,0.000000,0.000000,0.000000,0.000000,0.000000;
#CREDIT:Mei;
#NOTES:
// measure 0
0000
0000
0000
0000
,  // measure 1
0000
0000
0000
0000
,  // measure 2
0000
0000
0000
0000
,  // measure 3
0000
0000
0000
0000
,  // measure 4
0000
0000
0000
0000
,  // measure 5
0001
0010
0100
0000
0100
0000
1000
0010
,  // measure 6
0000
1000
0001
1000
0000
0100
1000
0100
,  // measure 7
1000
0100
0010
0000
0010
0000
0001
0100
,  // measure 8
0020
0000
0000
0000
2030
0000
0000
0000
3002
0000
0000
0103
0010
0000
0000
0000
,  // measure 9
1000
0001
0100
0001
1000
0010
0100
0010
,  // measure 10
0000
0100
0001
0100
0000
0001
1000
0001
,  // measure 11
1000
0001
0010
0001
1000
0100
0010
0100
,  // measure 12
0000
1000
0100
1000
0000
0001
1000
0001
,  // measure 13
1000
0100
1100
0000
0101
0000
0101
0000
,  // measure 14
1010
1010
0011
0011
,  // measure 15
0100
1000
0100
0010
0001
0001
1000
1000
,  // measure 16
0020
0000
0000
0130
,  // measure 17
0110
0000
0000
0000
0001
0000
0000
0100
0001
0000
1000
0000
0001
0000
1000
0000
,  // measure 18
0100
0001
0200
0000
1300
0001
0010
1000
,  // measure 19
0020
0000
0031
0001
1000
1000
0010
0010
,  // measure 20
0200
0000
0310
1000
0100
0010
0001
0100
,  // measure 21
0020
0000
0000
0000
0130
0000
0000
0100
0001
0000
1000
0000
0001
0000
1000
0000
,  // measure 22
0010
0001
0020
0000
0130
1000
0100
0001
,  // measure 23
0200
0000
0000
0000
0310
0000
0000
1000
0000
0000
0001
0000
0000
0010
0000
0000
,  // measure 24
0100
1000
0001
1000
0001
0100
0010
1000
,  // measure 25
0010
0000
0000
0000
1001
0000
0000
1000
0001
0000
0010
0000
0100
0000
0010
0000
,  // measure 26
0001
0100
2000
0000
3100
0010
0100
0010
,  // measure 27
2000
0000
3100
0100
0010
0010
0001
0001
,  // measure 28
2000
0000
3010
1000
0001
1000
0100
0010
,  // measure 29
0200
0000
0000
0000
0310
0000
0000
0010
0001
0000
1000
0000
0010
0000
0100
0000
,  // measure 30
0010
0001
0020
0000
0130
0001
1000
0010
,  // measure 31
0100
0010
0100
0010
1000
0100
0001
0100
,  // measure 32
0010
0000
0000
0001
0000
0000
1000
0000
0000
0010
0000
0000
0100
0000
0100
0000
,  // measure 33
0020
0000
0000
0000
,  // measure 34
0000
0000
0000
0000
,  // measure 35
0030
0000
0000
0000
,  // measure 36
0000
0000
0000
0000
,  // measure 37
0010
1010
0001
0011
,  // measure 38
1000
1100
0100
0101
,  // measure 39
0001
1010
1000
0101
,  // measure 40
0010
0000
0011
0000
0100
1000
0100
0010
,  // measure 41
0001
1000
0010
0000
1010
0000
0110
0000
,  // measure 42
0101
0110
1010
0110
,  // measure 43
0001
0010
0100
0000
1100
0000
0110
0000
,  // measure 44
0011
0000
0110
0000
1100
0100
0010
0001
,  // measure 45
0100
0010
1000
0000
0011
0000
1001
0000
,  // measure 46
0101
1001
0011
1001
,  // measure 47
0100
0010
0001
0000
1010
0000
1001
0000
,  // measure 48
1100
0000
0000
0100
0010
0000
0000
0000
0101
0000
0000
0100
0010
0000
0000
0000
,  // measure 49
1000
0000
0001
0000
1000
0000
0001
0000
0010
0000
0000
0010
0000
0000
0010
0000
,  // measure 50
0001
0000
1000
0000
0001
0000
1000
0000
0010
0000
0000
0010
0000
0000
0010
0000
,  // measure 51
1000
0000
0100
0000
0010
0000
0100
0000
1000
0000
0000
1000
0000
0000
1000
0000
,  // measure 52
0001
0100
0010
0100
0001
0010
2000
0000
,  // measure 53
3010
0000
0001
0010
0000
0000
0001
0000
1000
0000
0010
1000
0000
0000
0010
0000
,  // measure 54
0100
0000
0001
1000
0000
0000
0100
0000
0010
0000
0001
1000
0000
0000
0010
0000
,  // measure 55
0100
0100
0010
0010
2000
0000
3002
0000
,  // measure 56
0013
0100
0010
0000
0001
1000
0001
0000
,  // measure 57
1001
0000
1000
1000
0010
0100
0001
0001
,  // measure 58
0010
0100
1000
1000
0010
0100
0001
0001
,  // measure 59
0020
0000
0130
0100
0010
0001
0010
0000
,  // measure 60
0010
1000
0010
0000
0010
0001
0010
0000
,  // measure 61
0200
0000
1300
1000
0001
0100
0010
0010
,  // measure 62
1000
0100
0010
0010
0001
0100
0010
0010
,  // measure 63
2000
0000
0000
0000
3001
0000
0000
0010
0000
0000
1000
0000
0000
0010
0000
0000
,  // measure 64
0001
1000
0001
1000
0010
0100
0001
0100
,  // measure 65
0020
0000
0000
0000
1030
0000
0000
0100
0010
0000
0010
0000
0001
0000
0001
0000
,  // measure 66
1000
1000
0010
0010
0100
0100
0001
0001
,  // measure 67
2000
0000
3001
0001
0100
0100
0010
0010
,  // measure 68
1000
1000
0100
0100
0020
0000
0130
0010
,  // measure 69
0002
0000
0000
0000
1003
0000
0000
1000
0010
0000
0100
0000
0010
0000
1000
0000
,  // measure 70
0100
0000
0001
0000
0200
0000
0000
1300
0010
0000
0100
0000
1000
0000
0100
0000
,  // measure 71
0001
0010
0100
1000
0010
0100
0001
0010
,  // measure 72
0100
0000
0000
1000
0000
0000
0001
0000
0000
0100
0000
0000
0010
0000
0010
0000
,  // measure 73
0100
0000
0000
0000
,  // measure 74
0000
0000
0000
0000
,  // measure 75
2000
0000
3020
0000
,  // measure 76
0230
0000
0000
0000
,  // measure 77
0302
0000
0020
0030
,  // measure 78
2003
0000
0000
0000
,  // measure 79
3200
0000
0002
0003
,  // measure 80
0320
0000
0000
0000
0031
1000
0010
0100
;

//---------------dance-single - ----------------
#NOTEDATA:;
#CHARTNAME:;
#STEPSTYPE:dance-single;
#DESCRIPTION:;
#CHARTSTYLE:Pad;
#DIFFICULTY:Easy;
#METER:7;
#RADARVALUES:0.293064,0.391915,0.129225,0.524977,0.000000,254.000000,238.000000,16.000000,65.000000,0.000000,0.000000,0.000000,0.000000,0.000000,0.293064,0.391915,0.129225,0.524977,0.000000,254.000000,238.000000,16.000000,65.000000,0.000000,0.000000,0.000000,0.000000,0.000000;
#CREDIT:Mei;
#NOTES:
// measure 0
0000
0000
0000
0000
,  // measure 1
0000
0000
0000
0000
,  // measure 2
0000
0000
0000
0000
,  // measure 3
0000
0000
0000
0000
,  // measure 4
0000
0000
0000
0000
,  // measure 5
0001
0010
0100
2000
,  // measure 6
3000
2000
3000
1000
,  // measure 7
1000
0010
0100
0001
,  // measure 8
0020
0230
2300
3002
,  // measure 9
0103
0001
0010
0002
,  // measure 10
0003
0002
0003
0001
,  // measure 11
0100
1000
0010
2000
,  // measure 12
3000
0002
0003
2000
,  // measure 13
3010
0010
0100
0100
,  // measure 14
0001
0001
0010
0010
,  // measure 15
0100
1000
0010
0100
,  // measure 16
0002
0000
0000
0003
,  // measure 17
2002
3003
0010
0001
,  // measure 18
0100
0020
1030
1000
,  // measure 19
0002
0013
1000
0010
,  // measure 20
0200
0301
0100
1000
,  // measure 21
0200
0300
0001
0010
,  // measure 22
0100
2000
3010
0100
,  // measure 23
0002
1003
1010
0001
,  // measure 24
0011
0010
0100
1000
,  // measure 25
2002
3003
0100
0001
,  // measure 26
0100
0020
1030
0100
,  // measure 27
2000
3010
0001
0010
,  // measure 28
0200
1300
0100
0001
,  // measure 29
0200
0300
0010
1000
,  // measure 30
0001
0020
0031
0001
,  // measure 31
1000
1010
0001
0011
,  // measure 32
0020
0230
2300
3020
,  // measure 33
0230
0000
0000
0000
,  // measure 34
0000
0000
0000
0000
,  // measure 35
0300
0000
0000
0000
,  // measure 36
0000
0000
0000
0000
,  // measure 37
1000
0010
0001
0100
,  // measure 38
1000
0010
0001
0100
,  // measure 39
0001
0010
1000
0100
,  // measure 40
0001
0010
0200
0300
,  // measure 41
0001
0100
0100
0100
,  // measure 42
0010
0010
0010
0000
,  // measure 43
1000
0100
0100
0100
,  // measure 44
0010
0010
0010
0001
,  // measure 45
1000
0010
0010
0010
,  // measure 46
0100
0100
0100
0000
,  // measure 47
0001
0001
1000
1000
,  // measure 48
0100
0010
0001
0010
,  // measure 49
0100
1000
0200
0000
,  // measure 50
0310
0001
0020
0000
,  // measure 51
0130
0010
0002
0000
,  // measure 52
0103
0010
1000
0200
,  // measure 53
0310
0010
0001
0001
,  // measure 54
1000
1000
0010
0010
,  // measure 55
0200
0000
0000
0000
,  // measure 56
0310
0010
0001
1000
,  // measure 57
2002
3003
0100
0100
,  // measure 58
0010
0010
1000
1000
,  // measure 59
0002
0003
2002
3003
,  // measure 60
0220
0330
2002
3003
,  // measure 61
0210
0300
0001
0001
,  // measure 62
1000
1000
0100
0100
,  // measure 63
0020
0031
0101
1000
,  // measure 64
1100
0100
0010
0001
,  // measure 65
2002
3003
0100
0001
,  // measure 66
1000
0010
0001
0010
,  // measure 67
0200
0301
0010
0100
,  // measure 68
0001
1000
0020
0031
,  // measure 69
0200
0300
1000
1000
,  // measure 70
0010
0200
0301
0001
,  // measure 71
1000
1010
0001
0011
,  // measure 72
1000
0010
0100
0001
,  // measure 73
1000
0000
0000
0000
,  // measure 74
0000
0000
0000
0000
,  // measure 75
2000
0000
3002
0000
,  // measure 76
0203
0000
0000
0000
,  // measure 77
0320
0000
2030
0000
,  // measure 78
3002
0000
0000
0000
,  // measure 79
0023
0000
0230
0000
,  // measure 80
2300
0000
0000
0000
0002
0000
0000
3003
;

//---------------dance-single - ----------------
#NOTEDATA:;
#CHARTNAME:;
#STEPSTYPE:dance-single;
#DESCRIPTION:;
#CHARTSTYLE:Pad;
#DIFFICULTY:Beginner;
#METER:3;
#RADARVALUES:0.137302,0.228794,0.000000,0.185761,0.000000,119.000000,119.000000,0.000000,23.000000,0.000000,0.000000,0.000000,0.000000,0.000000,0.137302,0.228794,0.000000,0.185761,0.000000,119.000000,119.000000,0.000000,23.000000,0.000000,0.000000,0.000000,0.000000,0.000000;
#CREDIT:Mei;
#NOTES:
// measure 0
0000
0000
0000
0000
,  // measure 1
0000
0000
0000
0000
,  // measure 2
0000
0000
0000
0000
,  // measure 3
0000
0000
0000
0000
,  // measure 4
0000
0000
0000
0000
,  // measure 5
0001
0000
1000
0000
,  // measure 6
0002
0000
0003
0000
,  // measure 7
1000
0000
0001
0000
,  // measure 8
2000
0000
3000
0000
,  // measure 9
0010
0000
1000
0000
,  // measure 10
0020
0000
0030
0000
,  // measure 11
0100
0000
0001
0000
,  // measure 12
0200
0000
0300
0000
,  // measure 13
0001
0000
0001
0000
,  // measure 14
1000
0000
1000
0000
,  // measure 15
0100
0000
0010
0000
,  // measure 16
0002
0000
2000
0000
,  // measure 17
3003
0000
0001
0000
,  // measure 18
1000
0000
0001
0000
,  // measure 19
0000
0010
0000
0010
,  // measure 20
0000
0100
0000
0100
,  // measure 21
0000
0000
1000
0000
,  // measure 22
0001
0000
1000
0000
,  // measure 23
0000
0010
0000
0010
,  // measure 24
0000
0100
0000
0100
,  // measure 25
0000
0000
0001
0000
,  // measure 26
1000
0000
0001
0000
,  // measure 27
0000
0010
0000
0100
,  // measure 28
0000
0100
0000
0010
,  // measure 29
0000
0000
0001
0000
,  // measure 30
1000
0000
0001
0000
,  // measure 31
0100
0000
0100
0000
,  // measure 32
0010
0000
0010
0000
,  // measure 33
0200
0000
0000
0000
,  // measure 34
0000
0000
0000
0000
,  // measure 35
0300
0000
0000
0000
,  // measure 36
0000
0000
0000
0000
,  // measure 37
0000
1000
0000
1000
,  // measure 38
0000
1000
0000
1000
,  // measure 39
0000
0001
0000
0001
,  // measure 40
0000
0001
0000
0001
,  // measure 41
0000
0010
0000
0100
,  // measure 42
0000
0010
0000
0100
,  // measure 43
0000
1000
0000
0001
,  // measure 44
0000
1000
0000
0010
,  // measure 45
0000
0100
0000
0100
,  // measure 46
0000
0010
0000
0010
,  // measure 47
0000
1000
0000
0001
,  // measure 48
0000
1000
0000
0001
,  // measure 49
0000
0000
2000
0000
,  // measure 50
3000
0000
0002
0000
,  // measure 51
0003
0000
2000
0000
,  // measure 52
3000
0000
0002
0003
,  // measure 53
1000
0000
0001
0000
,  // measure 54
1000
0000
0001
0000
,  // measure 55
1000
0001
1000
0001
,  // measure 56
2000
0000
0002
0000
,  // measure 57
3003
0000
0010
0000
,  // measure 58
0100
0000
0010
0000
,  // measure 59
0200
0300
0002
0003
,  // measure 60
0002
0003
0002
0003
,  // measure 61
0200
0300
0010
0000
,  // measure 62
1000
0000
0010
0000
,  // measure 63
0000
0200
0000
0300
,  // measure 64
0000
0001
0000
1000
,  // measure 65
0000
1000
0000
0001
,  // measure 66
0000
1000
0000
0001
,  // measure 67
0000
0100
0000
0010
,  // measure 68
0000
0200
0300
0000
,  // measure 69
0001
0000
1000
0000
,  // measure 70
0001
0000
1000
0000
,  // measure 71
0100
0000
0010
0000
,  // measure 72
0001
0000
1000
0000
,  // measure 73
0002
0000
0000
0000
,  // measure 74
0003
0000
0000
0000
,  // measure 75
0000
0000
0000
0000
,  // measure 76
0000
0000
0000
0000
,  // measure 77
2000
0000
0000
0000
,  // measure 78
0000
0000
0000
0000
,  // measure 79
3002
0000
0000
0000
,  // measure 80
0000
0000
0000
0000
0000
0000
0000
0000
0000
0000
0000
0000
0000
0000
0000
0003
;
