#TITLE:Alive in my Soul;
#SUBTITLE:;
#ARTIST:aran;
#TITLETRANSLIT:;
#SUBTITLETRANSLIT:;
#ARTISTTRANSLIT:;
#GENRE:;
#CREDIT:;
#BANNER:;
#BACKGROUND:Alive in my Soul-bg.png;
#LYRICSPATH:;
#CDTITLE:;
#MUSIC:Alive in my soul.ogg;
#OFFSET:0.000000;
#SAMPLESTART:88.889000;
#SAMPLELENGTH:10.000000;
#SELECTABLE:YES;
#BPMS:0.000000=135.000000
;
#STOPS:
;
#BGCHANGES:;
#KEYSOUNDS:;
#ATTACKS:;

//---------------dance-single - ----------------
#NOTES:
     dance-single:
     :
     Hard:
     12:
     0.459185,0.583395,0.104465,0.273215,0.321430,400.000000,387.000000,13.000000,34.000000,0.000000,0.000000,0.459185,0.583395,0.104465,0.273215,0.321430,400.000000,387.000000,13.000000,34.000000,0.000000,0.000000:
0000
0000
0000
0000
,
0000
0000
0000
0000
,
0000
0000
0000
0000
,
0000
0000
0000
0000
,
0000
0000
0000
0000
,
0000
0000
0000
0000
,
0010
0000
0000
1000
0000
0000
0001
0000
1000
0000
0000
0000
0010
0000
0000
0000
,
0100
0000
0000
0001
0000
0000
1000
0000
0001
0000
0000
0000
0100
0000
0000
0000
,
0010
1000
0100
0000
0010
0001
0100
0000
,
0220
0000
0000
0330
,
0001
0000
0010
0001
0000
0000
0010
0000
0100
0000
0000
1000
0000
0000
0001
0000
,
1000
0000
0010
1000
0000
0000
0010
0000
0100
0000
0010
0000
0100
0000
0000
0000
,
0001
0000
0010
0001
0000
0000
1000
0000
0100
0000
0000
0010
0000
0000
0001
0000
,
1000
0000
0010
1000
0000
0000
0001
0000
0100
0000
1000
0000
0100
0000
0000
0000
,
0001
0000
0100
0001
0000
0000
0100
0000
0010
0000
0000
1000
0000
0000
0001
0000
,
1000
0000
0100
1000
0000
0000
0100
0000
0010
0000
0100
0000
0010
0000
0000
0000
,
0001
0000
0100
0001
0000
0000
1000
0000
0200
0000
0000
0000
0320
0000
0000
0000
,
0031
0000
0000
0000
1000
0001
1001
0000
,
1000
0000
0010
0100
0000
0010
0100
0000
0001
0000
1000
0000
0010
0000
0000
0000
,
0001
0000
0010
0100
0000
0010
0100
0000
1000
0000
0001
0000
0100
0000
0000
0000
,
0001
0000
1000
0010
0000
1000
0010
0000
0100
0000
0001
0000
0010
0000
0100
0000
,
1000
0000
0001
0100
0000
0001
0100
0000
0010
0000
1000
0000
0002
0000
0000
0000
,
1003
0000
1001
1000
1000
0001
0010
0000
,
0100
0000
1000
0001
0000
1000
0001
0000
0100
0000
0010
0000
1000
0000
0000
0000
,
0100
0000
1000
0001
0000
1000
0001
0000
0100
0000
0001
0000
0010
0000
0100
0000
,
2000
0000
0010
0000
3001
1000
1001
0000
,
0001
1000
0001
0100
0001
0010
0100
0000
,
1000
0001
1000
0100
1000
0010
0100
0000
,
0001
0010
0100
1000
0010
0100
0001
0010
,
0200
2300
3200
0302
,
0103
0000
1000
0100
0000
0000
2002
0000
0000
0000
0000
0000
3003
0000
0000
0000
,
0100
0000
0001
0100
0000
0000
2002
0000
0000
0000
0000
0000
3003
0000
0000
0000
,
0220
0000
0300
0000
,
0032
0000
0203
0000
,
0310
0000
0000
1000
0000
0000
0200
0000
0000
0000
0000
0000
0000
0000
0000
0000
,
0310
0000
0000
0001
0000
0000
2000
0000
0000
0000
0000
0000
0000
0000
0000
0000
,
3010
0000
0000
1000
0000
0000
0002
0000
0000
0000
0000
0000
0000
0000
0000
0000
,
0103
0000
0000
0001
0000
0000
0020
0000
0000
0000
0000
0000
0000
0000
0000
0000
,
0032
0000
0000
1000
0000
0000
0010
0000
0010
0000
0000
0000
0010
0000
0000
0000
,
2003
0000
0000
0001
0000
0000
0010
0000
0010
0000
0000
0000
0010
0000
0000
0000
,
3002
0000
0000
0100
0000
0000
1000
0000
1000
0000
0000
0000
1000
0000
0000
0000
,
2003
0000
0000
0100
0000
0000
0001
0000
0001
0000
0000
0000
3002
0000
0000
0000
,
0103
0000
0001
0100
0000
0001
0100
0000
0100
0000
0000
0000
0000
0000
0000
0000
,
1000
0000
0100
1000
0000
0100
1000
0000
1000
0000
0000
0000
0000
0000
0000
0000
,
0010
0000
1000
0010
0000
1000
0010
0000
0010
0000
0000
0000
0100
0000
0000
0000
,
0001
0000
0010
0001
0000
0010
0001
0000
0002
0000
0000
0000
2003
0000
0000
0000
,
3010
0000
1000
0001
0000
1000
0001
0000
0010
0000
0001
1000
0000
0001
1000
0000
,
0100
0000
1000
0001
0000
1000
0001
0000
0100
0000
0001
1000
0000
0001
1000
0000
,
0100
0000
1000
0001
0000
0001
0100
0000
0100
0010
0000
0010
1000
0000
1000
0100
,
0000
0100
0010
0000
0010
0001
0000
0001
0100
0000
0010
0000
0110
0000
0100
0000
,
0001
0000
1000
0100
0000
1000
0100
0000
0010
0000
0001
1000
0000
0000
0100
0000
,
1000
0000
0001
0100
0000
0001
0100
0000
0010
0000
1000
0000
0200
0000
0000
0000
,
0310
0000
0001
0010
0000
0001
0010
0000
0100
0000
1000
0001
0000
0000
0100
0000
,
0010
0000
1000
0010
0000
1000
0010
0000
0100
0000
0100
0000
0001
0000
0001
0000
,
1000
0000
0100
0010
0000
0100
0010
0000
0001
0000
0100
0001
0000
0000
1000
0000
,
0001
0000
0100
0010
0000
0100
0010
0000
1000
0000
0100
0000
1000
0000
0000
0000
,
0010
0000
1000
0001
0000
1000
0001
0000
0010
0000
1000
0000
0010
0000
0001
0000
,
0200
0000
0000
0000
0000
0000
0310
0010
,
1000
0000
0001
0010
0001
0000
1000
0000
0100
0000
1000
0000
0010
0000
0000
0000
,
0001
0000
1000
0010
1000
0000
0001
0000
0100
0000
0001
0000
0010
0000
0000
0000
,
0100
0000
1000
0001
1000
0000
0010
0000
0100
0000
0001
0000
0010
0000
0001
0000
,
0100
0000
0001
1000
0001
0000
0100
0000
0010
0000
1000
0000
0100
0000
0000
0000
,
0120
0000
0031
0002
0000
0000
1003
0000
,
1000
1001
0001
0200
0000
0010
0310
0000
,
1010
1000
0001
0011
0000
0010
0100
0000
,
1000
0000
1100
0000
0100
0000
0000
0000
0001
0000
0100
0001
0100
0000
0010
0000
,
1000
0000
0000
0000
;

//---------------dance-single - ----------------
#NOTES:
     dance-single:
     :
     Challenge:
     14:
     0.590053,0.715985,0.200894,0.216965,0.618752,514.000000,489.000000,25.000000,27.000000,0.000000,0.000000,0.590053,0.715985,0.200894,0.216965,0.618752,514.000000,489.000000,25.000000,27.000000,0.000000,0.000000:
0000
0000
0000
0000
,
0000
0000
0000
0000
,
0000
0000
0000
0000
,
0000
0000
0000
0000
,
0000
0000
0000
0000
,
0000
0000
0000
0000
,
0010
0000
0000
0001
0000
0000
0100
0000
0010
0000
0000
0000
0100
0000
0000
0000
,
0001
0000
0000
1000
0000
0000
0100
0000
0010
0000
0000
0000
0100
0000
0000
0000
,
1000
0000
0100
1000
0000
0000
1000
0000
0001
0000
0100
0001
0000
0000
0001
0000
,
0100
0000
0100
0000
0010
0000
0000
0100
0000
0100
0010
0000
0110
0000
0000
0000
,
1001
0000
0001
0010
0000
0001
0010
0000
0100
0000
1000
0001
0000
0000
0100
0000
,
0110
0000
1000
0010
0000
1000
0010
0000
0100
0000
0001
0000
0020
0000
0000
0000
,
0031
0000
0100
0010
0000
0100
0010
0000
1000
0000
0001
0010
0000
0000
0100
0000
,
0110
0000
0010
0100
0000
0010
0100
0000
0001
0000
0100
0000
2000
0000
0000
0000
,
3010
0000
0100
0001
0000
0100
0001
0000
1000
0000
0001
0010
0000
0000
0001
0000
,
0100
0000
0010
1000
0000
0010
1000
0000
0100
0000
0001
0000
1000
0000
0010
0000
,
0001
0000
0100
0001
0000
0000
1001
0000
1000
0000
0010
0000
0100
0000
0001
0000
,
0020
0000
0000
0000
0030
0000
0000
0000
0100
0000
0010
0000
0110
0000
0100
1000
,
0100
0000
1000
0001
0000
1000
0001
0000
0100
0000
0010
1000
0000
1000
0100
0000
,
0010
0000
0001
1000
0000
0001
1000
0000
0010
0000
0100
0001
0000
0001
1000
0001
,
1000
0000
0100
0010
0000
0100
0010
0000
0001
0000
0100
0001
0000
0001
1000
0000
,
0001
0000
0010
0100
0000
0010
0100
0000
1000
0000
0001
1000
0100
0000
0010
0000
,
0002
0000
0000
0000
0013
0000
0110
0000
0100
0000
1000
0010
0000
0100
0001
0000
,
1000
0000
0001
0010
0000
0001
0010
0000
0001
0000
0100
0001
0000
1000
0010
1000
,
0010
0000
1000
0100
0000
0010
0001
0000
1000
0000
0001
0100
0000
0001
0100
0000
,
0010
0000
1000
0100
1000
0100
1000
0000
0010
0000
0100
0001
0100
0001
0100
0000
,
0001
1000
0001
1000
0100
0000
1000
0001
1000
0001
0010
0000
0110
0000
0000
0000
,
1000
0001
1000
0001
0100
0000
0001
1000
0001
1000
0100
0000
1100
0000
0000
0000
,
0100
0010
0100
0010
0001
0000
0100
0010
1000
0010
0100
0000
0101
0000
0001
0000
,
0020
2030
3200
0320
,
0031
0000
0010
0001
0000
0000
2001
0000
0000
0000
0001
0000
3001
0000
0000
0000
,
1000
0000
0010
1000
0000
0000
1002
0000
0000
0000
0100
0000
0103
0000
0000
0000
,
0220
0000
0000
0000
,
0030
0000
0000
0000
0000
0000
0310
0010
0010
0100
0100
0100
,
0002
0000
0000
0023
0000
0000
1000
0000
0000
0000
0000
0000
0000
0000
0000
0000
,
0032
0000
0000
0203
0000
0000
1000
0000
0000
0000
0000
0000
0302
0000
0000
0000
,
2003
0000
0000
3020
0000
0000
0001
0000
0000
0000
0000
0000
0000
0000
0000
0000
,
2030
0000
0000
3200
0000
0000
0001
0000
0000
0000
0000
0000
2300
0000
0000
0000
,
3100
0000
0000
1000
0000
0000
0010
0000
1000
0000
0000
0000
0100
0000
0000
0000
,
1000
0000
0000
0010
0000
0000
0001
0000
0010
0000
0000
0000
1000
0000
0000
0000
,
0010
0000
0000
0001
0000
0000
0100
0000
0001
0000
0000
0000
0010
0000
0000
0000
,
0001
0000
0000
0100
0000
0000
1000
0000
0100
0000
0000
0000
0001
0000
0000
0000
,
0100
0000
1000
0100
0000
1000
0100
0000
1000
0001
0000
0000
0000
0000
0001
1000
,
0001
0000
0100
0001
0000
0100
0001
0000
1000
0001
0000
0000
0000
0000
0010
0100
,
1000
0000
0010
1000
0000
0010
1000
0000
0010
0100
0000
0000
0000
0000
0010
0100
,
0001
0000
0000
0000
0000
0000
0010
0000
0000
0001
0000
0000
0000
0000
0000
0010
0000
0000
0001
0000
0000
0000
0000
0000
0010
0000
0000
0000
0100
0000
0000
0000
1000
0000
0000
0000
0010
0000
0000
0000
0100
0000
0000
0000
0001
0000
0000
0000
,
0100
0000
0010
1000
0000
0010
1000
0000
1001
0000
0010
0001
0000
0010
0001
0000
,
1001
0000
0010
1000
0000
1000
0100
0000
0110
0000
0010
0001
0000
0001
0100
0000
,
0110
0000
0010
1000
0000
1000
0100
0000
0100
0001
0000
0001
0010
0000
0010
1000
,
0000
1000
0100
0000
0100
0001
0000
0001
0010
0000
0010
1000
0100
0000
0010
0000
,
0110
0000
0100
1000
0000
0100
1000
0000
0010
0000
1000
0001
1000
0000
0100
0000
,
1000
0000
0001
0100
0000
0001
0100
0000
0010
0000
1000
0000
0200
0000
0000
0000
,
0310
0000
0010
0001
0000
0010
0001
0000
0100
0000
0001
1000
0001
0000
0010
0000
,
0001
0000
1000
0010
0000
1000
0010
0000
0100
0000
0100
0000
0110
0000
0000
0000
,
0001
0000
0010
0100
0000
0010
0001
0000
1000
0000
0001
0100
0001
0000
0001
0000
,
1000
0000
0010
0100
0000
0010
1000
0000
0001
0000
0010
0000
1000
0000
0001
0000
,
0100
0000
1000
0100
0000
0010
0001
0000
0100
0000
0001
0000
2000
0000
0000
0000
,
3020
0000
0000
0000
0130
0010
0110
0000
,
0001
0000
0100
0010
0100
0000
0001
0000
1000
0010
0100
0000
0001
1000
0100
0000
,
1000
0000
0100
0010
0100
0000
1000
0000
0100
0010
0001
0000
1000
0001
0100
0000
,
0010
0000
1000
0001
1000
0000
0010
0000
1000
0010
0100
0000
0001
0010
0100
0000
,
0010
0000
0001
1000
0001
0000
0010
0000
0001
1000
0001
0100
0010
0000
1000
0000
,
1100
0100
0010
0012
0000
1000
1003
0000
,
0001
0101
1000
1200
0000
0010
1300
0000
,
1001
0000
0001
0100
0000
0001
1000
0000
0001
0010
0000
0100
0010
0000
0100
1000
,
0000
0001
1000
0000
0010
1000
0000
0001
0100
0001
1000
0100
0010
0000
0100
0000
,
0100
0000
0000
0000
;

//---------------dance-single - ----------------
#NOTES:
     dance-single:
     :
     Medium:
     10:
     0.344389,0.450805,0.144643,0.289287,0.056250,300.000000,282.000000,18.000000,36.000000,0.000000,0.000000,0.344389,0.450805,0.144643,0.289287,0.056250,300.000000,282.000000,18.000000,36.000000,0.000000,0.000000:
0000
0000
0000
0000
,
0000
0000
0000
0000
,
0000
0000
0000
0000
,
0000
0000
0000
0000
,
0000
0000
0000
0000
,
0000
0000
0000
0000
,
0010
1000
0010
1000
,
0001
0100
0001
0100
,
0010
1000
0100
0010
,
0002
0000
0000
1003
,
0010
0000
1010
0000
0001
0010
0100
0000
,
0010
0011
0200
2300
,
3010
0000
1010
0000
0001
1000
0100
0000
,
0010
0000
0011
0000
1000
0010
0100
0010
,
0100
0000
0101
0000
1000
0100
0010
0000
,
0100
1100
0020
0032
,
0103
0000
0010
0000
0001
0010
1000
0000
,
0020
0000
0000
0000
0100
0100
0130
0000
,
0001
0000
1000
0000
0001
0100
0001
0100
,
0010
0000
1000
0000
0001
0010
0010
0000
,
1000
0000
0001
0000
1000
0100
1000
0100
,
0010
0000
0001
0000
1000
0010
0010
0000
,
0002
0000
0103
0010
0100
0000
0001
1000
,
0100
0000
0010
0000
1000
0010
0001
0000
,
1000
0000
0001
0000
0100
0001
0100
0010
,
1000
0010
2000
0000
3001
0010
0100
0000
,
1000
0100
1000
0000
0001
1001
0000
0000
,
0001
0100
0001
0000
0010
0011
0000
0000
,
1000
0010
1000
0000
0001
1001
0000
0000
,
2000
3200
0320
0032
,
0103
0000
0000
0100
0000
0000
0202
0000
0000
0000
0000
0000
0303
0000
0000
0000
,
0010
0000
0000
0010
0000
0000
2020
0000
0000
0000
0000
0000
3030
0000
0000
0000
,
0002
0000
0000
0000
,
2000
0000
0000
3003
,
1000
0000
0000
1000
0000
0000
2000
0000
0000
0000
0000
0000
3000
0000
0000
0000
,
0100
0000
0000
0100
0000
0000
0200
0000
0000
0000
0000
0000
0300
0000
0000
0000
,
0001
0000
0000
0001
0000
0000
0002
0000
0000
0000
0000
0000
0003
0000
0000
0000
,
0010
0000
0000
0010
0000
0000
0020
0000
0000
0000
0000
0000
0000
0000
0000
0000
,
0031
0100
0000
0100
0000
0001
0000
0001
,
0000
0010
0000
0010
0000
1000
0000
1000
,
0000
0100
0000
0010
0000
0001
0000
1000
,
0000
0010
0000
0100
0000
0001
0002
0000
,
0103
0000
0000
0100
0000
0000
0100
0000
0001
0000
0000
0000
1000
0000
0000
0000
,
0100
0000
0000
0100
0000
0000
0100
0000
1000
0000
0000
0000
0001
0000
0000
0000
,
0010
0000
0000
0010
0000
0000
0010
0000
0001
0000
0000
0000
1000
0000
0000
0000
,
0010
0000
0000
0010
0000
0000
0010
0000
0200
0000
0000
0000
0302
0000
0000
0000
,
1003
0000
0100
0010
0011
0000
0100
0010
,
1010
0000
0001
0010
0110
0000
1000
0010
,
0110
0000
0000
0100
0000
0000
0001
0000
0000
0010
0000
0000
1000
0000
0000
0100
,
0000
0000
0010
0000
0000
0001
0000
0000
0100
0000
0010
0000
0200
0000
0000
0000
,
0301
0100
0001
0000
1000
0100
0010
0000
,
0001
0010
0001
0000
2000
0000
3020
0000
,
1030
0100
1000
0000
0001
0100
0010
0000
,
1000
0010
1000
0000
0001
0010
1000
0010
,
0001
0010
0001
0000
0100
0010
1000
0000
,
0001
0100
0001
0000
2000
0000
3200
0000
,
1300
0010
0100
0000
0002
0000
0023
0000
,
0230
0000
0000
1300
,
1001
0000
0001
0000
1000
0010
1000
0100
,
0010
0000
0001
0000
0001
0100
1000
0000
,
1000
0000
0100
0000
0001
1000
0001
0100
,
0010
0000
1000
0000
1000
0100
0001
0100
,
2000
0000
0100
3100
0000
0000
0110
0000
,
0000
0001
0100
0020
0000
0100
0130
0000
,
0002
0000
0100
0103
0000
0000
0110
0000
,
0010
1000
0001
0000
0010
0001
1000
0010
,
0100
0000
0000
0000
;

//---------------dance-single - ----------------
#NOTES:
     dance-single:
     :
     Easy:
     6:
     0.216965,0.238662,0.048214,0.112500,0.000000,189.000000,183.000000,6.000000,14.000000,0.000000,0.000000,0.216965,0.238662,0.048214,0.112500,0.000000,189.000000,183.000000,6.000000,14.000000,0.000000,0.000000:
// measure 0
0000
0000
0000
0000
,  // measure 1
0000
0000
0000
0000
,  // measure 2
0000
0000
0000
0000
,  // measure 3
0000
0000
0000
0000
,  // measure 4
0000
0000
0000
0000
,  // measure 5
0000
0000
0000
0000
,  // measure 6
0010
0001
0010
0001
,  // measure 7
1000
0010
0100
0000
,  // measure 8
0001
0100
1000
0100
,  // measure 9
0002
0000
0003
0000
,  // measure 10
1000
0100
0010
0000
,  // measure 11
0001
0100
0010
0100
,  // measure 12
0001
1000
0010
0000
,  // measure 13
1000
0001
0100
0001
,  // measure 14
0010
0001
0010
0000
,  // measure 15
0100
1000
0001
0100
,  // measure 16
0010
1000
0001
0010
,  // measure 17
0020
0000
0030
0000
,  // measure 18
0001
0010
0100
1000
,  // measure 19
0001
0010
0100
1000
,  // measure 20
1000
0010
0100
0001
,  // measure 21
1000
0010
0100
0000
,  // measure 22
0002
0013
0100
0010
,  // measure 23
0001
0010
0100
0000
,  // measure 24
1000
0010
0100
0010
,  // measure 25
2000
3000
0002
0003
,  // measure 26
1000
0001
0010
0000
,  // measure 27
0001
1000
0100
0000
,  // measure 28
1000
0001
0100
0000
,  // measure 29
0010
1000
0001
0010
,  // measure 30
0100
0000
1100
0000
,  // measure 31
0001
0000
0101
0000
,  // measure 32
2002
0000
0000
0000
,  // measure 33
0000
0000
3003
0000
,  // measure 34
0002
0000
1003
0000
,  // measure 35
0020
0000
1030
0000
,  // measure 36
2000
0000
3001
0000
,  // measure 37
0020
0000
0031
0000
,  // measure 38
1000
0010
1000
0000
,  // measure 39
0001
0010
0001
0000
,  // measure 40
1000
0100
1000
0000
,  // measure 41
0001
0100
0001
0000
,  // measure 42
1000
0010
0010
0000
,  // measure 43
0001
0010
0010
0000
,  // measure 44
1000
0100
0100
0000
,  // measure 45
0001
0100
0100
0000
,  // measure 46
0010
0010
1000
1000
,  // measure 47
0100
0100
0001
0001
,  // measure 48
0010
1000
0100
0001
,  // measure 49
0010
2000
0002
3003
,  // measure 50
1001
0001
0100
0000
,  // measure 51
0001
1000
0100
0100
,  // measure 52
0010
0001
1000
0000
,  // measure 53
0010
1000
0001
0001
,  // measure 54
0100
0010
1000
0000
,  // measure 55
0010
0100
0001
0000
,  // measure 56
0010
0100
1000
0010
,  // measure 57
0020
0000
0030
0000
,  // measure 58
0001
0100
1000
0100
,  // measure 59
0001
0100
0010
0000
,  // measure 60
1000
0100
0001
0100
,  // measure 61
1000
0100
0010
0000
,  // measure 62
0001
0000
1001
0000
,  // measure 63
1000
0000
1001
0000
,  // measure 64
0001
0100
0010
1000
,  // measure 65
0001
0010
1000
0100
,  // measure 66
0010
0000
0000
0000
;

//---------------dance-single - ----------------
#NOTES:
     dance-single:
     :
     Beginner:
     3:
     0.120536,0.185626,0.032143,0.128572,0.000000,105.000000,101.000000,4.000000,16.000000,0.000000,0.000000,0.120536,0.185626,0.032143,0.128572,0.000000,105.000000,101.000000,4.000000,16.000000,0.000000,0.000000:
// measure 0
0000
0000
0000
0000
,  // measure 1
0000
0000
0000
0000
,  // measure 2
0000
0000
0000
0000
,  // measure 3
0000
0000
0000
0000
,  // measure 4
0000
0000
0000
0000
,  // measure 5
0000
0000
0000
0000
,  // measure 6
0010
0000
0100
0000
,  // measure 7
0010
0000
0100
0000
,  // measure 8
0001
0000
1000
0000
,  // measure 9
0010
0000
0000
0000
,  // measure 10
1000
0000
0100
0000
,  // measure 11
1000
0000
0000
0000
,  // measure 12
0001
0000
0100
0000
,  // measure 13
0001
0000
0000
0000
,  // measure 14
1000
0000
0010
0000
,  // measure 15
1000
0000
0000
0000
,  // measure 16
0001
0000
0010
0000
,  // measure 17
0200
0000
0300
0000
,  // measure 18
1000
0000
0100
0000
,  // measure 19
1000
0000
0001
0000
,  // measure 20
0100
0000
0001
0000
,  // measure 21
1000
0000
0100
0100
,  // measure 22
0100
0000
1000
0000
,  // measure 23
0010
0000
0100
0000
,  // measure 24
0001
0000
0010
0000
,  // measure 25
0200
0000
0300
0000
,  // measure 26
1000
0000
1000
0000
,  // measure 27
0001
0000
0001
0000
,  // measure 28
1000
0000
1000
0000
,  // measure 29
0002
0000
0003
0000
,  // measure 30
1001
0000
0000
0000
,  // measure 31
0110
0000
0000
0000
,  // measure 32
2002
0000
0000
0000
,  // measure 33
3003
0000
0000
0000
,  // measure 34
0002
0000
0003
0000
,  // measure 35
0020
0000
0030
0000
,  // measure 36
0200
0000
0300
0000
,  // measure 37
2000
0000
3000
0000
,  // measure 38
0020
0000
0030
0000
,  // measure 39
2000
0000
3000
0000
,  // measure 40
0002
0000
0003
0000
,  // measure 41
0200
0000
0300
0000
,  // measure 42
0001
0000
0001
0000
,  // measure 43
1000
0000
1000
0000
,  // measure 44
0001
0000
0001
0000
,  // measure 45
1000
0000
1000
0000
,  // measure 46
0100
0000
0010
0000
,  // measure 47
0100
0000
0010
0000
,  // measure 48
0001
0000
0001
0000
,  // measure 49
0001
0001
0001
0000
,  // measure 50
1000
0000
0010
0000
,  // measure 51
0100
0000
0000
0000
,  // measure 52
0001
0000
0100
0000
,  // measure 53
0010
0000
0000
0000
,  // measure 54
1000
0000
0100
0000
,  // measure 55
0010
0000
0000
0000
,  // measure 56
0001
0000
0010
0000
,  // measure 57
0200
0000
0300
0000
,  // measure 58
1000
1000
1000
0000
,  // measure 59
0001
0001
0001
0000
,  // measure 60
1000
1000
1000
0000
,  // measure 61
0001
0001
0001
0000
,  // measure 62
0200
0000
0300
0000
,  // measure 63
0020
0000
0030
0000
,  // measure 64
1000
0000
1000
0000
,  // measure 65
0001
0000
0001
0000
,  // measure 66
1001
0000
0000
0000
;
