#VERSION:0.83;
#TITLE:AI;
#SUBTITLE:;
#ARTIST:Sota F.;
#TITLETRANSLIT:;
#SUBTITLETRANSLIT:;
#ARTISTTRANSLIT:;
#GENRE:;
#ORIGIN:;
#CREDIT:;
#BANNER:;
#BACKGROUND:AI-bg.png;
#PREVIEWVID:;
#JACKET:AI-jacket.png;
#CDIMAGE:;
#DISCIMAGE:;
#LYRICSPATH:;
#CDTITLE:;
#MUSIC:AI.ogg;
#OFFSET:2.022000;
#SAMPLESTART:71.187004;
#SAMPLELENGTH:10.000000;
#SELECTABLE:YES;
#BPMS:0.000=95.000,
8.000=190.000,
168.000=95.000,
192.000=190.000;
#STOPS:;
#DELAYS:;
#WARPS:;
#TIMESIGNATURES:0.000=4=4;
#TICKCOUNTS:0.000=4;
#COMBOS:0.000=1;
#SPEEDS:0.000=1.000=0.000=0;
#SCROLLS:0.000=1.000;
#FAKES:;
#LABELS:0.000=Song Start;
#BGCHANGES:;
#KEYSOUNDS:;
#ATTACKS:
;

//---------------dance-single - ----------------
#NOTEDATA:;
#CHARTNAME:;
#STEPSTYPE:dance-single;
#DESCRIPTION:;
#CHARTSTYLE:Pad;
#DIFFICULTY:Hard;
#METER:17;
#RADARVALUES:0.886555,1.179534,0.725490,0.549020,0.647059,633.000000,559.000000,74.000000,56.000000,0.000000,0.000000,0.000000,0.000000,0.000000,0.886555,1.179534,0.725490,0.549020,0.647059,633.000000,559.000000,74.000000,56.000000,0.000000,0.000000,0.000000,0.000000,0.000000;
#CREDIT:Mei;
#NOTES:
0000
0000
0000
0000
,
0000
0000
0000
0000
0000
0000
0000
0000
0000
0000
0001
1000
0100
0000
1010
0000
,
1002
0000
0013
0100
1000
0010
1000
0000
,
1000
0000
0001
1000
0001
0010
0001
1000
0010
1000
0010
0100
0001
0000
0000
0000
,
0010
0100
1000
0100
1000
0000
0000
0000
0010
1000
0001
1000
0001
0000
0000
0000
,
0110
0000
0000
1000
0100
0010
0001
0000
0000
1001
0000
0000
,
2010
0000
3001
0100
0002
0000
0023
0000
,
0031
0100
0001
0000
0100
0010
0100
0000
0010
1000
0010
0000
1000
0001
1000
0000
,
0200
0000
0320
0000
0000
0000
0032
0000
0000
0203
0000
0000
0301
0000
0010
0000
,
0100
1100
1001
0000
0101
0000
0110
0000
,
2100
0000
3100
0010
0001
0100
0001
0000
,
1000
0000
0010
1000
0001
0010
0100
1000
0001
0010
0100
1000
0001
0000
1000
0000
,
0001
0100
0001
0100
0010
0000
0000
0000
1000
0100
0010
0100
1000
0000
0000
0000
,
0110
0000
0000
0000
0001
0000
1000
0100
1000
0000
0001
0100
0002
0000
0000
0000
,
1003
0000
0011
0001
2000
0000
3020
0000
,
1030
0000
0100
1000
0100
0000
0010
0100
0010
0000
0001
0010
0001
0000
1000
0000
,
0010
0010
0001
0100
0100
1000
1001
0000
,
0000
0000
1010
0000
0110
0000
0000
0000
0101
0000
0001
1000
0200
0000
0000
0000
,
0310
0000
0001
0000
1000
0001
1000
0000
0001
0000
0010
0000
1000
0000
0010
0000
,
0001
0100
0001
0010
0001
1000
0200
0000
,
0310
0000
0001
0000
1000
0001
1000
0000
0001
0000
1000
0000
0010
0000
0001
0000
,
0010
1000
0100
1000
0010
0100
0001
0000
,
1000
0000
0100
0000
0010
0001
0010
0000
0100
0000
1000
0000
0001
0100
0001
0000
,
0010
0000
0100
0000
1000
0001
1000
0000
0010
1000
0010
1000
0002
0000
0000
0000
,
1003
0000
0010
0000
0010
0100
0010
0000
1000
0000
0001
0000
0010
0000
0001
0000
,
0101
0001
1000
1100
1001
0002
0200
0303
,
1001
0000
0000
0000
1000
0000
0001
0010
0000
0100
1000
0000
0001
0000
0000
0000
,
1000
0100
1000
0001
0100
0001
0100
0000
0001
0010
0001
1000
0010
0000
0000
0000
,
1010
0000
0000
0000
0100
0000
0001
0000
0000
0000
0010
0000
0001
0000
0000
0000
1000
0000
0100
0000
0000
1000
0000
0000
,
0010
0010
0010
1000
0100
0001
0100
0000
,
1010
0000
0000
0000
1100
0000
0000
0000
0001
0000
1000
0000
0001
0100
0001
0000
,
1001
0000
0000
1100
0000
0000
1010
0000
0000
0011
0000
0000
0110
0000
0100
0000
,
1000
0100
0100
0001
0010
0010
1000
0010
,
0100
0010
0100
0000
0010
1000
0010
0000
1000
0100
1000
0000
0001
1000
0001
0000
,
0020
0000
0000
0000
0130
0000
0000
1100
0000
0000
1001
0000
0001
0000
0000
0000
,
1000
0100
0100
0001
1000
0010
0001
0010
,
1000
0001
0100
0000
0001
1000
0100
0000
0010
0100
1000
0000
0020
0000
0000
0000
,
1030
0000
0001
0100
0010
0000
0010
0000
1000
0000
0100
0000
0001
0000
0100
0000
,
2000
0000
0000
0000
3001
0000
1000
0000
0001
0010
0100
0000
1100
0000
0000
0000
,
1001
0000
0000
0101
0000
0000
0011
0000
0000
1010
0000
0000
0110
0000
0100
0000
,
0002
0000
0000
0000
1003
0001
1000
0010
0000
0010
0100
0000
0001
1000
0001
1000
,
0200
0000
0000
0000
0010
0000
0000
0000
0310
0001
1000
0001
1000
0000
0000
0000
,
1001
0000
0000
0000
0010
0000
0000
0000
0100
1000
0100
0000
1000
0000
0000
0000
0001
0000
1000
0000
0010
0000
0000
0000
0001
0000
0100
0000
0010
0000
1000
0000
,
0001
0000
0010
0000
0100
0000
0000
1000
0000
0000
1010
0000
1001
0000
0000
0000
1000
0000
0010
0000
0100
0000
0000
0001
0000
0000
0011
0000
0110
0000
0000
0000
,
1001
0000
0000
0000
0010
0000
0000
0000
0100
0001
0100
0000
0001
0000
0000
0000
1000
0000
0001
0000
0010
0000
0000
0000
1000
0000
0100
0000
0001
0000
0100
0000
,
0010
0000
0000
0000
0000
0000
0000
0000
0000
0000
0000
0000
0001
0000
0000
0000
0000
0000
1000
0000
0000
0000
0000
0000
0001
0000
0000
0000
0000
0000
1000
0000
0000
0000
0000
0000
0010
0000
0000
0000
0000
0000
0000
0000
0000
0000
0000
0000
0100
0000
0000
0000
0000
0000
0000
0000
0000
0000
0000
0000
0001
0000
0000
0000
0000
0000
1000
0000
0000
0000
0000
0000
0001
0000
0000
0000
0000
0000
1000
0000
0000
0000
0000
0000
0100
0000
0000
0000
0000
0000
0000
0000
0000
0000
0000
0000
1000
0000
0000
0000
0000
0000
0000
0000
0000
0000
0000
0000
0000
0000
0000
0000
0001
0000
0000
0000
0000
0000
0000
0000
0010
0000
0000
0000
0000
0000
0000
0000
0000
0000
0000
0000
0000
0000
0000
0000
0010
0000
0000
0000
0000
0000
0000
0000
0100
0000
0000
0000
0000
0000
0000
0000
0000
0000
0000
0000
0000
0000
0000
0000
0000
0000
0000
0000
0000
0000
0000
0000
1100
0000
0000
0000
0000
0000
0000
0000
0000
0000
0000
0000
0000
0000
0000
0000
0000
0000
0000
0000
0000
0000
0000
0000
,
1002
0000
0000
0000
2003
0000
0000
0000
0000
3010
1000
0001
0200
0000
0000
0000
,
0310
0000
1000
0100
0000
0010
0100
0000
1100
0000
0000
0000
0011
0000
0000
0000
1100
0000
0000
0000
1000
0000
0001
0000
0100
0000
0000
0000
0011
0000
0000
0000
,
1002
0000
0013
0100
1000
0001
1000
1010
,
0010
0100
0001
1000
0100
0001
0100
0010
,
0001
0100
0001
0100
0010
1000
0010
1000
0001
0010
0001
0010
0100
0000
1000
0000
,
0002
0203
2300
3002
0023
2030
3200
0302
,
0103
0000
1001
1000
0010
1000
0001
0011
,
0000
1010
0000
0101
0000
0001
1000
0010
,
1020
0000
0000
0000
0001
0000
0000
0000
1030
0000
0001
1000
0000
0001
1000
0000
,
0200
0000
0302
0000
2003
0000
3020
0000
0031
0100
0001
0100
0010
0000
0000
0000
,
1002
0000
0103
0010
1000
0100
0010
0001
,
0101
0000
0000
1100
0000
0000
1010
0000
0000
0000
1001
0000
1000
0000
0010
0000
,
1000
0010
0100
0001
0010
0001
0100
0010
1000
0100
0010
0001
1000
0000
0010
0000
,
2000
3200
0302
2003
3020
0032
0203
2300
,
3100
0000
0001
0000
1001
0000
0000
0000
0010
1000
0000
0010
1000
0000
0011
0000
,
0000
1010
0000
0101
0000
1000
0001
0010
,
0021
0000
0000
0000
1000
0000
0000
0000
0031
0000
0010
0100
0000
0010
0100
0000
,
2000
3020
0032
2003
3100
0000
0101
0000
,
1001
0000
1000
0000
0100
1000
0100
1000
0010
0000
0010
0000
0001
0100
0001
0100
,
0020
0100
0100
0130
,
0100
0000
1100
0000
1001
0000
0000
0000
0100
0001
0100
0001
1000
0000
0000
0000
,
0110
0011
0000
1010
0110
0000
2002
0000
,
0000
0000
0000
3003
;

//---------------dance-single - ----------------
#NOTEDATA:;
#CHARTNAME:;
#STEPSTYPE:dance-single;
#DESCRIPTION:;
#CHARTSTYLE:Pad;
#DIFFICULTY:Challenge;
#METER:18;
#RADARVALUES:0.988795,1.348039,0.803922,0.745098,0.941176,706.000000,624.000000,82.000000,76.000000,60.000000,0.000000,0.000000,0.000000,0.000000,0.988795,1.348039,0.803922,0.745098,0.941176,706.000000,624.000000,82.000000,76.000000,60.000000,0.000000,0.000000,0.000000,0.000000;
#CREDIT:Mei;
#NOTES:
0000
0000
0000
0000
,
0000
0000
0000
0000
0000
0000
0000
0000
0000
0000
1000
0100
0001
0000
0011
0000
,
1020
0000
0000
0000
0130
0000
0001
0000
1000
0000
0100
0010
0001
0000
0000
0000
,
1000
0000
0001
0100
0010
1000
0001
0010
0100
1000
0001
0100
0001
0000
0000
0000
,
1000
0100
0010
0100
1000
0000
0000
0000
0001
0100
0010
0100
0001
0000
0000
0000
,
1001
0000
0000
0110
1000
0100
0001
0000
0000
1100
0000
0000
,
1020
0000
0130
0001
0020
0000
2030
0000
,
3010
0001
1000
0001
0100
0010
1000
0001
1000
0100
0010
0001
1000
0010
0100
0001
,
0020
0000
2030
0000
0000
0000
3020
0000
0000
0032
0000
0000
2003
0000
3010
0000
,
1001
1001
1100
0000
0011
0000
1001
0000
,
0120
0000
0000
0000
1030
0000
0100
0000
0010
0000
0001
1000
0010
0000
0000
0000
,
0010
0000
1000
0100
0010
0100
1000
0001
0100
0010
0100
0001
1000
0100
1000
0001
,
0100
0010
1000
0010
0100
0000
0000
0000
0001
0010
1000
0010
0001
0000
0000
0000
,
0110
0000
0000
0000
1000
0000
0100
0010
0100
0000
0100
0000
0101
0000
0000
0000
,
0120
0000
0031
0001
0200
0000
2300
0000
,
3100
0010
1000
0001
0100
0001
1000
0100
0010
0001
1000
0010
0100
0001
0010
0001
,
1000
0100
1100
1001
0100
0110
1010
0000
,
0000
0000
0101
0000
1001
0000
1000
0000
0110
0000
0100
1000
0020
0000
0000
0000
,
0130
0000
0100
0000
0001
1000
0001
0000
0010
0000
1000
0000
0010
0001
0010
0000
,
0200
1000
0320
0001
1030
0010
0200
0000
,
0310
0000
0010
0000
1000
0001
1000
0000
0100
0000
0001
0000
0100
1000
0001
0000
,
2000
0010
3002
0100
1003
0100
0110
0000
,
1000
0000
1000
0000
0010
0100
0010
0000
0001
0000
0010
0000
1000
0001
1000
0000
,
0200
1000
0301
0000
0200
0001
1300
0000
0100
1000
0001
1000
0020
0000
0000
0000
,
0130
0000
0001
0000
0001
0010
1000
0000
0020
0001
0130
0000
0020
1000
0130
0000
,
1100
1001
0100
0101
1001
0200
2000
3300
,
0110
0000
0000
0000
1000
0000
0001
0010
0000
0010
1000
0000
0010
0100
0010
0000
,
1000
0100
0010
0001
1000
0010
0100
0010
1000
0001
0100
0001
0010
0000
0000
0000
,
0011
0000
0000
0000
0100
0000
1000
0000
0000
0000
0010
0000
1000
0000
0100
0000
0001
0000
0100
0000
0000
0010
0000
0000
,
0011
0011
0011
1010
0001
0100
2000
0000
,
3100
0000
1001
0000
0020
1000
0230
0001
,
0310
0000
0000
1100
0000
0000
0011
0000
0000
0110
0000
0000
1010
0000
1001
0000
,
1000
0000
0010
0000
0010
0000
0001
0000
0010
0000
0010
0100
0000
0100
0010
0000
,
0100
0010
0100
0001
1000
0100
0010
0001
0100
1000
0100
0001
0010
0100
1000
0001
,
0200
0000
0000
0000
0310
0000
0000
1010
0000
0000
0011
0000
1001
0000
0000
0000
,
0001
0000
1000
0000
0010
0100
0010
0000
0002
0000
0023
0000
0230
0000
0302
0000
,
0013
0001
0100
0000
0010
1000
0100
0000
0001
0100
1000
0010
0200
0000
0000
0000
,
0301
0000
1000
0100
0010
0001
1000
0000
0002
0000
0010
0000
2003
0000
0100
0000
,
3002
0000
0000
0000
0103
0000
0001
0000
0010
0100
0010
0000
1001
0000
0000
0000
,
0110
0000
0000
1010
0000
0000
0101
0000
0000
0110
0000
0000
1100
0000
1001
0000
,
2000
0000
0000
0000
3100
0001
0100
1000
0000
0010
0100
0000
0001
1000
0001
1000
,
0010
0100
0001
0010
0001
1000
0001
0100
0010
1000
0100
0010
0100
0000
0000
0000
,
1200
0000
0000
0000
0301
0000
0000
0000
0100
0010
0100
0000
1000
0000
0000
0000
0001
0000
0100
0000
1100
0000
0000
0000
1000
0000
1000
0000
0010
0000
0010
0000
,
0100
0001
0000
0001
0010
0000
0100
0010
0000
1000
0010
0000
0110
0000
0000
0000
0100
1000
0000
1000
0010
0000
0100
0010
0000
0001
0010
0000
0110
0000
0000
0000
,
0201
0000
0000
0000
1300
0000
0000
0000
0100
0010
0100
0000
0001
0000
0000
0000
1000
0000
0100
0000
0101
0000
0000
0000
0002
0000
0010
0000
2003
0000
0100
0000
,
3001
0000
0000
0000
0000
0000
1000
0000
0000
0000
0000
0000
0001
0000
0000
0000
0000
0000
0010
0000
0000
0000
0000
0000
1000
0000
0000
0000
0000
0000
0010
0000
0000
0000
0000
0000
0100
0000
0000
0000
0000
0000
0000
0000
0000
0000
0000
0000
1000
0000
0000
0000
0000
0000
0001
0000
0000
0000
0000
0000
1000
0000
0000
0000
0000
0000
0010
0000
0000
0000
0000
0000
0001
0000
0000
0000
0000
0000
0010
0000
0000
0000
0000
0000
0100
0000
0000
0000
0000
0000
0000
0000
0000
0000
0000
0000
0010
0000
0000
0000
0000
0000
0000
0000
0000
0000
0000
0000
0000
0000
0000
0000
1000
0000
0000
0000
0000
0000
0000
0000
0100
0000
0000
0000
0000
0000
0000
0000
0000
0000
0000
0000
0000
0000
0000
0000
0010
0000
0000
0000
0000
0000
0000
0000
1000
0000
0000
0000
0000
0000
0000
0000
0010
0000
0000
0000
0000
0000
0000
0000
0001
0000
0000
0000
0000
0000
0000
0000
0100
0000
0000
0000
0000
0000
0000
0000
0000
0000
0000
0000
0000
0000
0000
0000
0000
0000
0000
0000
0000
0000
0000
0000
,
2001
0000
0000
0000
3002
0000
0000
0000
0003
0010
0001
1000
0200
0000
0000
0000
,
0310
0000
0001
0100
0000
0010
0100
0000
0102
0000
0000
0000
1003
0100
1000
0100
0020
0000
0000
0000
0031
0000
0100
0000
1000
0000
0000
0000
1010
0000
0000
0000
,
0021
0000
0000
0000
0130
0000
1000
0000
0010
1000
0100
0000
1000
0000
0001
0000
,
MMMM
0001
1000
0100
0001
1000
0010
MMMM
,
1000
0010
0100
0010
1000
0100
0010
0001
0100
0010
1000
0001
0010
0000
0001
0000
,
0200
0000
2300
0000
3002
0000
0013
0100
0002
0000
0023
0000
2030
0000
3002
0000
,
0103
1000
0010
0000
0110
0000
MMMM
0000
1000
0000
0100
0000
0001
0000
0011
0000
,
MMMM
1010
MMMM
0101
MMMM
1000
0002
0000
,
1003
0100
0010
0000
0001
0100
0010
0000
0001
0000
0010
0100
0001
1000
0100
0000
,
0020
0000
2030
0000
3002
0000
0203
0000
1300
0010
1000
0001
0100
0000
MMMM
0000
,
1020
0000
0000
0000
0130
0000
0001
0000
0010
0001
0100
0000
0001
0000
1000
0100
,
0001
0000
0000
0110
0000
0000
2100
0000
0000
0000
3001
0000
0010
0000
MMMM
0000
,
0010
0100
0010
0001
1000
0010
0100
1000
0100
0001
1000
0100
0010
0000
0001
0000
,
0200
0000
2300
0000
3002
0000
0013
0100
0002
0000
0023
0000
2030
0000
3002
0000
,
0103
1000
0001
0000
1001
0000
MMMM
0000
1000
0100
0000
1000
0100
0000
0011
0000
,
MMMM
1010
MMMM
0101
MMMM
0010
0200
0000
,
0301
0100
0010
1000
0001
0100
0010
1000
0001
0010
1000
0010
0100
1000
0010
0001
,
0020
2030
3002
0103
0110
0000
1001
0000
,
1001
0000
0101
0000
0001
0010
0100
1000
0001
0000
1100
0000
1000
0010
0100
0001
,
0010
0010
0010
0010
,
0010
0000
0011
0000
1001
0000
MMMM
0000
0010
0100
0001
1000
0100
0000
MMMM
0000
,
0110
1100
0010
0101
1001
MMMM
2002
0000
,
0000
0000
0000
3003
;

//---------------dance-single - ----------------
#NOTEDATA:;
#CHARTNAME:;
#STEPSTYPE:dance-single;
#DESCRIPTION:;
#CHARTSTYLE:Pad;
#DIFFICULTY:Medium;
#METER:14;
#RADARVALUES:0.728291,0.876226,0.637255,0.519608,0.220588,520.000000,455.000000,65.000000,53.000000,0.000000,0.000000,0.000000,0.000000,0.000000,0.728291,0.876226,0.637255,0.519608,0.220588,520.000000,455.000000,65.000000,53.000000,0.000000,0.000000,0.000000,0.000000,0.000000;
#CREDIT:Mei;
#NOTES:
0000
0000
0000
0000
,
0000
0000
0000
0000
,
2000
0000
3010
0100
0001
0010
0100
0000
,
1000
0100
0010
0001
1000
0010
0100
0000
,
0001
1000
1000
0000
0010
0100
0100
0000
,
0001
0000
0000
0010
1000
0010
0100
0000
0000
0100
0000
0000
,
0020
0000
0130
0010
1010
0000
0011
0000
,
0100
0010
0001
0100
0010
1000
0100
0010
,
0002
0000
0023
0000
0000
0000
2030
0000
0000
3002
0000
0000
0203
0000
2300
0000
,
3001
0001
1000
0000
0110
0000
1001
0000
,
0002
0000
0103
0010
1000
0100
0010
0000
,
0001
1000
0001
0010
0100
1000
0100
0010
,
0001
0100
1000
0000
1000
0100
0001
0000
,
0110
0000
1000
0010
0100
0101
0101
0000
,
2000
0000
3100
0010
0011
0000
1010
0000
,
0100
0010
1000
0100
0001
1000
0010
0001
,
1000
1000
0010
0100
0100
0001
0011
0000
,
0000
0100
1100
0000
0001
0100
0110
0000
,
1000
0100
0010
0100
1000
0001
1000
0100
,
0010
1000
0010
0001
0010
0100
2000
0000
,
3001
0100
0010
0100
0001
1000
0001
0100
,
0010
0001
0010
1000
0010
0100
0110
0000
,
0001
0010
0100
0010
0001
1000
0001
0010
,
0100
1000
0010
0001
0010
0100
0002
0000
,
1003
0010
0100
0010
1000
0100
0001
0100
,
1000
0100
1000
0000
0010
0000
0100
0001
0100
0000
0010
0000
0110
0000
0000
0000
,
1001
0000
0000
0000
1010
0000
0000
0010
0100
0000
0000
0000
0101
0000
0000
0000
,
1000
0100
0001
0100
1000
0010
0100
0010
,
1000
0000
0000
0000
1000
0000
0100
0000
0000
0000
0010
0000
0001
0000
0000
0000
0001
0000
0100
0000
0000
0010
0000
0000
,
0100
0100
0100
0001
1000
0010
0100
0000
,
1001
0000
0101
0000
0100
0010
1000
0100
,
0110
0000
0000
0011
0000
0000
1010
0000
0000
0110
0000
0000
1010
0000
1000
0000
,
0001
0010
0001
0010
1000
0010
0100
1000
,
0010
0010
0100
0100
0001
0001
1000
1000
,
1001
0000
0000
0000
0011
0000
0000
1010
0000
0000
0110
0000
0101
0000
0000
0000
,
0010
0100
0001
0000
0001
0010
1000
0010
,
0001
1000
0001
0000
1000
0010
1000
0000
0010
0000
0100
0000
0001
0000
0000
0000
,
0001
0100
1000
0100
0001
1000
0010
0001
,
0020
0000
0130
0001
0010
0001
0100
0000
,
0110
0000
0000
1010
0000
0000
0011
0000
0000
0110
0000
0000
0011
0000
0001
0000
,
1000
0000
0100
0001
1000
0010
0001
0010
,
0200
0000
0300
0000
,
0010
0000
0001
0000
1000
0001
1000
0000
0100
0000
0010
0000
0001
0010
0100
0010
,
0001
0000
0010
0100
0000
0100
0110
0000
0001
0000
0100
0010
0000
0010
0110
0000
,
0010
0000
1000
0000
0001
1000
0001
0000
0100
0000
0010
0000
1000
0010
0100
0010
,
1000
0000
0000
0100
0000
0000
0100
0000
0000
0000
0000
0000
0001
0000
0000
0100
0000
0000
0100
0000
0000
0000
0000
0000
1000
0000
0000
0000
0001
0000
0100
0000
0000
0000
0100
0000
0010
0000
0000
0000
0000
0000
0101
0000
0000
0000
0000
0000
,
2100
0000
0000
0000
0000
0000
0000
0000
0000
3001
1000
0001
0200
0000
0000
0000
,
0310
1000
0010
0100
0002
0000
0013
0000
0002
0000
0103
0010
1000
0000
1000
0000
,
1002
0000
0103
0010
1000
0010
0100
0001
,
0000
0001
0010
0100
0010
1000
0010
0000
,
0001
0010
0001
0001
1000
0010
1000
1000
,
0002
0023
2030
3002
0203
2300
3020
0032
,
0013
0000
2010
0000
3100
1000
0001
0011
,
0000
1010
0000
0101
0000
0001
0020
0030
,
0110
0000
0000
0000
0110
0000
0000
0000
0001
0000
1000
0010
0000
1000
0010
0000
,
0200
2300
3002
0023
2030
0000
3001
0000
,
2001
0000
3010
0100
0001
0100
0010
1000
,
1010
0000
0000
0011
0000
0000
0110
0000
0000
0000
1000
0000
0020
0000
0000
0000
,
0130
0000
0010
0000
1000
0001
1000
0000
0100
0000
0010
0000
0001
0010
0001
0000
,
2000
3020
0032
2003
3200
0302
0023
1030
,
0010
0000
0000
0000
0011
0000
0000
0000
0001
1000
0000
0001
1000
0000
1010
0000
,
0000
0011
0000
0101
0000
1000
0020
0030
,
0110
0000
0000
0000
0110
0000
0000
0000
1000
0000
0001
0010
0000
0001
0010
0000
,
0200
0302
2003
3020
0032
0000
1003
0000
,
1001
1000
1020
0000
0130
0001
0021
0000
,
0130
0100
0100
0100
,
1000
0000
0010
0000
0110
0000
0000
0000
0001
0010
0100
0000
0110
0000
0000
0000
,
1010
1010
0000
0110
0110
0000
2002
0000
,
0000
0000
0000
3003
;

//---------------dance-single - ----------------
#NOTEDATA:;
#CHARTNAME:;
#STEPSTYPE:dance-single;
#DESCRIPTION:;
#CHARTSTYLE:Pad;
#DIFFICULTY:Easy;
#METER:8;
#RADARVALUES:0.375350,0.438113,0.215686,0.352941,0.039216,268.000000,246.000000,22.000000,36.000000,0.000000,0.000000,0.000000,0.000000,0.000000,0.375350,0.438113,0.215686,0.352941,0.039216,268.000000,246.000000,22.000000,36.000000,0.000000,0.000000,0.000000,0.000000,0.000000;
#CREDIT:Mei;
#NOTES:
// measure 0
0000
0000
0000
0000
,  // measure 1
0000
0000
0000
0000
,  // measure 2
2000
3010
0010
0100
,  // measure 3
0000
0001
0010
0100
,  // measure 4
1000
1000
0001
0001
,  // measure 5
0100
0200
0310
0100
,  // measure 6
0000
0001
1000
0010
,  // measure 7
0100
0001
0010
0001
,  // measure 8
0200
0000
0320
0000
,  // measure 9
1030
1000
1000
0000
0001
0000
0010
0000
,  // measure 10
0110
1000
0001
0010
,  // measure 11
0001
0100
1000
0100
,  // measure 12
0002
0003
2000
3000
,  // measure 13
0010
0000
0010
0000
0100
0100
0100
0000
,  // measure 14
0000
0001
1000
0010
,  // measure 15
0001
0010
1000
0010
,  // measure 16
0110
0000
0000
0110
0000
0000
1001
0000
,  // measure 17
0000
0010
0001
1000
,  // measure 18
0010
0100
0001
0100
,  // measure 19
0010
0000
1000
0000
0100
1000
0002
0000
,  // measure 20
0103
0100
0010
0100
,  // measure 21
0001
0010
0200
0300
,  // measure 22
1000
0010
0100
0010
,  // measure 23
1000
0000
0100
0000
1000
0001
0100
0000
,  // measure 24
0100
0010
1000
0010
,  // measure 25
0110
0000
0000
0110
0000
0000
1001
0000
,  // measure 26
1000
0100
2000
3000
,  // measure 27
0001
0010
0100
1000
,  // measure 28
0002
0003
0002
1003
,  // measure 29
0001
0001
0001
0100
,  // measure 30
0020
0030
1000
1000
,  // measure 31
0010
0000
0000
0100
0000
0000
0010
0000
0000
0100
0000
0000
0010
0000
0000
0000
,  // measure 32
2000
3000
2000
3001
,  // measure 33
1000
0100
0010
0001
,  // measure 34
1001
1000
0010
0100
,  // measure 35
0001
0100
1000
0100
,  // measure 36
0002
0003
0002
0003
0002
0000
1003
0000
,  // measure 37
0200
0310
0002
1003
,  // measure 38
0010
0110
0001
1001
,  // measure 39
0100
0000
0000
0010
0000
0000
0100
0000
0000
0010
0000
0000
0100
0000
0000
0000
,  // measure 40
0001
1000
0100
0010
,  // measure 41
0002
0000
0003
0000
,  // measure 42
0010
0001
1000
0100
,  // measure 43
0020
0000
0000
0001
0000
0000
0000
0000
0230
0000
0000
1000
0000
0000
0000
0000
,  // measure 44
0310
1000
0100
0010
,  // measure 45
0001
0001
1000
1000
0010
0000
0100
0000
,  // measure 46
0210
0000
0000
0000
,  // measure 47
0302
0000
1003
0001
2000
0001
0001
3001
,  // measure 48
1002
1003
1000
0010
,  // measure 49
0100
0001
0010
0100
,  // measure 50
2000
0010
3002
0010
,  // measure 51
0103
0010
1000
0010
,  // measure 52
0100
0000
0110
0000
0001
0000
1000
1000
,  // measure 53
0000
0001
0000
2000
0000
3000
0000
0000
,  // measure 54
0010
0010
0100
0100
,  // measure 55
0001
0100
2000
3000
,  // measure 56
2001
3001
0010
0100
,  // measure 57
1000
0000
0000
0001
0000
0000
1000
0000
0000
0000
0000
0000
0010
0000
0000
0000
,  // measure 58
2000
0100
3002
0100
,  // measure 59
0013
0100
1000
0100
,  // measure 60
0110
0000
0000
0000
0001
0000
0000
0000
1000
0000
0000
1000
0000
0000
1001
0000
,  // measure 61
0000
1001
0000
0110
0000
0000
0000
0000
,  // measure 62
0010
0010
0100
0100
,  // measure 63
1000
0100
0002
0003
,  // measure 64
1001
0000
1001
0000
,  // measure 65
0200
0000
0000
0300
,  // measure 66
0001
0011
1000
1010
,  // measure 67
0010
0010
0000
0100
0100
0000
0002
0000
,  // measure 68
0000
0000
0000
0003
;

//---------------dance-single - ----------------
#NOTEDATA:;
#CHARTNAME:;
#STEPSTYPE:dance-single;
#DESCRIPTION:;
#CHARTSTYLE:Pad;
#DIFFICULTY:Beginner;
#METER:4;
#RADARVALUES:0.224090,0.303309,0.107843,0.294118,0.000000,160.000000,149.000000,11.000000,30.000000,0.000000,0.000000,0.000000,0.000000,0.000000,0.224090,0.303309,0.107843,0.294118,0.000000,160.000000,149.000000,11.000000,30.000000,0.000000,0.000000,0.000000,0.000000,0.000000;
#CREDIT:Mei;
#NOTES:
// measure 0
0000
0000
0000
0000
,  // measure 1
0000
0000
0000
0000
,  // measure 2
0000
0010
0000
0010
,  // measure 3
0000
0100
0000
0100
,  // measure 4
0000
0001
0000
1000
,  // measure 5
0000
0010
0000
0100
,  // measure 6
0000
0001
0000
0010
,  // measure 7
0000
0001
0000
1000
,  // measure 8
0000
0010
0000
0100
,  // measure 9
0100
0100
0010
0010
,  // measure 10
0000
1001
0000
0001
,  // measure 11
0000
0010
0000
0100
,  // measure 12
0000
1000
0000
0001
,  // measure 13
0000
0100
0100
0100
,  // measure 14
0000
0010
0000
1000
,  // measure 15
0000
0001
0000
1000
,  // measure 16
0002
0000
0000
0003
,  // measure 17
0000
0100
0000
0010
,  // measure 18
0001
0001
0001
0000
,  // measure 19
1000
1000
1000
0000
,  // measure 20
0010
0010
0010
0000
,  // measure 21
0100
0100
0200
0300
,  // measure 22
0001
1000
0010
0000
,  // measure 23
1000
0001
0010
0000
,  // measure 24
0001
1000
0100
0000
,  // measure 25
2000
0000
0000
3000
0000
0000
1001
0000
,  // measure 26
0000
0001
0000
0100
,  // measure 27
0200
0000
0310
0000
,  // measure 28
1001
0000
0110
0000
,  // measure 29
2000
3000
2000
3000
,  // measure 30
0010
0100
0100
0000
,  // measure 31
0200
0000
0000
0300
,  // measure 32
0002
0003
0002
0003
,  // measure 33
2002
0000
3003
0000
,  // measure 34
0001
0001
1000
1000
,  // measure 35
0020
0030
0020
0030
,  // measure 36
0100
0100
0200
0300
,  // measure 37
0001
0000
0001
0000
,  // measure 38
0002
2003
0000
3001
,  // measure 39
1002
0000
0000
1003
,  // measure 40
1000
0000
0100
0000
,  // measure 41
0020
0000
0030
0000
,  // measure 42
0001
0010
0100
0010
,  // measure 43
0002
1003
2000
3010
,  // measure 44
0100
0010
0100
0010
,  // measure 45
2000
3002
0013
0100
,  // measure 46
2000
0000
0000
0000
,  // measure 47
3002
1000
1000
2003
,  // measure 48
3000
0010
0000
0001
,  // measure 49
0000
0100
0000
1000
,  // measure 50
0000
0001
0000
0001
,  // measure 51
0000
1000
0000
1000
,  // measure 52
0000
1001
0000
0010
,  // measure 53
0000
0000
0000
0000
,  // measure 54
0002
0003
0002
0003
,  // measure 55
0010
0000
0200
0300
,  // measure 56
0000
0010
0000
1000
,  // measure 57
0000
0100
0000
0001
,  // measure 58
0000
1000
0000
1000
,  // measure 59
0000
0001
0000
0001
,  // measure 60
0000
0000
0100
0000
0200
0000
0000
0300
,  // measure 61
0000
0000
0000
0001
,  // measure 62
0000
1001
0000
1000
,  // measure 63
0000
1001
0000
0001
,  // measure 64
0000
0100
0000
0100
,  // measure 65
0000
0000
0000
0000
,  // measure 66
1001
0000
0110
0000
,  // measure 67
0010
0100
0001
2000
,  // measure 68
0000
0000
0000
3000
;
