#TITLE:ADAM;
#SUBTITLE:;
#ARTIST:P*Light;
#TITLETRANSLIT:;
#SUBTITLETRANSLIT:;
#ARTISTTRANSLIT:;
#GENRE:;
#CREDIT:;
#BANNER:;
#BACKGROUND:ADAM-bg.png;
#LYRICSPATH:;
#CDTITLE:;
#MUSIC:ADAM.ogg;
#OFFSET:-0.070000;
#SAMPLESTART:97.269997;
#SAMPLELENGTH:10.000000;
#SELECTABLE:YES;
#BPMS:0.000000=200.000000
;
#STOPS:
;
#BGCHANGES:0.000=ADAM.avi=1.000=0=0=1=====,
99999=-nosongbg-=1.000=0=0=0 // don't automatically add -songbackground-
;
#KEYSOUNDS:;
#ATTACKS:;

//---------------dance-single - ----------------
#NOTES:
     dance-single:
     :
     Hard:
     17:
     0.929035,1.279219,0.263757,0.156605,0.465695,789.000000,757.000000,32.000000,19.000000,0.000000,0.000000,0.929035,1.279219,0.263757,0.156605,0.465695,789.000000,757.000000,32.000000,19.000000,0.000000,0.000000:
// measure 0
0000
0000
0000
0000
,  // measure 1
0000
0000
0000
0000
,  // measure 2
0000
0000
0000
0000
,  // measure 3
0000
0000
0000
0000
,  // measure 4
0000
0000
0000
0000
,  // measure 5
0001
0000
0001
0100
0001
0000
1000
0000
0000
0000
1000
0000
0010
0000
0100
0000
,  // measure 6
0001
0000
1000
0001
1000
0000
0100
0000
1000
0000
0010
0000
1000
0000
0000
0000
,  // measure 7
1000
0000
1000
0010
1000
0000
0001
0000
0000
0000
0001
0000
0100
0000
0010
0000
,  // measure 8
1000
0000
0100
1000
0100
0000
0010
0000
0001
0000
1000
0000
0010
0000
0000
0000
,  // measure 9
0110
0100
0001
1000
0000
1000
0010
0100
,  // measure 10
1000
0100
0001
1000
0010
0001
0010
0000
,  // measure 11
0110
0010
1000
0001
0000
0001
0010
0100
,  // measure 12
0001
0000
0100
0000
1000
0001
1000
0001
1000
0000
0001
0000
1001
0000
0000
0000
,  // measure 13
0110
0100
0001
1000
0000
1000
0010
1000
,  // measure 14
0100
0001
1000
0001
0100
1000
0100
0000
,  // measure 15
0110
0010
0001
1000
0000
1000
0010
0100
,  // measure 16
0001
0010
0100
0020
0000
0000
0030
0000
,  // measure 17
0011
0001
0100
0001
0000
0001
1000
0100
,  // measure 18
1100
1000
0010
0200
0000
0000
0301
0000
,  // measure 19
1010
1000
0100
1000
0000
1000
0001
0100
,  // measure 20
0101
0001
0010
0200
0000
0000
1300
0000
,  // measure 21
0011
0000
0001
0000
1000
0000
0001
0000
0100
0000
0100
0000
0010
1000
0010
0000
,  // measure 22
1010
0000
1000
0000
0001
0000
1000
0000
0100
0000
0010
0000
0100
0010
0001
0010
,  // measure 23
0001
0000
1000
0000
0010
0100
0001
0100
0001
0000
0001
0000
0100
0000
0100
0000
,  // measure 24
0020
0000
0000
0000
0130
0100
0110
0000
,  // measure 25
0001
0010
0001
0010
0100
0010
0001
0000
,  // measure 26
1000
0100
1000
0000
0100
0010
0100
0000
1000
0001
1000
0001
0010
0000
0010
0000
,  // measure 27
0100
1000
0001
1000
0001
0100
0010
0000
,  // measure 28
1000
0000
0010
0000
0001
0000
0000
0000
1000
0000
0100
0010
0100
0000
0001
0000
,  // measure 29
1000
0010
0100
0010
1000
0010
2000
0000
,  // measure 30
3001
0010
0001
0000
0010
0100
0010
0000
0001
0010
0100
1000
0001
0000
0001
0000
,  // measure 31
0100
0010
1000
0002
0000
0103
0010
0100
,  // measure 32
0001
0010
0100
0020
0000
0001
0031
0000
,  // measure 33
1001
1000
0100
0010
0100
0010
1000
0010
,  // measure 34
0001
0010
0001
0000
1000
0010
1000
0000
0001
1000
0001
0000
0100
0000
0100
0000
,  // measure 35
0010
1000
0001
1000
0001
0100
1000
0100
,  // measure 36
0001
0000
1000
0000
0100
0000
0000
0000
0001
0000
0100
0010
0100
0000
1000
0000
,  // measure 37
0100
1000
0001
1000
0001
0000
0010
0000
0001
1000
0010
1000
0010
0000
0100
0000
,  // measure 38
0001
0100
0010
0100
0010
0000
1000
0000
0100
0010
0001
0010
0001
0000
0100
0000
,  // measure 39
0101
0001
0010
0001
0000
0001
1000
0010
,  // measure 40
1010
1000
0100
0020
0000
0000
0031
0000
,  // measure 41
1000
0100
1000
0001
0100
0010
0100
0000
,  // measure 42
0001
0000
1000
0000
0010
0000
1000
0000
0100
0000
1000
0000
0100
0010
0100
0010
,  // measure 43
0001
0010
0001
1000
0100
0010
0100
0000
,  // measure 44
1000
0000
1000
0000
0001
0000
0100
0000
0001
0000
0001
1000
0010
1000
0010
1000
,  // measure 45
0001
0100
0001
1000
0100
0010
0100
0000
,  // measure 46
1000
0000
0001
0000
0010
0000
0001
0000
0100
0000
0001
0000
1000
0010
1000
0010
,  // measure 47
0100
0010
1000
0001
0100
0010
0100
0000
,  // measure 48
0001
0010
0001
1000
0010
1000
0200
0000
,  // measure 49
0310
0001
1000
0001
0010
0100
0010
0000
,  // measure 50
0001
0000
0001
0000
0010
0000
0010
0000
0100
0000
1000
0000
0001
1000
0001
1000
,  // measure 51
0010
1000
0001
1000
0010
0100
0010
0000
,  // measure 52
1000
0000
0010
0000
0001
0000
0000
0000
0010
0000
0100
0001
1000
0001
1000
0001
,  // measure 53
0100
0010
1000
0001
0010
0100
1000
0000
,  // measure 54
0100
0001
0100
0010
0100
1000
0001
0100
,  // measure 55
0001
1000
0001
1000
0100
0000
1000
0100
0010
0100
0010
0000
0001
1000
0001
1000
,  // measure 56
0001
1000
0001
1000
0001
1000
0001
1000
0020
0000
0000
0000
0130
0000
0000
0000
,  // measure 57
0200
0000
0000
0000
,  // measure 58
0000
0000
0300
0000
,  // measure 59
0001
1000
0020
0100
0000
0100
0130
0000
,  // measure 60
0001
1000
0200
0010
0000
0010
0310
0000
,  // measure 61
0001
0000
0010
0000
0001
0000
0010
0100
0010
0100
0010
0000
0001
0000
0010
0100
,  // measure 62
1000
0000
0100
0000
1000
0000
0001
1000
0001
1000
0001
0000
0100
0000
0010
0000
,  // measure 63
1000
0001
0200
0010
0000
0010
0310
0000
,  // measure 64
0001
1000
0200
0010
0000
0010
0310
0000
,  // measure 65
1001
0001
0010
0100
0000
0100
0001
1000
,  // measure 66
0010
0001
1000
0001
0010
0001
0100
0000
,  // measure 67
1001
1000
0010
0100
0000
0100
1000
0001
,  // measure 68
0010
0000
0100
0000
0001
1000
0001
1000
0001
0000
1000
0000
1001
0000
0000
0000
,  // measure 69
0110
0010
1000
0001
0000
0001
0010
1000
,  // measure 70
0001
1000
0010
0001
0100
0010
1000
0000
,  // measure 71
0110
0100
0001
1000
0000
1000
0100
0010
,  // measure 72
0001
0100
0010
0200
0000
0000
0300
0000
,  // measure 73
0100
0001
0001
1000
0010
0010
1000
0001
,  // measure 74
0010
0100
0100
1000
0001
0001
0010
0001
,  // measure 75
0100
0010
0010
1000
0100
0100
0001
0100
,  // measure 76
1000
0010
0010
0100
1000
1000
0100
0100
,  // measure 77
0010
0010
1000
1000
0001
0001
0100
0100
,  // measure 78
0001
0001
0010
0010
0100
0100
1000
1000
,  // measure 79
0001
0100
0001
0100
0010
1000
0010
1000
0001
0010
0100
1000
0001
0010
0100
1000
,  // measure 80
0020
0000
0000
0000
0100
0130
0110
0000
,  // measure 81
1001
0000
0001
0000
0100
0000
0010
0000
1000
0010
1000
0000
0001
0000
0100
0000
,  // measure 82
0001
0010
0100
0000
1000
0000
0010
0000
1000
0100
1000
0000
0001
0100
0001
0100
,  // measure 83
0001
0000
1000
0000
0010
0000
0100
0000
0001
0100
0001
0000
1000
0000
0100
0000
,  // measure 84
1000
0010
1000
0000
1001
0000
0001
0000
0010
0000
0001
1000
0010
1000
0010
0100
,  // measure 85
0001
0000
0100
0000
0001
0000
0100
0000
0010
1000
0010
0000
0100
0000
0001
0000
,  // measure 86
1000
0100
0010
0000
0001
0000
0100
0000
0001
0100
0001
0000
1000
0100
1000
0100
,  // measure 87
0010
0000
0100
0000
1000
0000
0001
0000
0100
0001
0100
0000
0010
0000
1000
0000
,  // measure 88
0100
0010
0100
0000
0010
0100
0010
0000
0001
0000
1000
0000
1020
0000
0000
0000
,  // measure 89
0031
0000
0010
0000
0100
0000
0001
0000
1000
0001
1000
0000
0100
0000
1000
0000
,  // measure 90
0010
1000
0010
0000
0100
0010
0100
0000
0001
0100
0001
0000
1000
0001
1000
0001
,  // measure 91
0010
0000
1000
0000
0010
0000
0001
0000
0100
0010
0100
0000
0001
1000
0001
0000
,  // measure 92
0100
0000
1000
0000
0100
0000
0001
0000
1000
0001
1000
0001
0010
0100
0010
0100
,  // measure 93
1000
1000
1010
0000
0101
0001
0011
0000
,  // measure 94
1010
1000
1100
0000
0011
0001
1001
1000
,  // measure 95
0010
0100
0010
0100
0001
1000
0100
0010
0100
0010
0001
1000
0001
1000
0001
1000
,  // measure 96
0001
1000
0001
1000
0001
1000
0001
1000
0001
1000
0001
1000
0002
0000
0003
0000
,  // measure 97
1001
0000
0000
0000
;

//---------------dance-single - ----------------
#NOTES:
     dance-single:
     :
     Medium:
     14:
     0.739460,0.759537,0.288484,0.230787,0.024727,628.000000,593.000000,35.000000,28.000000,0.000000,0.000000,0.739460,0.759537,0.288484,0.230787,0.024727,628.000000,593.000000,35.000000,28.000000,0.000000,0.000000:
0000
0000
0000
0000
,
0000
0000
0000
0000
,
0000
0000
0000
0000
,
0000
0000
0000
0000
,
0000
0000
0000
0000
,
0001
0001
1000
0010
0000
0010
0100
0001
,
0010
0100
1000
0001
1000
0100
0010
0000
,
1000
1000
0001
0010
0000
0010
0100
1000
,
0010
0100
0001
0100
0010
1000
0100
0000
,
0110
0010
0001
0010
0000
0010
0100
1000
,
0010
0100
0001
1000
0010
0100
0010
0000
,
0110
0010
1000
0010
0000
0010
0100
0001
,
0010
0100
1000
0010
0100
0010
0100
0000
,
1001
0001
0100
0001
0000
0001
1000
0010
,
0001
0010
0100
0001
1000
0010
0100
0000
,
1001
1000
0100
1000
0000
1000
0001
0010
,
1000
0010
0100
0020
0000
0000
0030
0000
,
0100
1000
0100
1000
0000
1000
0010
1000
,
0001
0010
1000
0020
0000
0000
0031
0000
,
0100
0001
0100
0001
0000
0001
0010
0001
,
1000
0010
0001
0020
0000
0000
1030
0000
,
0010
1000
0010
1000
0001
0001
1000
0100
,
0010
0001
0010
0001
1000
1000
0001
0100
,
0010
0010
1000
0001
0010
0100
0010
0100
,
2000
0000
0000
0000
3001
0001
1001
0000
,
1000
0010
1000
0010
0100
0010
0100
0000
,
0001
0010
0100
0010
0001
0010
0100
0100
,
1000
0010
1000
0000
0001
0010
0100
0000
,
1000
0010
1000
0000
0001
0100
0010
0100
,
0001
0010
0001
0010
0100
0010
0100
0000
,
1000
0010
0100
0010
1000
0010
0100
0100
,
0001
1000
0010
0100
0000
0100
0001
1000
,
0100
0010
0001
0020
0000
0000
0130
0000
,
0110
1001
0011
1001
,
0010
1000
0010
1000
0100
0010
0100
0100
,
0110
1001
1100
1001
,
1010
0000
0011
0000
1000
0010
0200
0000
,
0301
0100
0010
0100
0001
0100
0010
1000
,
0100
0010
0100
1000
0100
0010
0001
0100
,
0010
1000
0010
1000
0000
1000
0100
1000
,
0001
0100
1000
0200
0000
0000
0301
0000
,
1001
1000
0100
0000
0010
0100
0010
0000
,
0001
1000
0100
1000
0001
0010
0001
0100
,
0110
0010
1000
0000
0010
0100
0010
0000
,
1000
0001
0100
0100
0001
1000
0100
0100
,
1000
0001
0010
0000
0100
0010
0100
0000
,
1000
0001
0100
0010
1000
0100
0010
0001
,
1001
1000
0010
0000
0100
0010
0100
0000
,
0001
0100
1000
0100
0001
1000
1001
0000
,
1100
1000
0001
0000
0101
0001
1000
0000
,
0010
1000
0010
0001
0010
0100
0010
1000
,
0100
0010
0001
0000
0100
0010
1000
0000
,
1000
0001
0010
0010
0001
1000
0010
0010
,
1010
1000
0001
0000
0011
0001
1000
0000
,
0100
0001
0100
1000
0010
0001
0010
1000
,
0001
0100
0001
0000
1000
0000
0100
1000
0100
0000
0010
0000
0002
0000
0000
0000
,
0000
0000
2000
3003
,
0020
0000
0000
0000
,
0000
0000
0030
0000
,
0200
0000
0000
0002
0000
0000
0303
0000
,
0020
0000
0000
2000
0000
0000
3030
0000
,
0001
0010
0001
0010
0100
1000
0100
0000
,
1000
0001
1000
0001
0100
0010
1000
0000
,
0200
0000
1000
2000
0000
0000
3300
0000
,
0020
0000
0001
0001
0000
0100
0130
0000
,
1001
0001
0100
0010
0000
0010
1000
0001
,
0100
0001
0010
0001
1000
0010
1000
0000
,
1001
1000
0100
0010
0000
0010
0001
1000
,
0010
0100
0001
0010
0100
0010
0100
0000
,
0110
0010
1000
0001
0000
0001
0010
1000
,
0010
0001
1000
0100
0010
0001
0100
0000
,
0110
0100
0001
1000
0000
1000
0010
0001
,
0010
0100
0010
2000
0000
0000
3000
0000
,
0100
1000
0100
1000
0000
1000
0010
1000
,
0001
0010
0001
0010
0000
0001
0100
0010
,
0100
0001
0100
0001
0000
0001
0010
0001
,
1000
0010
1000
0010
0100
0001
1000
0100
,
0010
0001
1000
1000
0010
1000
0001
0001
,
0010
0100
1000
1000
0010
0100
0001
0001
,
0010
0000
0010
0000
0100
0000
0100
0000
1000
0100
1000
0000
0001
0010
0001
0000
,
2000
0000
0000
0000
3001
0001
1001
0000
,
1001
1000
0010
1000
0010
0100
0010
0000
,
1000
0100
0010
0001
0100
0010
1000
1000
,
0001
0001
0010
0001
0010
0100
0010
0000
,
0001
0001
0100
0010
1000
1000
0010
0100
,
0001
1000
0010
1000
0001
0100
0010
0000
,
1000
0010
0001
1000
0100
0001
0100
0010
,
1000
0001
0010
0001
1000
0100
0010
0000
,
0001
0010
1000
0010
0001
0100
0120
0000
,
1030
0001
0100
0010
2000
0100
3001
0000
,
0001
0010
1000
0010
0001
0100
1000
0100
,
0001
1000
0010
0100
0002
0010
1003
0000
,
1000
0100
0010
0100
2000
0001
3010
0010
,
0210
0301
0120
1030
,
1200
0000
0310
0000
0011
0010
0100
0100
,
1000
0010
1000
0000
0100
0000
0010
0001
0010
0000
0100
0000
2000
0000
0000
0000
,
0000
0000
0000
0000
0000
0000
3002
0003
,
1001
0000
0000
0000
;

//---------------dance-single - ----------------
#NOTES:
     dance-single:
     :
     Easy:
     10:
     0.360310,0.519683,0.230787,0.280241,0.000000,306.000000,278.000000,28.000000,34.000000,0.000000,0.000000,0.360310,0.519683,0.230787,0.280241,0.000000,306.000000,278.000000,28.000000,34.000000,0.000000,0.000000:
0000
0000
0000
0000
,
0000
0000
0000
0000
,
0000
0000
0000
0000
,
0000
0000
0000
0000
,
0000
0000
0000
0000
,
1000
0001
0100
0000
,
0100
0001
1000
0000
,
0010
1000
0001
0000
,
0001
1000
0200
0300
,
0010
0010
0010
0000
,
0001
0010
0100
1000
,
0010
0010
0010
0000
,
0100
0001
1000
0000
,
0010
0010
0010
0000
,
0100
0001
1000
0100
,
0010
0010
0010
0000
,
0001
1000
0020
0030
,
1010
0000
0000
1010
0000
0000
1000
0000
,
1001
0000
0000
2002
0000
0000
3003
0000
,
0011
0000
0000
0011
0000
0000
0001
0000
,
1001
0000
0000
2002
0000
0000
3003
0000
,
0001
0010
0001
0000
,
1000
0100
1000
0000
,
0010
1000
0010
1000
,
0002
0000
0000
1003
,
0001
0100
0001
0100
,
0010
0010
0010
0000
,
1000
0100
1000
0100
,
0010
0010
0001
1000
,
0001
0010
0001
0010
,
0100
0100
0100
0000
,
1000
0001
0100
0000
,
0001
1000
0020
0030
,
0001
0001
1000
1000
,
0010
0010
0100
0100
,
0001
0001
0010
0010
,
0100
0100
2000
3000
,
1000
0001
0010
0000
,
0001
1000
0010
0000
,
0101
0000
0000
0101
0000
0000
0001
0000
,
1001
0000
0000
2002
0000
0000
3003
0000
,
1000
0001
0100
0010
,
1000
0001
0010
0000
,
0001
1000
0100
0010
,
0002
0003
2000
3000
,
0001
0100
0010
1000
,
0100
0010
0001
0000
,
1000
0100
0010
0001
,
0100
0100
0200
0300
,
0010
1000
0001
0100
,
0010
1000
0100
0000
,
0010
0001
1000
0100
,
0020
0030
0200
0300
,
1000
0010
1000
1000
,
0001
0010
0001
0001
,
0011
0000
0000
0110
0000
0000
2200
0000
,
0000
0000
0000
3300
,
0000
0000
0000
0000
,
0000
0000
0000
0000
,
2000
0000
3002
0000
,
0203
0000
0320
0000
,
1030
0010
0010
0000
,
0001
0010
0010
0000
,
2000
0000
3200
0000
,
0320
0000
0032
0003
,
0100
0100
0100
0000
,
0001
1000
0010
0100
,
0010
0010
0010
0000
,
1000
0001
0010
0000
,
0100
0100
0100
0000
,
1000
0001
0010
0100
,
0010
0010
0010
0000
,
0001
1000
0200
0300
,
0010
0001
0010
0000
,
0001
0100
0001
0000
,
1000
0100
1000
0000
,
0010
1000
0010
0000
,
0110
0000
0110
0000
,
1001
0000
1001
0000
,
0110
1001
0110
1001
,
2000
0000
0000
3001
,
0010
0001
1000
0100
,
0010
0001
0100
0000
,
1000
0010
1000
0001
,
2000
3000
0002
0003
,
1000
0100
1000
0001
,
0100
0010
1000
0000
,
0001
0100
0001
0010
,
0100
0100
0200
0300
,
1000
0010
0001
0010
,
1000
0010
1000
0000
,
0001
0010
1000
0010
,
0001
0010
0001
0000
,
0011
0000
1100
0000
,
1010
0000
0101
0100
,
0020
0000
0000
0230
0000
0000
0302
0000
,
0000
0000
0000
1003
,
1001
0000
0000
0000
;

//---------------dance-single - ----------------
#NOTES:
     dance-single:
     :
     Beginner:
     4:
     0.180155,0.239854,0.115393,0.288484,0.000000,153.000000,139.000000,14.000000,35.000000,0.000000,0.000000,0.180155,0.239854,0.115393,0.288484,0.000000,153.000000,139.000000,14.000000,35.000000,0.000000,0.000000:
0000
0000
0000
0000
,
0000
0000
0000
0000
,
0000
0000
0000
0000
,
0000
0000
0000
0000
,
0000
0000
0000
0000
,
1000
0000
0001
0000
,
0010
0000
0010
0000
,
0001
0000
1000
0000
,
0200
0000
0300
0000
,
2002
0000
0000
0000
0000
3003
0000
0000
,
0000
0000
0000
0000
,
0220
0000
0000
0000
0000
0330
0000
0000
,
0000
0000
0000
0000
,
2002
0000
0000
0000
0000
3003
0000
0000
,
0000
0000
0000
0000
,
0220
0000
0000
0000
0000
0330
0000
0000
,
0000
0000
0000
0000
,
0001
0000
0100
0000
,
0001
0001
0001
0000
,
1000
0000
0100
0000
,
1000
1000
1000
0000
,
0010
0000
1000
0000
,
0100
0000
0001
0000
,
0010
0010
0010
0010
,
0000
0000
0000
0000
,
0001
0000
0100
0000
,
0001
0001
0001
0000
,
1000
0000
0010
0000
,
2000
0000
3000
0000
,
0001
0000
0010
0000
,
0001
0001
0001
0000
,
2000
0000
3000
0000
,
0002
0000
0003
0000
,
0100
0000
0100
0000
,
0010
0000
0010
0000
,
1000
0000
1000
0000
,
0001
0000
0001
0000
,
0010
0000
0001
0000
,
0100
0000
1000
0000
,
2002
0000
0000
3003
0000
0000
0000
0000
,
2002
0000
0000
3003
0000
0000
0000
0000
,
1000
0000
0010
0000
,
0100
0000
0001
0000
,
0010
0000
0100
0000
,
0010
0000
0000
0000
,
0001
0000
0010
0000
,
0100
0000
1000
0000
,
0010
0000
0100
0000
,
0020
0000
0030
0000
,
1000
0000
0010
0000
,
0100
0000
0001
0000
,
1000
0000
0001
0000
,
0010
0000
0000
0000
,
0001
0000
0010
0000
,
0100
0000
1000
0000
,
1001
0000
0000
2002
,
0000
0000
0000
3003
,
0000
0000
0000
0000
,
0000
0000
0000
0000
,
0000
0000
0000
0000
,
0000
0000
0000
0000
,
2000
0000
3000
0000
,
0002
0000
0003
0000
,
0200
0000
0300
0000
,
0020
0000
0030
0000
,
0220
0000
0000
0000
0000
0330
0000
0000
,
0000
0000
0000
0000
,
2002
0000
0000
0000
0000
3003
0000
0000
,
0000
0000
0000
0000
,
0220
0000
0000
0000
0000
0330
0000
0000
,
0000
0000
0000
0000
,
2002
0000
0000
0000
0000
3003
0000
0000
,
0000
0000
0000
0000
,
0010
0000
0010
0000
,
1000
0000
1000
0000
,
0001
0000
0001
0000
,
0100
0000
0100
0000
,
0001
0000
0010
0000
,
0100
0000
1000
0000
,
0010
0010
0010
0010
,
0000
0000
0000
0000
,
0100
0000
0001
0000
,
1000
1000
1000
0000
,
0010
0000
1000
0000
,
0002
0000
0003
0000
,
0010
0000
0001
0000
,
1000
1000
1000
0000
,
0100
0000
1000
0000
,
0002
0000
0003
0000
,
0100
0000
0001
0000
,
1000
0000
0010
0000
,
0100
0000
0001
0000
,
0010
0000
0100
0000
,
1000
0000
1000
0000
,
0001
0000
0001
0000
,
1001
0000
0000
2002
,
0000
0000
0000
0000
,
3003
0000
0000
0000
;
