#TITLE:7thSense;
#SUBTITLE:;
#ARTIST:削除;
#TITLETRANSLIT:;
#SUBTITLETRANSLIT:;
#ARTISTTRANSLIT:Sakuzyo;
#GENRE:;
#CREDIT:;
#BANNER:;
#BACKGROUND:7thSense-bg.jpg;
#LYRICSPATH:;
#CDTITLE:;
#MUSIC:7thSense.ogg;
#OFFSET:0.918000;
#SAMPLESTART:81.681999;
#SAMPLELENGTH:15.000000;
#SELECTABLE:YES;
#BPMS:0.000000=150.000000
;
#STOPS:
;
#BGCHANGES:2.292=7thSense.avi=1.000=0=0=0=StretchNoLoop====,
99999=-nosongbg-=1.000=0=0=0 // don't automatically add -songbackground-
;
#KEYSOUNDS:;
#ATTACKS:;

//---------------dance-single - ----------------
#NOTES:
     dance-single:
     :
     Challenge:
     16:
     0.711932,0.954308,0.520667,0.230581,0.948357,670.000000,600.000000,70.000000,31.000000,0.000000,0.000000,0.711932,0.954308,0.520667,0.230581,0.948357,670.000000,600.000000,70.000000,31.000000,0.000000,0.000000:
// measure 0
0000
0000
0000
0000
,  // measure 1
0000
0000
0000
0000
,  // measure 2
0000
0000
0000
0000
,  // measure 3
0000
0000
0000
0000
,  // measure 4
0000
0000
0000
0000
,  // measure 5
0000
0000
0000
0000
,  // measure 6
0000
0000
0000
0000
,  // measure 7
0100
0010
0000
1000
0000
0001
0000
1100
,  // measure 8
0000
0101
0000
1000
0001
0000
0100
0010
,  // measure 9
0000
1000
0000
0001
0000
1010
0000
0011
,  // measure 10
0000
1000
0001
0000
0100
0001
1000
0100
,  // measure 11
0000
0010
0000
0011
0000
1010
0000
0100
,  // measure 12
0001
0000
0010
1000
0001
0010
0000
0001
,  // measure 13
0000
0000
0101
0000
0000
0000
1100
0000
0000
0000
1000
0000
0001
0100
0010
1000
,  // measure 14
0100
0000
0010
0000
0000
0000
0001
0000
0000
0000
0010
0100
0010
0000
1000
0000
,  // measure 15
0000
0000
0010
0000
0100
0000
0010
0000
0001
0000
0001
0100
0010
0000
1000
0000
,  // measure 16
0000
1000
0100
0010
0000
1000
0100
0001
,  // measure 17
0000
0000
0010
0000
0001
0000
1000
0001
0100
0000
0001
0000
0000
0000
0001
0000
,  // measure 18
0000
1000
0100
0010
0000
0010
0000
0001
,  // measure 19
1000
0000
0011
1001
0000
0110
0000
1100
,  // measure 20
0000
0011
0000
1010
0000
0100
0002
0000
,  // measure 21
0013
0000
0010
0000
0010
0000
1001
0001
,  // measure 22
0100
0010
0000
0000
1000
0010
0000
0100
0000
0100
0000
0100
0000
0000
1000
0010
,  // measure 23
0000
0001
1000
0000
0110
0000
0001
0100
0010
0000
0010
0000
1000
0100
0000
0000
,  // measure 24
1000
0001
0000
0010
0000
0010
0000
0010
0000
0000
0001
0010
0000
1000
0001
0000
,  // measure 25
0110
0000
1000
0100
0010
0000
0001
0000
1000
0100
0000
0000
0001
0100
0000
0010
,  // measure 26
0000
0010
0000
0010
0000
0000
0001
0010
0000
0001
0100
0000
0110
0000
1000
0100
,  // measure 27
0010
0000
0001
0000
1000
0010
0000
0000
0001
0010
0000
0100
0000
0100
0000
0100
,  // measure 28
0000
0000
0001
0000
0010
0100
0000
1000
0000
0100
0000
0100
1000
0001
0010
0100
,  // measure 29
1000
0001
0010
0001
1000
0001
0100
0010
0000
0010
0000
0010
0000
0000
0100
0001
,  // measure 30
1000
0100
0010
0001
1000
0010
0100
0001
1000
0000
0001
1000
0010
1000
0010
0100
,  // measure 31
0001
1000
0010
1000
0000
1000
0000
1000
0000
0000
0100
0010
0100
1000
0001
0010
,  // measure 32
0001
0100
0010
0000
1000
0001
0010
0100
1000
0001
0100
0010
1000
0001
1000
0010
,  // measure 33
0000
0010
0000
0010
0000
0000
0100
0001
1000
0001
0100
0001
1000
0100
0010
0001
,  // measure 34
0000
0000
1001
0000
0010
1000
0000
1001
0000
0001
0010
0100
1000
0001
0100
0010
,  // measure 35
2000
0000
0000
0000
0000
0000
0000
0000
3001
1000
0001
0010
1000
0000
0000
1010
,  // measure 36
0000
0000
0100
0000
0000
0011
0000
0000
0100
0000
1000
0000
0001
1000
0100
1000
,  // measure 37
0010
0000
0000
0101
0000
0000
0010
0000
0000
1100
0000
0000
0010
0000
0001
0000
,  // measure 38
0200
0300
0200
0300
1000
0000
0000
0011
0000
0000
1000
0000
0101
0000
0001
0000
,  // measure 39
1100
0000
1000
0000
0001
0000
0100
0000
1010
0000
0000
1100
0000
0000
0101
0000
,  // measure 40
0000
0011
0000
0000
1001
0000
0010
0000
0100
0001
0010
0001
1000
0000
0000
1010
,  // measure 41
0000
0000
0011
0000
0000
1100
0000
0000
0101
0000
0001
0000
1000
0001
0010
0000
,  // measure 42
1100
0000
0000
1000
0001
0000
1000
0000
0101
0000
0000
0001
1000
0000
0001
0000
,  // measure 43
0200
0000
0000
0320
0000
0000
0230
0000
0000
0300
0000
0000
0001
0000
0000
0000
0000
0000
0001
0000
0010
0000
0100
0000
1000
0000
0000
0000
0000
0000
0001
0000
0000
0000
0000
0000
1000
0000
0000
0000
0010
0000
0000
0000
0100
0000
0000
0000
,  // measure 44
0001
0000
0100
0000
1000
0000
0100
0000
1010
0000
0000
0011
0000
0000
0101
0000
,  // measure 45
0000
1100
0000
0000
2002
0000
3003
0000
1000
0001
0010
0100
2000
0000
0000
0000
,  // measure 46
3100
0000
0002
0000
0000
0000
1003
0000
0020
0000
0000
0000
0130
1000
0002
0000
,  // measure 47
0003
0001
1000
0010
0001
0100
0110
0000
,  // measure 48
0001
0010
1000
0100
0110
0000
0002
0000
,  // measure 49
0103
0010
2000
0000
0000
0000
3001
0010
0200
0000
0000
0300
0001
0100
1000
0000
,  // measure 50
0010
0000
0001
0000
0020
0000
0000
0000
0000
0000
0000
0000
0030
0000
1000
0100
,  // measure 51
0001
0000
0000
0000
0000
0000
0000
0000
2000
0000
3010
1000
0100
0010
0001
0000
,  // measure 52
0000
0000
1100
0000
0000
0000
0001
1000
0100
1000
0010
0000
1010
0000
0000
0000
,  // measure 53
0101
0000
0000
0000
0100
0010
1000
0100
1000
0001
0010
0000
0000
0000
0110
0000
,  // measure 54
1000
0001
1000
0000
0200
0000
0000
0000
2300
0000
0000
0000
3020
0000
0000
0000
,  // measure 55
0031
0000
0010
0000
1000
0000
0001
0100
0010
0100
0001
1000
0010
0100
0001
0010
,  // measure 56
0100
0010
0001
0000
1000
0100
0010
0100
1000
0001
1000
0010
0100
1000
0100
0010
,  // measure 57
0100
0000
0001
0100
0001
1000
0100
1000
0001
0010
0001
1000
0010
1000
0100
1000
,  // measure 58
0010
0100
0001
0010
0100
0010
0001
1000
0010
0100
0010
1000
0001
0010
1000
0000
,  // measure 59
0000
0000
1100
0000
0000
0000
1000
0001
0100
0001
0010
0000
0011
0000
0000
0000
,  // measure 60
1100
0000
0000
0000
0100
1000
0001
0100
0010
0000
1010
0000
0100
1000
0000
0001
,  // measure 61
0100
0000
0000
0000
0001
0000
0010
0000
0000
0000
1000
0000
0010
0000
1000
0000
0000
0000
0010
0000
0001
0000
0000
0000
0100
0000
0010
0000
0000
0000
0001
1000
,  // measure 62
0001
0010
0100
0000
0000
0010
0100
0001
0100
1000
0010
0200
0000
0000
0000
0301
,  // measure 63
0000
2000
0000
0000
0000
3010
0000
0100
0000
0002
0000
0000
0000
0000
0000
0000
,  // measure 64
0000
0000
0000
0003
0000
0000
0000
1100
0000
0000
0001
0100
0000
0000
1000
0010
,  // measure 65
0000
0000
1000
0100
0000
0000
0001
0010
0000
0000
0010
1000
0000
0000
0100
0001
,  // measure 66
0000
0000
0000
2001
0000
0000
0000
0000
0000
0000
0000
3002
0000
0000
0000
0000
,  // measure 67
0000
0000
0000
0023
0000
0000
0000
0000
0000
0000
0000
0230
0000
0000
0000
0000
,  // measure 68
0000
0000
0000
2300
0000
0000
0000
0000
0000
0000
0000
3002
0000
0000
0000
0000
,  // measure 69
0000
0000
0000
0203
0000
0000
0000
0000
0000
0000
0000
0310
0000
1000
0000
0001
,  // measure 70
0000
0011
0000
0000
0000
1100
0000
0000
0000
1001
0000
0000
0000
0110
0000
0000
,  // measure 71
0000
0001
0000
0010
0000
0000
0000
0001
0000
0100
0000
0010
0000
1010
0000
0000
,  // measure 72
0000
0101
0000
0000
0000
1001
0000
0000
0000
0110
0000
0000
0000
0010
0000
1000
,  // measure 73
0100
1000
0010
0100
0001
1000
0010
1000
0000
0001
0010
0001
0000
1000
0001
0100
,  // measure 74
0000
0001
1000
0100
0000
0100
1000
0001
0100
0010
0100
0010
1000
0001
0100
0010
,  // measure 75
1000
0001
0010
0001
0000
1000
0100
1000
0000
0001
1000
0010
0000
1000
0001
0010
,  // measure 76
0000
0010
0001
1000
0001
1000
0010
1000
0100
0010
0001
1000
0010
0100
0001
1000
,  // measure 77
0000
0010
1000
0010
0000
0100
0001
0100
0000
0001
0010
0001
0000
1000
0100
1000
,  // measure 78
0000
0001
1000
0010
0100
0001
0010
0001
0000
0000
0101
0000
0000
1100
0000
0000
,  // measure 79
0000
1010
0000
0110
0000
0101
0000
0000
0000
1100
0000
0000
0000
0101
0000
1000
,  // measure 80
0100
0001
1000
0010
0000
0000
0000
0000
0000
0000
0000
0000
0000
0000
0000
0000
;

//---------------dance-single - ----------------
#NOTES:
     dance-single:
     :
     Hard:
     15:
     0.627988,0.775375,0.513229,0.171076,0.743810,591.000000,522.000000,69.000000,23.000000,0.000000,0.000000,0.627988,0.775375,0.513229,0.171076,0.743810,591.000000,522.000000,69.000000,23.000000,0.000000,0.000000:
// measure 0
0000
0000
0000
0000
,  // measure 1
0000
0000
0000
0000
,  // measure 2
0000
0000
0000
0000
,  // measure 3
0000
0000
0000
0000
,  // measure 4
0000
0000
0000
0000
,  // measure 5
0000
0000
0000
0000
,  // measure 6
0000
0000
0000
0000
,  // measure 7
0010
0100
0000
0001
0000
1000
0000
0011
,  // measure 8
0000
1100
0000
0001
1000
0000
0010
0100
,  // measure 9
0000
0001
0000
1000
0000
0011
0000
1100
,  // measure 10
0000
0001
1000
0000
0010
1000
0000
0001
,  // measure 11
0000
0100
0000
1001
0000
1100
0000
0010
,  // measure 12
0001
0000
1000
0001
0000
0010
0000
0100
,  // measure 13
0000
0000
1001
0000
0000
0000
0011
0000
0000
0000
0001
0000
1000
0010
0100
0001
,  // measure 14
0010
0000
0100
0000
0000
0000
0010
0000
0000
0000
0001
1000
0001
0000
0010
0000
,  // measure 15
0000
0100
1000
1000
0000
0010
0100
0001
,  // measure 16
0000
0010
0000
0001
0000
0100
0000
1000
,  // measure 17
0000
0000
0100
0000
0001
0000
1000
0001
0010
0000
0100
0000
0000
0000
1000
0000
,  // measure 18
0000
0001
0010
0100
0000
0100
0000
1000
,  // measure 19
0001
0000
0110
0000
1000
0010
0000
0001
,  // measure 20
1000
0010
0000
0001
0100
0010
2000
0000
,  // measure 21
3000
0000
0000
0000
0000
0000
1001
0001
,  // measure 22
0100
0010
0000
0000
1000
0000
0001
0010
0000
0010
0000
0010
0001
0000
0100
0000
,  // measure 23
0001
1000
0000
0000
0100
0000
0010
0100
0010
0000
0100
0000
0100
1000
0000
0000
,  // measure 24
0001
0000
1000
0010
0000
0010
0000
0010
1000
0000
0001
0000
0100
1000
0000
0000
,  // measure 25
0100
0000
0010
0100
0010
0000
1000
0000
0100
0001
0000
0000
0100
0000
0010
0001
,  // measure 26
0000
0001
0000
0001
0010
0000
0001
0000
0100
1000
0000
0000
0100
0000
0001
0010
,  // measure 27
0001
0000
0100
0000
0010
0001
0000
0000
0010
0000
1000
0100
0000
0100
0000
0100
,  // measure 28
2000
0000
0000
0000
0001
0001
3001
0100
,  // measure 29
0010
1000
0010
0000
0100
0000
0001
1000
0010
0000
0100
0000
0001
0000
0000
0000
,  // measure 30
1000
0100
1000
0000
0001
0010
0100
0010
0001
0000
1000
0000
0010
0100
0010
0000
,  // measure 31
1000
0000
0001
0010
0100
0000
0010
0000
0001
0000
0000
0000
1000
0010
1000
0001
,  // measure 32
0010
0100
0010
0000
0001
0000
0010
0000
0001
0100
0010
0000
0010
0000
1000
0001
,  // measure 33
0100
0000
0010
0000
1000
0000
0000
0000
0001
0000
1000
0100
1000
0001
0100
0010
,  // measure 34
1000
0000
0100
0000
1000
0010
0000
0001
0000
0010
0000
1000
0000
0001
1000
0100
,  // measure 35
0000
0000
0011
0000
0001
0010
0100
1000
0000
0001
0100
0010
1000
0000
0000
0011
,  // measure 36
0000
0000
1000
0000
0000
0011
0000
0000
1000
0000
0010
0000
0100
0001
1000
0001
,  // measure 37
0010
0000
0000
1100
0000
0000
0010
0000
0000
1100
0000
0000
0010
0000
0001
0000
,  // measure 38
2000
3000
0002
0003
0101
0000
0000
1000
0000
0000
0101
0000
0001
0000
1000
0000
,  // measure 39
0001
0000
0010
0000
0100
0000
0001
0000
0101
0000
0000
1100
0000
0000
1010
0000
,  // measure 40
0000
0011
0000
0000
1001
0000
1000
0000
0010
0100
0010
1000
0001
0000
0000
0110
,  // measure 41
0000
0000
1000
0000
0000
0110
0000
0000
0001
0000
1000
0000
0001
0010
0100
0000
,  // measure 42
0001
0000
0000
0100
1000
0000
0001
0000
0100
0000
0000
1000
0100
0000
0001
0000
,  // measure 43
2000
0000
0000
3000
0000
0000
2000
0000
0000
3000
0000
0000
0001
0000
0000
0000
0000
0000
0010
0000
0100
0000
0010
0000
0100
0000
0000
0000
0000
0000
1000
0000
0000
0000
0000
0000
0001
0000
0000
0000
0100
0000
0000
0000
0010
0000
0000
0000
,  // measure 44
1000
0000
0100
0000
0001
0000
0100
0000
1100
0000
0000
0101
0000
0000
0011
0000
,  // measure 45
0000
1010
0000
0000
2002
0000
3003
0000
1000
0100
0010
0001
2000
0000
0000
0000
,  // measure 46
3010
0000
0200
0000
0000
0000
0301
0000
2000
0000
0000
0000
3100
0010
0002
0000
,  // measure 47
0003
0001
0010
0100
1000
0010
0100
1000
,  // measure 48
0010
0100
0001
0010
0100
0001
2000
0000
,  // measure 49
3100
0000
0020
0000
0000
0000
0031
0000
2000
0000
0000
0000
3010
0100
0001
0000
,  // measure 50
1000
0000
0001
0000
0020
0000
0000
0000
0000
0000
0000
0000
0030
0000
0001
0100
,  // measure 51
1000
0000
0000
0000
0000
0000
0000
0000
0200
0000
0301
0010
0100
1000
0010
0000
,  // measure 52
0000
0101
0000
1000
0100
0010
0011
0000
,  // measure 53
0101
0000
0100
1000
0001
0011
0000
0001
,  // measure 54
1000
0010
1000
0000
0200
0000
0000
0000
0302
0000
0000
0000
0023
0000
0000
0000
,  // measure 55
1030
0000
0010
0000
0001
0000
0100
0000
0010
1000
0001
1000
0010
0000
0100
0010
,  // measure 56
1000
0001
0010
0000
0001
0000
0100
0010
1000
0010
0100
0000
0010
1000
0001
0010
,  // measure 57
0100
0000
1000
0000
0001
0100
0000
0100
0010
0000
0010
1000
0000
1000
0001
0000
,  // measure 58
0100
0010
0000
1000
0100
0000
0010
0001
0000
1000
0010
0100
0001
0010
0001
0000
,  // measure 59
0000
1100
0000
0001
0100
0010
1010
0000
,  // measure 60
1100
0000
0000
0000
0100
0000
0001
0000
0010
0000
1010
0000
0000
0101
0000
0000
,  // measure 61
1100
0000
0000
0011
0000
0000
1000
0010
0000
0001
0100
0000
1000
0100
0000
0010
,  // measure 62
0001
0010
0100
0000
0000
1000
0010
1000
0100
0010
0001
0200
0000
0000
0000
0310
,  // measure 63
0000
2000
0000
0000
0000
3100
0000
1000
0000
0002
0000
0000
0000
0000
0000
0000
,  // measure 64
0000
0000
0000
0003
0000
0000
0000
1100
0000
0000
0000
1001
0000
0000
0000
0101
,  // measure 65
0000
0000
0000
0110
0000
0000
0000
1100
0000
0000
0000
0101
0000
0000
0000
0011
,  // measure 66
0000
0000
0000
1000
0000
0010
0000
0000
0000
0101
0000
0000
0000
1010
0000
0000
,  // measure 67
0000
0100
0000
0000
0000
0010
0000
0000
0000
1000
0000
0001
0000
0000
0000
1000
,  // measure 68
0000
0100
0000
0000
0000
0011
0000
0000
0000
1100
0000
0000
0000
0010
0000
0000
,  // measure 69
0000
0100
0000
0000
0000
0001
0000
1000
0000
0000
0000
0001
0000
0010
0000
0000
,  // measure 70
0000
1001
0000
0000
0000
0110
0000
0000
0000
1010
0000
0000
0000
0011
0000
0000
,  // measure 71
0000
1000
0000
0100
0000
0000
0000
0001
0000
1000
0000
0000
0000
0110
0000
0000
,  // measure 72
0000
1001
0000
0000
0000
1100
0000
0000
0000
0101
0000
0000
0000
0010
0000
1000
,  // measure 73
0000
0000
0000
0001
0010
0001
0000
0100
0000
0010
1000
0010
0000
1000
0001
0010
,  // measure 74
0000
0001
1000
0010
0000
0100
0000
0001
0000
1000
0000
0100
0000
0001
0100
1000
,  // measure 75
0000
1000
0000
0000
0000
0100
0000
1000
0100
1000
0000
0000
0000
0100
0000
0001
,  // measure 76
0100
0001
0000
0000
0000
0100
0000
1000
0000
0001
0100
0010
0000
1000
0000
1001
,  // measure 77
0000
0000
0000
0001
0000
1000
0100
0010
0000
1001
0000
0000
0000
0101
0000
0000
,  // measure 78
0000
0001
0100
1000
0000
0100
0000
1001
0000
0000
0011
0000
0000
1100
0000
0000
,  // measure 79
0000
0101
0000
0110
0000
1010
0000
0000
0000
1001
0000
0000
0000
0010
0000
1000
,  // measure 80
0001
0010
0100
0010
0000
0000
0000
0000
0000
0000
0000
0000
0000
0000
0000
0000
;

//---------------dance-single - ----------------
#NOTES:
     dance-single:
     :
     Medium:
     11:
     0.481351,0.596442,0.342152,0.297524,0.446286,453.000000,407.000000,46.000000,40.000000,0.000000,0.000000,0.481351,0.596442,0.342152,0.297524,0.446286,453.000000,407.000000,46.000000,40.000000,0.000000,0.000000:
// measure 0
0000
0000
0000
0000
,  // measure 1
0000
0000
0000
0000
,  // measure 2
0000
0000
0000
0000
,  // measure 3
0000
0000
0000
0000
,  // measure 4
0000
0000
0000
0000
,  // measure 5
0000
0000
0000
0000
,  // measure 6
0000
0000
0000
0000
,  // measure 7
0001
0200
0000
0010
0000
0001
0000
1000
,  // measure 8
0000
0301
0000
0010
0100
0000
1000
0100
,  // measure 9
0000
0010
0000
0100
0000
0001
0000
0100
,  // measure 10
0000
0010
0100
0000
1000
0001
0000
0100
,  // measure 11
0000
0001
0000
0010
0000
0001
0000
1000
,  // measure 12
0100
0000
0001
1000
0000
0100
0000
1000
,  // measure 13
0000
0010
0000
1000
0000
0001
1000
0010
,  // measure 14
0200
0000
0000
0000
0000
0301
0010
0100
,  // measure 15
0000
1000
0001
1000
0000
0100
0010
0001
,  // measure 16
0000
0010
0000
1000
0000
0010
0000
0100
,  // measure 17
0000
1000
0000
0001
0100
0001
0000
0010
,  // measure 18
0000
1000
0100
0010
0000
0001
0000
0001
,  // measure 19
0100
0000
0010
2000
0000
0000
0000
0000
,  // measure 20
0000
0000
0000
0000
,  // measure 21
3000
0000
0000
0000
0000
0000
0001
0100
,  // measure 22
0010
0000
0000
0000
1000
0000
0000
0001
0100
0000
0000
0000
0010
0000
1000
0000
,  // measure 23
0001
0000
1000
0100
1000
0100
0010
0000
,  // measure 24
0001
0000
0000
1000
0010
0000
0000
0000
0100
0000
0001
0000
1000
0000
0000
0000
,  // measure 25
0001
0000
0010
0000
0001
0000
0010
0000
0100
0000
0000
0000
1000
0000
0000
0001
,  // measure 26
0010
0000
0100
0010
0100
0000
1000
0010
,  // measure 27
1000
0000
0010
0000
0100
0000
0000
0000
0001
0000
0000
1000
0010
0000
0000
0000
,  // measure 28
0200
0000
0000
0000
0310
0100
0010
1000
,  // measure 29
0001
0010
0100
1000
0010
1000
0010
0000
,  // measure 30
0001
0001
1000
0100
0010
0001
1000
0010
,  // measure 31
0100
0001
0010
0001
0010
0000
1000
1000
,  // measure 32
0010
0001
0010
0100
0001
0010
0001
0100
,  // measure 33
0010
1000
0010
0000
0001
1000
0100
0001
,  // measure 34
0100
0010
0100
1000
0100
0010
0100
1000
,  // measure 35
0020
0000
0000
0000
0000
0000
0000
0000
0130
0000
0100
0000
0010
0000
0000
1010
,  // measure 36
0000
0000
0010
0000
0000
1010
0000
0000
1000
0000
1000
0000
0001
0000
0010
0000
,  // measure 37
0100
0000
0000
1100
0000
0000
0100
0000
0000
1100
0000
0000
1000
0000
1000
0000
,  // measure 38
0020
0000
0230
0000
0301
0000
0000
0101
0000
0000
0001
0000
0101
0000
0100
0000
,  // measure 39
0001
0000
0010
0000
0200
0000
2300
0000
3010
0000
0000
0011
0000
0000
1010
0000
,  // measure 40
0000
0110
0000
0000
0101
0000
0001
0000
1000
0000
0100
0000
0010
0000
0000
0011
,  // measure 41
0000
0000
1000
0000
0000
1010
0000
0000
0001
0000
0001
0000
0010
0100
1000
0000
,  // measure 42
0010
0000
0000
1000
0100
0000
0010
0000
0001
0000
0000
1000
0100
0000
0010
0000
,  // measure 43
0200
0000
0000
0300
0000
0000
0200
0000
0000
0300
0000
0000
1000
0000
0000
0000
0000
0000
0010
0000
0000
0100
0000
0000
0001
0000
0000
0000
0000
0000
0010
0000
0000
0000
0000
0000
0001
0000
0000
0000
0100
0000
0000
0000
0010
0000
0000
0000
,  // measure 44
0100
0000
0001
0000
0010
0000
1000
0000
0010
0000
0000
0011
0000
0000
0100
0000
,  // measure 45
0000
0101
0000
0000
2000
0000
3000
0000
0020
0000
0000
0000
0230
0000
0000
0000
,  // measure 46
0301
2000
0000
3001
0020
0000
0031
0200
,  // measure 47
0000
0301
1000
0100
0010
0001
0011
0000
,  // measure 48
0001
0100
0010
1000
1010
0000
0200
0000
,  // measure 49
1300
0002
0000
1003
0020
0000
1030
0100
,  // measure 50
0010
1000
0020
0000
0000
0000
0000
0031
,  // measure 51
1001
0000
0000
0000
0000
0000
0000
0000
2000
0000
3010
0100
0010
0100
0010
0000
,  // measure 52
0000
0101
0000
0001
0100
0010
1000
0000
,  // measure 53
0110
0000
0001
0100
0010
1000
0000
0110
,  // measure 54
0001
0010
0200
0000
0302
0000
0203
0000
,  // measure 55
1300
0010
0100
1000
0100
0001
1000
0100
,  // measure 56
0002
0003
0100
0010
0001
0100
0010
0002
,  // measure 57
0003
0000
0010
0000
0000
1010
0000
0000
1000
0000
0000
1001
0000
0000
0011
0000
,  // measure 58
0000
1010
0000
0000
0101
0000
0000
1100
0000
0000
0010
0000
0001
0000
0100
0000
,  // measure 59
0000
0110
0000
1000
0010
0100
0001
0000
,  // measure 60
0110
0000
0000
0000
1000
0000
0010
0000
0100
0000
0002
0000
0000
0023
0000
0000
,  // measure 61
0230
0000
0000
2300
0000
0000
3020
0000
0000
0032
0000
0000
0023
0000
0000
0230
,  // measure 62
0000
0000
0300
0000
0000
0010
0000
1000
0000
0001
0000
0200
0000
0000
0000
0301
,  // measure 63
0000
2000
0000
0000
0000
3100
0000
2000
0000
0002
0000
0000
0000
0000
0000
0000
,  // measure 64
0000
0000
0000
3003
0000
0000
0000
0011
0000
0000
0000
0110
0000
0000
0000
0011
,  // measure 65
0000
0000
0000
1100
0000
0000
0000
0011
0000
0000
0000
1010
0000
0000
0000
0101
,  // measure 66
0000
0000
0000
0001
0000
0010
0000
0000
0000
0100
0000
0000
0000
1000
0000
0000
,  // measure 67
0000
0010
0000
0000
0000
0100
0000
0000
0000
0010
0000
0100
0000
0000
0000
0001
,  // measure 68
0000
0010
0000
0000
0000
0100
0000
0000
0000
1000
0000
0000
0000
0010
0000
0000
,  // measure 69
0000
0100
0000
0000
0000
1000
0000
0100
0000
0000
0000
0001
0000
0010
0000
0000
,  // measure 70
0000
1100
0000
0000
0000
0101
0000
0000
0000
0010
0000
0000
0000
1000
0000
0000
,  // measure 71
0000
0100
0000
0010
0000
0000
0000
0001
0000
0010
0000
0000
0000
1100
0000
0000
,  // measure 72
0000
0101
0000
0000
0000
0010
0000
0000
0000
1000
0000
0000
0000
0001
0000
0100
,  // measure 73
0000
0000
0000
0010
0000
1000
0000
0000
0000
1001
0000
0000
0000
0001
0000
0010
,  // measure 74
0000
0001
0000
0000
0000
0010
0000
0100
0000
1000
0000
0010
0000
1000
0000
0001
,  // measure 75
0000
0010
0000
0000
0000
0100
0000
1000
0000
0010
0000
0000
0000
0001
0000
0010
,  // measure 76
0000
1000
0000
0000
0000
0001
0000
0100
0000
1000
0000
0100
0000
0000
0000
0001
,  // measure 77
0000
0100
0000
0000
0000
0100
0000
0001
0000
0010
0000
0000
0000
1000
0000
0000
,  // measure 78
0000
0010
0000
0200
0000
0300
0000
1100
0000
0000
0110
0000
0000
0011
0000
0000
,  // measure 79
0000
1001
0000
0001
0000
0100
0000
0000
0000
1010
0000
0000
0000
0110
0000
0010
,  // measure 80
0000
1000
0000
0100
0000
0000
0000
0000
0000
0000
0000
0000
0000
0000
0000
0000
;

//---------------dance-single - ----------------
#NOTES:
     dance-single:
     :
     Easy:
     8:
     0.355966,0.417510,0.275210,0.178514,0.278929,335.000000,298.000000,37.000000,24.000000,0.000000,0.000000,0.355966,0.417510,0.275210,0.178514,0.278929,335.000000,298.000000,37.000000,24.000000,0.000000,0.000000:
0000
0000
0000
0000
,
0000
0000
0000
0000
,
0000
0000
0000
0000
,
0000
0000
0000
0000
,
0000
0000
0000
0000
,
0000
0000
0000
0000
,
0000
0000
0000
0000
,
0001
1000
0000
0010
0000
0100
0000
0010
,
0000
0100
0000
0001
1000
0000
1000
0001
,
0000
0010
0000
0100
0000
0010
0000
0100
,
0000
1000
0001
0000
0001
0100
0000
0010
,
0000
0100
0000
0001
0000
0100
0000
0010
,
1000
0000
1000
0100
0000
0010
0000
0100
,
0000
1000
0000
0100
0000
0010
0001
0000
,
2000
0000
0000
0000
0000
3010
0000
0100
,
0000
0010
0000
1000
1000
0000
0001
0001
,
0000
0100
0000
0010
0000
0100
0000
1000
,
0000
0100
0001
0000
1000
0100
0000
0010
,
0000
0001
0000
0100
0000
0010
0000
1000
,
0001
0000
0001
1000
0000
0100
0000
0010
,
0000
1000
0000
0010
0000
0001
2000
0000
,
0000
0000
3000
0001
,
0100
0001
0100
0010
,
0100
0000
0001
1000
1000
0000
0100
0000
,
1000
0100
0010
0100
,
0010
0001
0001
0000
1000
0000
0010
0000
,
0100
0000
0001
0000
0010
0000
0100
1000
,
1000
0010
0100
0001
,
0020
0000
0000
0000
0130
0100
1000
0000
,
0010
0001
0100
1000
,
0010
0000
0100
0100
0001
0000
0010
0000
,
1000
0100
0001
0010
,
0100
0100
1000
0000
0001
0000
0100
0000
,
1000
0000
0001
0000
0100
0000
0010
0010
,
1000
1001
0011
0110
,
2100
0000
3020
0130
,
0000
0101
0000
0000
1001
0000
0200
0000
,
0310
0000
0000
0011
0000
0000
1001
0000
,
0002
0000
0103
0000
0000
0010
1000
0000
,
1000
0000
0100
0000
1100
0000
0000
0101
,
0000
0110
0200
0310
,
0000
0101
0000
0000
1010
0000
1000
0000
,
0001
0010
0100
0001
,
0200
2300
3001
0100
,
0010
0000
1000
0000
1001
0000
0000
0110
,
0000
1001
0200
0320
,
0000
1030
0000
0000
0002
0000
0000
1003
,
0000
0100
0010
0001
,
0100
0010
1000
0200
,
0000
0310
0000
0000
0002
0000
0000
0103
,
0000
0000
0020
0000
0000
0000
0000
0130
,
0110
0000
0000
0000
0002
0000
0000
0013
,
0000
0010
0000
0001
1000
0001
1000
0000
,
0001
0000
0100
0010
0100
0010
0000
1000
,
0001
0100
0010
1000
,
0010
0100
0010
0100
0000
0001
0000
1000
,
0001
0000
0010
0000
0100
0000
0010
0100
,
0000
1100
0000
0000
1010
0000
0000
0101
,
0000
0001
0000
0000
0011
0000
0000
0001
0000
0000
0100
0000
0000
0000
1000
0000
,
0000
0001
0000
0100
0010
0100
0010
0000
,
1000
0000
0000
0000
0100
0000
0010
0000
0100
0000
0210
0000
0000
0300
0000
0000
,
2100
0000
0000
3000
0000
0000
0102
0000
0000
0003
0000
0000
0210
0000
0000
0300
,
0000
0000
0110
0000
0000
0000
0000
0000
0000
0000
0000
1010
0000
0000
0000
0000
,
0000
0101
0000
0000
0000
0001
0000
1000
0000
0002
0000
0000
0000
0000
0000
0000
,
0000
0000
0000
0003
0000
0000
0000
0011
0000
0000
0000
0000
0000
0000
0000
0101
,
0000
0000
0000
0000
0000
0000
0000
1010
0000
0000
0000
0000
0000
0000
0000
1100
,
0000
0000
0000
1000
0000
0100
0000
0000
0000
0010
0000
0000
0000
0001
0000
0000
,
0000
1000
0000
0000
0000
0100
0000
0000
0000
0010
0000
0001
0000
0000
0000
0001
,
0000
0100
0000
0000
0000
0010
0000
0000
0000
1000
0000
0000
0000
0001
0000
0000
,
0000
0100
0000
0000
0000
0010
0000
1000
0000
0000
0000
0001
0000
0010
0000
0000
,
0000
0100
0000
0000
0000
0010
0000
0000
0000
0001
0000
0000
0000
0010
0000
0000
,
0000
0100
0000
1000
0000
0000
0000
1000
0000
0010
0000
0000
0000
0100
0000
0000
,
0000
0010
0000
0000
0000
1000
0000
0000
0000
0010
0000
0000
0000
0100
0000
0001
,
0000
0000
0000
2002
0000
0000
0000
0000
0000
3003
0000
0000
0000
0001
0000
0000
,
0000
0001
0000
0000
0000
0010
0000
0000
0000
0010
0000
0000
0000
0100
0000
1000
,
0000
0100
0000
0000
0000
0010
0000
0000
0000
0001
0000
0000
0000
1000
0000
0000
,
0000
0001
0000
0000
0000
0010
0000
0100
0000
0000
0000
1000
0000
0010
0000
0000
,
0000
0010
0000
0000
0000
0100
0000
0010
0000
0100
0000
0000
0000
0001
0000
0000
,
0000
1000
0000
0001
0000
0000
0000
0011
0000
0000
0000
0000
0000
1100
0000
0000
,
0000
1000
0000
0000
0000
1001
0000
0000
0000
0101
0000
0000
0000
0100
0000
0001
,
0000
1000
0000
0100
0000
0000
0000
0000
0000
0000
0000
0000
0000
0000
0000
0000
;

//---------------dance-single - ----------------
#NOTES:
     dance-single:
     :
     Beginner:
     5:
     0.200829,0.328043,0.156200,0.052067,0.148762,189.000000,168.000000,21.000000,7.000000,0.000000,0.000000,0.200829,0.328043,0.156200,0.052067,0.148762,189.000000,168.000000,21.000000,7.000000,0.000000,0.000000:
0000
0000
0000
0000
,
0000
0000
0000
0000
,
0000
0000
0000
0000
,
0000
0000
0000
0000
,
0000
0000
0000
0000
,
0000
0000
0000
0000
,
0000
0000
0000
0000
,
1001
0000
0000
0000
,
0100
0000
0000
1001
,
0000
0000
0000
0100
,
0000
0000
0110
0000
,
0000
0000
0001
0000
,
0000
0110
0000
0000
,
0000
1000
0000
0000
,
0100
0000
1000
0000
,
0100
0000
1000
0000
,
0001
0000
0100
0000
,
0001
0000
0100
0000
,
0010
0000
0100
0000
,
0001
0000
0010
0000
,
0100
0000
0010
0000
,
0000
0000
0000
0001
,
0000
0001
0000
1000
,
0000
1000
0010
0000
,
0010
0000
0001
0000
,
0001
0100
0000
0100
,
0000
0010
0000
0010
,
1000
0000
0001
0000
,
0000
0000
0000
0001
,
1000
0001
0000
1000
,
0001
1000
0010
0100
,
0010
0000
0100
0010
,
0100
0001
0100
0001
,
0000
1000
0001
1000
,
0100
0010
0100
0000
,
1001
0000
0000
0100
,
0000
0100
0000
0000
0100
0000
0000
0000
,
0001
0000
0000
0001
0000
0000
0001
0000
,
0000
0000
0010
0000
0000
0010
0000
0000
,
0010
0000
0000
0000
1000
0000
0000
1000
,
0000
1000
0001
1001
,
0000
1001
0000
0000
1001
0000
0000
0000
,
0100
0001
1000
0010
,
0000
0110
0000
0110
,
0000
0100
0002
0000
,
0000
0000
2000
3003
0000
0000
0002
0000
,
0000
0003
0000
0000
0020
0000
0000
0030
,
0000
1000
1000
0100
,
1000
1000
0010
0200
,
0000
0300
0000
0000
0002
0000
0000
0003
,
0000
1001
0000
0000
,
0110
0000
0000
0000
0000
0000
0000
0100
,
0000
0001
0000
0100
0000
0000
0001
0000
,
1000
0000
0001
0000
0000
0100
0000
0001
,
0000
0100
0000
0000
0001
0000
1000
0000
,
0001
0000
0000
1000
0000
0100
0000
1000
,
0000
0100
0010
0100
,
0000
0010
0000
0000
0001
0000
0000
0100
,
0000
0000
0010
0000
0000
1000
0000
0001
,
0000
1000
0000
0001
0000
0000
1000
0000
,
0010
0000
1000
0000
0000
0001
0000
0000
,
0010
0000
0000
0100
0000
0000
1000
0000
,
0000
0000
0000
0000
0000
0000
0000
0000
0000
0000
0000
0001
0000
0000
0000
0000
,
0000
1000
0000
0000
0000
0010
0000
0000
0000
2000
0000
0000
0000
0000
0000
0000
,
0000
0000
0000
3000
0000
0000
0000
0001
0000
0000
0000
0000
0000
0000
0000
1000
,
0000
0000
0000
0000
0000
0000
0000
1001
0000
0000
0000
0000
0000
0000
0000
0110
,
0000
0000
0000
0110
0000
0000
0000
0000
0000
0000
0000
0001
0000
0000
0000
0000
,
0000
0000
0000
0001
0000
0000
0000
0000
0000
0000
0000
0001
0000
0000
0000
0000
,
0000
0000
0000
0010
0000
0000
0000
0000
0000
0000
0000
0100
0000
0000
0000
0000
,
0000
0000
0000
0100
0000
0000
0000
0000
0000
0000
0000
1000
0000
0000
0000
0000
,
0000
0000
0000
1000
0000
0000
0000
0000
0000
0000
0000
1000
0000
0000
0000
0000
,
0000
0000
0000
0010
0000
0000
0000
0000
0000
0000
0000
0100
0000
0000
0000
0000
,
0000
0000
0000
0100
0000
0000
0000
0000
0000
0000
0000
0100
0000
0000
0000
0000
,
0000
0000
0000
0110
0000
0000
0000
0010
0000
0000
0000
0000
0000
1000
0000
0000
,
0000
0000
0000
0000
0000
0001
0000
0000
0000
0000
0000
0001
0000
0000
0000
0000
,
0000
0000
0000
1000
0000
0000
0000
0000
0000
0001
0000
0000
0000
0000
0000
0000
,
0000
0010
0000
0000
0000
0000
0000
0010
0000
0000
0000
0000
0000
0000
0000
1000
,
0000
0000
0000
0000
0000
0001
0000
0000
0000
0000
0000
0000
0000
0001
0000
0000
,
0000
0000
0000
1000
0000
0000
0000
1001
0000
0000
0000
0000
0000
1001
0000
0000
,
0000
0000
0000
0000
0000
0110
0000
0000
0000
0110
0000
0000
0000
0000
0000
0000
,
0000
0000
0000
1001
0000
0000
0000
0000
0000
0000
0000
0000
0000
0000
0000
0000
;
