#TITLE:444;
#SUBTITLE:;
#ARTIST:ZYTOKINE feat. aki;
#TITLETRANSLIT:;
#SUBTITLETRANSLIT:;
#ARTISTTRANSLIT:;
#GENRE:;
#CREDIT:;
#BANNER:;
#BACKGROUND:444-bg.png;
#LYRICSPATH:;
#CDTITLE:;
#MUSIC:444.ogg;
#OFFSET:-0.583000;
#SAMPLESTART:43.513000;
#SAMPLELENGTH:10.000000;
#SELECTABLE:YES;
#BPMS:0.000000=190.000000
;
#STOPS:
;
#BGCHANGES:;
#KEYSOUNDS:;
#ATTACKS:;

//---------------dance-single - ----------------
#NOTES:
     dance-single:
     :
     Hard:
     18:
     1.013106,1.231823,0.458716,0.119266,0.944954,773.000000,723.000000,50.000000,13.000000,0.000000,0.000000,1.013106,1.231823,0.458716,0.119266,0.944954,773.000000,723.000000,50.000000,13.000000,0.000000,0.000000:
// measure 0
0000
0000
0000
0000
,  // measure 1
0000
0000
0000
0000
,  // measure 2
0000
0000
0000
0000
,  // measure 3
0000
0000
0000
0000
,  // measure 4
0000
0000
0000
0000
,  // measure 5
0010
0100
0001
0010
0001
0100
0010
1000
,  // measure 6
0100
1000
0010
1000
0001
0100
0001
0010
,  // measure 7
0001
0010
0100
1000
0001
0100
0010
1000
,  // measure 8
0001
0100
0001
0100
0010
1000
0010
1000
0001
1000
0001
0100
0010
1000
0100
0000
,  // measure 9
0011
0000
0000
1001
0000
0000
0101
0000
0000
0000
0100
0000
0010
0000
1000
0000
,  // measure 10
1010
0000
0000
1001
0000
0000
1100
0000
0000
0000
0100
0000
0010
0000
0001
0000
,  // measure 11
0101
0000
0000
1001
0000
0000
0011
0000
0000
0000
0001
0000
1000
0000
0100
0000
,  // measure 12
1100
0000
0000
1001
0000
0000
1010
0000
0000
0000
1000
0000
0001
0000
0010
0000
,  // measure 13
0011
0000
0000
0101
0000
0000
1001
0000
1000
0010
1000
0000
0001
0000
0100
0000
,  // measure 14
1100
0000
0000
1010
0000
0000
1001
0000
0001
0010
0001
0000
1000
0000
0010
0000
,  // measure 15
0101
0000
0000
0011
0000
0000
1001
0000
1000
0010
0100
0000
0001
0000
0010
0000
,  // measure 16
1010
0000
0000
1100
0000
0000
1001
0000
1000
0000
0100
0000
0010
0000
0001
0000
,  // measure 17
0200
0000
0000
0000
0300
0100
0010
1000
,  // measure 18
0200
0000
0000
0000
0300
0001
0100
2000
,  // measure 19
0000
0000
0000
0000
3000
1000
0010
0002
,  // measure 20
0000
0000
0000
0000
0003
0010
1000
0200
,  // measure 21
0000
0000
0000
0000
0300
0100
0001
0020
,  // measure 22
0000
0000
0000
0000
0000
0130
1000
0010
,  // measure 23
0001
0010
1000
0100
,  // measure 24
0011
0100
1010
0100
,  // measure 25
0001
0000
0011
0010
0000
0100
1100
1000
,  // measure 26
0000
0010
0110
0100
0000
0100
0101
0001
,  // measure 27
0000
0010
0011
0001
0000
1000
1010
0010
,  // measure 28
0000
1000
1100
0100
0010
0001
1001
1000
,  // measure 29
0010
0100
0010
0000
1000
0000
0001
0100
0001
0000
1000
0000
0001
0010
0001
0000
,  // measure 30
0010
0000
0100
1000
0100
0000
1000
0001
0200
0000
0000
0000
0310
0000
0000
0000
,  // measure 31
0001
0100
0001
0000
0010
0000
0100
1000
0100
0000
1000
0000
0010
1000
0010
0000
,  // measure 32
0100
0001
0100
0001
1000
0100
1000
0100
0020
0000
0000
0000
0032
0000
0000
0000
,  // measure 33
1003
0000
0100
0010
0100
0000
1000
0000
0001
0000
0100
0001
0100
0000
0010
0000
,  // measure 34
1000
0000
0100
1000
0100
0000
1000
0000
0001
0100
0001
0000
1000
0100
1000
0000
,  // measure 35
0001
0000
0100
0010
0100
0000
0001
0000
1000
0000
0010
1000
0010
0000
0100
0000
,  // measure 36
0001
0000
0010
0001
0010
0000
0001
0000
1000
0010
1000
0000
0001
0010
0001
0000
,  // measure 37
1000
0000
0100
0010
0001
0000
0001
0000
1000
0010
0100
0000
0001
0000
1000
0100
,  // measure 38
0010
0000
0001
0000
0100
0000
0001
0010
0001
0000
1000
0010
1000
0000
0001
0000
,  // measure 39
0100
0001
0100
0000
0010
0000
1000
0001
1000
0000
0100
1000
0001
0100
0010
1000
,  // measure 40
0001
0100
0020
0000
0130
0000
0000
0000
0011
0000
0000
0000
1100
0000
0000
0000
,  // measure 41
0001
0000
0100
0010
1000
0000
0001
0000
0100
0000
0010
1000
0100
0000
0010
0000
,  // measure 42
0001
0000
1000
0001
0100
0000
0010
0000
1000
0001
0010
0000
0100
1000
0010
0000
,  // measure 43
1000
0000
0001
0010
0100
0000
1000
0000
0001
0000
0100
0010
1000
0000
0001
0000
,  // measure 44
0100
0000
0010
1000
0100
0000
1000
0000
0001
1000
0100
0000
0010
0001
0100
0000
,  // measure 45
0001
0000
1000
0010
1000
0000
1000
0000
0001
0010
0001
0000
0001
0000
0100
0010
,  // measure 46
0100
0000
0100
0000
0001
0000
1000
0010
0100
0000
0001
0010
0100
0000
1000
0000
,  // measure 47
0010
1000
0001
0000
0100
0010
1000
0000
0100
1000
0001
0000
0010
0100
1000
0000
,  // measure 48
0001
0100
0010
1000
0001
0100
0001
1000
0100
0010
0001
1000
0010
0100
0001
1000
,  // measure 49
0100
0000
0010
0001
0010
0100
0010
0000
0100
0000
1000
0010
0100
0010
1000
0000
,  // measure 50
0001
0000
0010
0100
0010
0000
0001
0000
1000
0010
0100
0000
0001
0010
0100
0000
,  // measure 51
1000
0000
0001
0100
0010
0100
0001
0000
0010
0000
0100
1000
0100
0010
0100
0000
,  // measure 52
1000
0000
0001
0100
0001
0000
0010
0000
0100
1000
0010
0000
0100
0001
0010
0000
,  // measure 53
0001
0000
1000
0000
0010
0100
0010
0100
0001
0000
0010
0100
0010
0100
1000
0000
,  // measure 54
0001
1000
0010
0100
0001
0000
1000
0010
0100
0000
0001
0010
0001
0000
1000
0000
,  // measure 55
0010
1000
0001
0100
0001
0010
0100
1000
0001
1000
0010
0100
0001
0010
0100
1000
,  // measure 56
0010
0100
0001
1000
0001
0000
0000
0000
0011
0000
0000
0000
1100
0000
0000
0000
,  // measure 57
0001
0000
0010
0100
0010
0001
1000
0000
0010
1000
0100
0010
0100
0000
1000
0000
,  // measure 58
0001
0100
0001
1000
0100
0000
1000
0000
0010
0001
0010
0000
1000
0100
1000
0000
,  // measure 59
0001
0000
0010
0100
1000
0010
1000
0000
0001
0100
0001
0010
0100
0000
1000
0000
,  // measure 60
0010
1000
0001
0010
0100
0010
0100
0000
1000
0001
0100
0010
0100
0010
1000
0000
,  // measure 61
0001
1000
0001
0000
0001
0000
1000
0100
0010
0000
0001
0000
1000
0000
0010
0100
,  // measure 62
0001
0000
1000
0001
0100
0010
0100
0000
0001
0100
0010
0000
1000
0001
0010
0000
,  // measure 63
0001
1000
0001
0010
0100
1000
0100
1000
0001
0100
0010
0100
0001
1000
0001
0100
,  // measure 64
0010
1000
0100
0010
0001
1000
0010
0100
0001
1000
0100
0010
0001
1000
0010
1000
,  // measure 65
0100
0000
0010
0000
0001
0000
1000
0000
0010
1000
0010
0000
1000
0001
1000
0000
,  // measure 66
0100
0000
0010
0000
0001
0000
1000
0000
0010
0100
0010
0000
1000
0100
1000
0000
,  // measure 67
0001
0000
0010
0000
0100
0000
1000
0000
0001
0100
0001
0000
1000
0001
1000
0000
,  // measure 68
0001
0000
0100
0000
0010
0000
1000
0000
0100
0010
0100
0000
1000
0100
0010
0001
,  // measure 69
1000
0000
0010
0000
0100
0001
0100
0000
0010
1000
0010
0100
0001
0000
0010
0000
,  // measure 70
0100
0000
1000
0000
0010
0100
0001
0000
0010
0100
1000
0001
0100
0000
0010
0000
,  // measure 71
1000
0000
0100
0000
1000
0001
1000
0000
0001
0010
0001
1000
0010
0000
0100
0000
,  // measure 72
0001
0010
0100
1000
0010
0100
0001
0010
0100
1000
0001
0100
0020
0000
0030
0000
,  // measure 73
0011
0000
0000
0110
0000
0000
1010
0000
0000
0000
1000
0001
1000
0000
0100
0000
,  // measure 74
1010
0000
0000
0110
0000
0000
0011
0000
0000
0000
1000
0001
1000
0000
0010
0000
,  // measure 75
1100
0000
0000
0110
0000
0000
0101
0000
0000
0000
0001
1000
0001
0000
0010
0000
,  // measure 76
0101
0000
0000
0110
0000
0000
1100
0000
0000
0000
1000
0001
1000
0000
0010
0000
,  // measure 77
0001
0010
0000
1000
0001
0000
1000
0100
0000
1000
0010
1000
0010
0000
0100
0000
,  // measure 78
1000
0100
0000
0001
1000
0000
0001
0010
0000
0001
0100
0001
0100
0000
0001
0000
,  // measure 79
0010
1000
0000
0010
0001
0000
0100
0001
0000
1000
0100
1000
0100
0000
0010
0000
,  // measure 80
0001
0010
0001
0010
0100
1000
0010
1000
0010
0100
0001
0010
0100
1000
0010
2000
,  // measure 81
0002
0000
0000
3003
0000
0000
0000
0000
;

//---------------dance-single - ----------------
#NOTES:
     dance-single:
     :
     Medium:
     14:
     0.712975,0.858544,0.137615,0.110092,0.178899,544.000000,529.000000,15.000000,12.000000,0.000000,0.000000,0.712975,0.858544,0.137615,0.110092,0.178899,544.000000,529.000000,15.000000,12.000000,0.000000,0.000000:
// measure 0
0000
0000
0000
0000
,  // measure 1
0000
0000
0000
0000
,  // measure 2
0000
0000
0000
0000
,  // measure 3
0000
0000
0000
0000
,  // measure 4
0000
0000
0000
0000
,  // measure 5
1000
0100
0010
0001
0010
0001
0100
0010
,  // measure 6
1000
0001
1000
0001
0100
0010
1000
0100
,  // measure 7
1000
0010
1000
0010
0100
0001
0100
0001
,  // measure 8
0010
0100
1000
0001
0100
0010
2000
0000
,  // measure 9
3010
0000
0000
0010
0000
0000
0010
0000
0000
0000
0100
0000
0001
0000
1000
0000
,  // measure 10
0100
0000
0000
0100
0000
0000
0100
0000
0000
0000
1000
0000
0010
0000
0100
0000
,  // measure 11
0001
0000
0000
0001
0000
0000
0001
0000
0000
0000
0001
0000
0010
0000
0100
0000
,  // measure 12
1000
0000
0000
1000
0000
0000
1000
0000
0000
0000
1000
0000
0010
0000
0100
0000
,  // measure 13
0001
0000
0000
0010
0001
0000
0010
0000
0100
0000
0010
0000
0001
0000
1000
0000
,  // measure 14
0010
0000
0000
1000
0010
0000
1000
0000
0001
0000
0100
0000
0010
0000
1000
0000
,  // measure 15
0100
0000
0000
1000
0100
0000
1000
0000
0001
0000
0100
0000
0010
0000
1000
0000
,  // measure 16
0001
0100
0001
0000
1000
0010
1000
0000
0001
0000
0010
0000
0100
0000
1000
0000
,  // measure 17
0200
0000
0000
0000
0000
0310
0001
1000
,  // measure 18
0200
0000
0000
0000
0000
1300
0010
0200
,  // measure 19
0000
0000
0000
0000
0000
0301
0100
0020
,  // measure 20
0000
0000
0000
0000
0000
1030
0001
0020
,  // measure 21
0000
0000
0000
0000
0000
0031
1000
0200
,  // measure 22
0000
0000
0000
0000
0000
1300
0001
0100
,  // measure 23
0010
1000
0001
1000
,  // measure 24
0100
1000
0010
0100
,  // measure 25
0001
0000
0001
0100
0000
0100
0010
0100
,  // measure 26
0000
0100
1000
0100
0000
0100
0001
0100
,  // measure 27
0000
0010
1000
0010
0000
0010
0001
0010
,  // measure 28
0100
0001
1000
0100
,  // measure 29
0010
0001
0000
1000
0100
0000
0010
0001
,  // measure 30
0000
1000
0100
1000
0010
0000
0110
0000
,  // measure 31
0010
1000
0000
0001
0100
0000
0010
1000
,  // measure 32
0000
0001
0100
0001
0020
0000
0130
0000
,  // measure 33
1000
0100
0010
0001
0000
0100
0010
1000
,  // measure 34
0000
0001
0100
0001
0010
0001
1000
1000
,  // measure 35
0001
0100
0010
1000
0000
0100
0010
0001
,  // measure 36
0000
1000
0100
1000
0010
1000
0001
0001
,  // measure 37
0010
0001
1000
0100
0000
1000
0010
0001
,  // measure 38
0010
0100
0001
0010
0000
0100
0010
0001
,  // measure 39
1000
0010
1000
0010
0100
0001
0100
0001
,  // measure 40
0010
0100
1100
0000
0011
0000
0101
0000
,  // measure 41
0001
0100
0010
1000
0000
0100
0010
0001
,  // measure 42
0000
0010
0100
0010
0001
1000
0010
0010
,  // measure 43
1000
0100
0010
0001
0000
0100
0010
1000
,  // measure 44
0000
0010
0100
0010
1000
0001
0010
0010
,  // measure 45
0001
0100
1000
0100
0000
0100
0001
0100
,  // measure 46
0001
0010
1000
0010
0000
0010
0001
1000
,  // measure 47
0001
0100
0010
1000
0001
0010
0100
1000
,  // measure 48
0001
0100
0001
0000
1000
0010
1000
0000
0002
0000
0000
0000
0013
0000
0000
0000
,  // measure 49
0100
0001
0100
1000
0001
0010
0100
0001
,  // measure 50
0100
1000
0010
0100
0000
0010
0100
0001
,  // measure 51
0100
1000
0100
0001
1000
0010
0100
1000
,  // measure 52
0200
0001
1000
0310
,  // measure 53
0001
0000
0010
0000
0100
0010
0100
0010
0000
0000
0001
0000
1000
0000
0001
0000
,  // measure 54
1000
0000
0010
0000
0100
0010
0100
0010
0000
0000
1000
0000
0001
0000
0100
0000
,  // measure 55
0010
1000
0001
0010
0100
1000
0001
0100
,  // measure 56
0101
0011
1010
1100
,  // measure 57
0100
0001
0100
1000
0001
0010
0001
0100
,  // measure 58
1000
0100
0010
0100
0000
0001
1000
0010
,  // measure 59
0100
1000
0100
0001
1000
0010
1000
0100
,  // measure 60
0001
0100
0010
0100
1000
0010
0001
0010
,  // measure 61
0100
0001
0010
0011
0000
1100
0000
1001
,  // measure 62
0000
0001
0100
1000
0100
0010
1000
0001
,  // measure 63
0010
0010
0100
0100
1000
1000
0001
0001
,  // measure 64
1000
0100
1000
0000
0001
0010
0001
0000
1000
0010
1000
0000
0001
0100
0001
0000
,  // measure 65
0100
0010
1000
0001
0100
0010
0001
1000
,  // measure 66
0100
0010
1000
0001
0010
0100
1000
0001
,  // measure 67
1000
0100
0010
0001
0010
1000
0001
0100
,  // measure 68
1000
0100
0010
0001
1000
0001
0100
0010
,  // measure 69
1000
0100
0010
0001
0100
1000
0001
0010
,  // measure 70
0100
0001
1000
0010
0100
0001
0010
0100
,  // measure 71
1000
0001
1000
0000
0010
0000
0100
0000
0001
1000
0001
0000
0010
0000
0100
0000
,  // measure 72
1000
0100
1000
0000
0001
0100
0001
0000
1000
0010
1000
0000
0001
0010
0001
0000
,  // measure 73
1000
0000
0000
1000
0000
0000
1010
0000
0000
0000
0010
0000
0100
0000
0001
0000
,  // measure 74
0010
0000
0000
0010
0000
0000
0110
0000
0000
0000
0100
0000
1000
0000
0010
0000
,  // measure 75
0100
0000
0000
0100
0000
0000
0110
0000
0000
0000
0100
0000
0010
0000
1000
0000
,  // measure 76
0001
0000
0000
0001
0000
0000
0011
0000
0000
0000
0010
0000
0100
0000
1000
0000
,  // measure 77
0001
0100
0000
0001
0100
0000
0001
0000
1000
0000
0100
0000
0010
0000
0001
0000
,  // measure 78
1000
0100
0000
1000
0100
0000
1000
0000
0001
0000
0100
0000
0010
0000
1000
0000
,  // measure 79
0001
0010
0000
0001
0010
0000
0001
0000
1000
0000
0010
0000
0100
0000
0001
0000
,  // measure 80
1000
0010
1000
0000
0001
0100
0001
0000
1000
0100
1000
0000
0001
0010
0002
0000
,  // measure 81
2000
0000
0000
3003
0000
0000
0000
0000
;

//---------------dance-single - ----------------
#NOTES:
     dance-single:
     :
     Easy:
     9:
     0.473132,0.597248,0.238532,0.137615,0.055046,361.000000,335.000000,26.000000,15.000000,0.000000,0.000000,0.473132,0.597248,0.238532,0.137615,0.055046,361.000000,335.000000,26.000000,15.000000,0.000000,0.000000:
// measure 0
0000
0000
0000
0000
,  // measure 1
0000
0000
0000
0000
,  // measure 2
0000
0000
0000
0000
,  // measure 3
0000
0000
0000
0000
,  // measure 4
0000
0000
0000
0000
,  // measure 5
1000
0010
1000
0001
,  // measure 6
0010
0001
1000
0100
,  // measure 7
0010
0100
0010
0100
,  // measure 8
1000
0001
1000
0001
,  // measure 9
0100
0000
0000
0100
0000
0000
0100
0000
0000
0000
0000
0000
0001
0000
0000
0000
,  // measure 10
0010
0000
0000
0010
0000
0000
0010
0000
0000
0000
0000
0000
0100
0000
0000
0000
,  // measure 11
1000
0000
0000
1000
0000
0000
1000
0000
0000
0000
0000
0000
1000
0000
0000
0000
,  // measure 12
0001
0000
0000
0001
0000
0000
0001
0000
0000
0000
0000
0000
0100
0000
0000
0000
,  // measure 13
0010
0000
1000
0000
0010
0000
0100
0001
,  // measure 14
0010
0000
0001
0000
0010
0000
0100
1000
,  // measure 15
0001
0000
0100
0000
0001
0000
0100
0010
,  // measure 16
1000
0010
0100
0001
,  // measure 17
0200
0000
0000
0000
,  // measure 18
0302
0000
0000
0000
,  // measure 19
2003
0000
0000
0000
,  // measure 20
3200
0000
0000
0000
,  // measure 21
0320
0000
0000
0000
,  // measure 22
0032
0000
0003
0001
,  // measure 23
0020
0130
0200
1300
,  // measure 24
2000
3001
0002
0103
,  // measure 25
0100
0110
0000
1010
,  // measure 26
0000
1001
0000
0011
,  // measure 27
0000
0110
0000
1100
,  // measure 28
0000
1001
0001
0101
,  // measure 29
0100
0010
1000
0001
,  // measure 30
0100
0010
2000
3000
,  // measure 31
0100
0010
0001
1000
,  // measure 32
0100
0010
0002
1003
,  // measure 33
1001
0000
0001
0100
0000
0001
0100
0010
,  // measure 34
0000
0100
0010
1000
0010
0000
1000
0000
,  // measure 35
0001
0000
1000
0100
0000
1000
0100
0010
,  // measure 36
0000
0100
0010
0001
0010
0000
0001
0000
,  // measure 37
1000
0000
0010
0100
0010
0000
1000
0000
,  // measure 38
0001
0000
0010
0100
0010
0000
0001
0000
,  // measure 39
1000
0100
0001
0100
,  // measure 40
1100
0110
0011
0110
,  // measure 41
0100
0000
1000
0001
0000
0010
0100
1000
,  // measure 42
0000
0001
0010
0100
1000
0000
0010
0000
,  // measure 43
0100
0000
0001
1000
0000
0010
0100
0001
,  // measure 44
0000
1000
0010
0100
0001
0000
0010
0000
,  // measure 45
0001
0000
0100
0001
0100
0000
0010
0000
,  // measure 46
1000
0000
0100
1000
0100
0000
0010
0000
,  // measure 47
0001
0010
0100
1000
,  // measure 48
0001
0010
0002
0000
0010
0000
1000
0000
,  // measure 49
0103
0000
0010
1000
0010
0000
1000
0001
,  // measure 50
1000
0000
0010
0100
0000
0100
0001
0000
,  // measure 51
0010
0000
0100
1000
0100
0000
1000
0001
,  // measure 52
1000
0100
0010
0001
,  // measure 53
1000
0010
1000
0010
0000
0000
0110
0000
,  // measure 54
0100
0001
0100
0001
0000
0000
0110
0000
,  // measure 55
0010
1000
0001
0010
,  // measure 56
0011
0110
1100
0110
,  // measure 57
0010
0001
0010
0001
0010
0000
0100
0010
,  // measure 58
0100
0010
0100
1000
0000
0100
1000
0001
,  // measure 59
0000
0100
0001
0100
0001
0100
0010
0100
,  // measure 60
0010
1000
0100
0001
,  // measure 61
0010
0001
0010
0001
0000
1001
0000
1001
,  // measure 62
0000
1000
0010
0100
0001
0000
0100
0000
,  // measure 63
0010
1000
0010
1000
0000
1001
0000
1001
,  // measure 64
0000
0001
0010
0100
1000
0000
0010
0000
,  // measure 65
0100
0001
1000
0001
,  // measure 66
1000
0100
1000
0001
,  // measure 67
0100
0010
1000
0001
,  // measure 68
0010
0100
1000
0001
,  // measure 69
0100
0000
0010
0000
1000
0010
1000
0000
,  // measure 70
0100
0000
0010
0000
0001
0010
0001
0000
,  // measure 71
1000
0010
1000
0000
0001
0010
0001
0000
,  // measure 72
1000
0001
1000
0001
0100
0010
0100
0000
,  // measure 73
0010
0000
0000
0010
0000
0000
0010
0000
0000
0000
0000
0000
1000
0000
0000
0000
,  // measure 74
0001
0000
0000
0001
0000
0000
0001
0000
0000
0000
0000
0000
0010
0000
0000
0000
,  // measure 75
0100
0000
0000
0100
0000
0000
0100
0000
0000
0000
0000
0000
0100
0000
0000
0000
,  // measure 76
1000
0000
0000
1000
0000
0000
1000
0000
0000
0000
0000
0000
0001
0000
0000
0000
,  // measure 77
0100
0000
0000
0100
0000
0000
0110
0000
0000
0000
0010
0000
1000
0000
0000
0000
,  // measure 78
0001
0000
0000
0001
0000
0000
0011
0000
0000
0000
0010
0000
0100
0000
0000
0000
,  // measure 79
1000
0000
0000
1000
0000
0000
1001
0000
0000
0000
0001
0000
0010
0000
0000
0000
,  // measure 80
0010
0000
0000
0010
0000
0000
0010
0000
0000
0000
0001
0000
1000
0000
0002
0000
,  // measure 81
2000
0000
0000
3003
0000
0000
0000
0000
;

//---------------dance-single - ----------------
#NOTES:
     dance-single:
     :
     Beginner:
     5:
     0.272608,0.335952,0.018349,0.211009,0.000000,208.000000,206.000000,2.000000,23.000000,0.000000,0.000000,0.272608,0.335952,0.018349,0.211009,0.000000,208.000000,206.000000,2.000000,23.000000,0.000000,0.000000:
// measure 0
0000
0000
0000
0000
,  // measure 1
0000
0000
0000
0000
,  // measure 2
0000
0000
0000
0000
,  // measure 3
0000
0000
0000
0000
,  // measure 4
0000
0000
0000
0000
,  // measure 5
0001
0000
0100
0000
,  // measure 6
0001
0000
0010
0000
,  // measure 7
0001
1000
0001
1000
,  // measure 8
0100
0100
0100
0000
,  // measure 9
0020
0000
0000
0030
0000
0000
0000
0000
,  // measure 10
0002
0000
0000
0003
0000
0000
0000
0000
,  // measure 11
2000
0000
0000
3000
0000
0000
0000
0000
,  // measure 12
0200
0000
0000
0300
0000
0000
0000
0000
,  // measure 13
1000
1000
0010
0000
,  // measure 14
0100
0100
0001
0000
,  // measure 15
0001
0001
0010
0000
,  // measure 16
0100
0100
1000
0000
,  // measure 17
2002
0000
0000
0000
,  // measure 18
3003
0000
0000
0000
,  // measure 19
0200
0000
0000
0000
,  // measure 20
0300
0000
0000
0000
,  // measure 21
0020
0000
0000
0000
,  // measure 22
0030
0000
0000
0000
,  // measure 23
2000
0000
3020
0000
,  // measure 24
0230
0000
0302
0000
,  // measure 25
1003
0100
0000
0100
,  // measure 26
0000
0100
0000
0001
,  // measure 27
0000
0100
0000
0100
,  // measure 28
0000
1000
0001
1000
,  // measure 29
0001
0010
0000
0010
,  // measure 30
0000
0010
1000
0010
,  // measure 31
0001
0001
1000
1000
,  // measure 32
0020
0100
0100
0030
,  // measure 33
1000
0001
0000
0010
,  // measure 34
0001
1000
0001
0010
,  // measure 35
0001
1000
0000
0010
,  // measure 36
1000
0001
1000
0010
,  // measure 37
1000
0100
0000
0010
,  // measure 38
0001
0100
0000
0010
,  // measure 39
1000
0001
0000
0010
,  // measure 40
0001
1000
0010
0100
,  // measure 41
0001
0010
0000
0100
,  // measure 42
1000
0001
1000
0010
,  // measure 43
1000
0100
0000
0010
,  // measure 44
0001
1000
0001
0100
,  // measure 45
0001
0010
0000
0010
,  // measure 46
1000
0010
0000
0010
,  // measure 47
0001
0001
1000
1000
,  // measure 48
0200
0010
0010
0310
,  // measure 49
0001
0100
0010
0100
,  // measure 50
0001
0100
0010
0000
,  // measure 51
1000
0100
0010
0100
,  // measure 52
2000
0000
3001
0000
,  // measure 53
0001
0100
0000
0100
,  // measure 54
1000
0100
0000
0100
,  // measure 55
0001
0001
1000
1000
,  // measure 56
0010
0010
0220
0330
,  // measure 57
0001
0100
0010
1000
,  // measure 58
0001
0010
0000
1000
,  // measure 59
0010
0001
1000
0100
,  // measure 60
1000
0010
0000
0001
,  // measure 61
0010
0100
0010
1000
,  // measure 62
0001
0010
0100
0010
,  // measure 63
0001
0001
1000
1000
,  // measure 64
0010
0100
0001
0010
,  // measure 65
0100
0000
1000
0000
,  // measure 66
0010
0000
1000
0000
,  // measure 67
0001
0000
0100
0000
,  // measure 68
0010
0010
0010
0000
,  // measure 69
0100
0000
0001
0000
,  // measure 70
0010
0000
0001
0000
,  // measure 71
1000
0001
1000
0001
,  // measure 72
0010
0010
0010
0000
,  // measure 73
0200
0000
0000
0300
0000
0000
0000
0000
,  // measure 74
2000
0000
0000
3000
0000
0000
0000
0000
,  // measure 75
0002
0000
0000
0003
0000
0000
0000
0000
,  // measure 76
0020
0000
0000
0030
0000
0000
0000
0000
,  // measure 77
0001
0100
0001
0000
,  // measure 78
1000
0100
1000
0000
,  // measure 79
0001
0010
0001
0000
,  // measure 80
1000
0010
1000
0002
,  // measure 81
2000
0000
0000
3003
0000
0000
0000
0000
;
