#TITLE:heaven above;
#SUBTITLE:;
#ARTIST:kors k;
#TITLETRANSLIT:;
#SUBTITLETRANSLIT:;
#ARTISTTRANSLIT:;
#GENRE:;
#CREDIT:;
#BANNER:heaven above.png;
#BACKGROUND:heaven above-bg.png;
#LYRICSPATH:;
#CDTITLE:;
#MUSIC:heaven above.ogg;
#OFFSET:-2.210648;
#SAMPLESTART:18.573999;
#SAMPLELENGTH:15.000000;
#SELECTABLE:YES;
#BPMS:0.000000=132.000000
;
#STOPS:
;
#BGCHANGES:;
#KEYSOUNDS:;
#ATTACKS:;

//---------------dance-single - ----------------
#NOTES:
     dance-single:
     :
     Hard:
     11:
     0.381070,0.416696,0.102596,0.363031,0.031568,338.000000,325.000000,13.000000,46.000000,0.000000,0.000000,0.381070,0.416696,0.102596,0.363031,0.031568,338.000000,325.000000,13.000000,46.000000,0.000000,0.000000:
// measure 0
0000
0000
0000
0000
,  // measure 1
0002
0000
0000
2003
0000
0000
3010
0200
,  // measure 2
0000
0000
0000
0000
0000
0301
0010
0100
,  // measure 3
2000
0000
0000
0000
0000
0000
3001
0200
,  // measure 4
0000
0000
0000
0310
,  // measure 5
2000
0000
0000
3002
0000
0000
0013
0200
,  // measure 6
0000
0000
0000
0000
0000
1300
0010
0100
,  // measure 7
0001
0000
0100
0010
1000
0001
1000
0000
,  // measure 8
1001
0000
0000
0110
0000
0000
1001
0000
0000
0000
0000
0000
0000
0000
0000
0000
,  // measure 9
0101
0000
0100
0010
1000
0000
0001
0000
,  // measure 10
1000
0100
0010
0100
1000
0000
0001
0000
,  // measure 11
0100
0010
0100
0000
0001
1000
0001
0000
,  // measure 12
1000
0100
1000
0010
0100
0001
1000
0000
,  // measure 13
0001
0000
0100
0010
1000
0020
0000
0230
,  // measure 14
0000
0302
0000
0023
0000
0230
0000
2300
,  // measure 15
0000
0000
0000
3002
0000
0000
0000
0000
,  // measure 16
1003
1000
0001
0001
0010
0000
0110
0000
,  // measure 17
0000
1000
0001
0000
1000
0100
1000
0000
,  // measure 18
0001
0000
0010
0000
0001
0000
0000
0000
1000
0000
0010
0000
1000
0000
0000
0001
,  // measure 19
0100
0010
0100
0000
0001
1000
0001
0000
,  // measure 20
1000
0000
0000
1000
0000
0000
1000
0000
0000
0000
0001
0000
0010
0000
0001
0000
,  // measure 21
0100
0100
0010
0010
1000
0001
1000
0000
,  // measure 22
0001
0001
1000
1000
0100
0010
0100
0000
,  // measure 23
1000
0000
1000
0000
0000
0001
0100
0000
0010
0000
0010
0000
0000
0000
0100
0000
,  // measure 24
0001
1000
0001
1000
0010
0000
0110
0000
,  // measure 25
0200
0000
0000
0302
0000
0023
0000
0230
,  // measure 26
0000
2300
0000
3020
0000
0230
0000
0320
,  // measure 27
0000
0000
0000
2030
0000
0000
0001
0000
,  // measure 28
0000
0000
0100
0100
0000
0000
0010
0000
,  // measure 29
0000
0000
0000
3001
0100
0002
0000
0203
,  // measure 30
0000
0000
0310
2000
0000
0000
3100
0002
,  // measure 31
0000
0000
0000
0203
0000
0000
2300
0000
,  // measure 32
0000
0000
0001
0001
0000
0100
0000
3100
,  // measure 33
1000
0000
1100
0000
0010
0001
0100
0000
,  // measure 34
0001
0000
0101
0000
0010
1000
0100
0000
,  // measure 35
1000
0000
1010
0000
0100
0001
0010
0000
,  // measure 36
0001
0000
0011
0000
0100
1000
0010
0000
,  // measure 37
1000
0010
0100
0001
0100
0010
1000
0000
,  // measure 38
0001
0010
0100
1000
0100
0010
0001
0000
,  // measure 39
1000
1001
0001
1001
,  // measure 40
0100
0000
0100
0000
0010
0000
0100
0000
0000
0100
0010
0000
1000
0000
0001
0000
,  // measure 41
1000
0000
0000
0000
0001
0001
1001
0000
,  // measure 42
1000
0100
0001
0100
1000
0010
0100
0000
,  // measure 43
0001
0100
1000
0100
0001
0010
0100
0000
,  // measure 44
1000
0010
0001
0010
1000
0010
0100
0000
,  // measure 45
0001
0010
1000
0010
0001
0010
0100
0000
,  // measure 46
1000
0100
0010
0001
0100
0002
0000
0203
,  // measure 47
0000
0320
0000
2030
0000
3200
0000
2300
,  // measure 48
0000
0000
0000
3020
0000
0000
0030
0000
,  // measure 49
0010
0000
0010
0000
0010
0010
0010
0010
,  // measure 50
1000
0100
0010
0001
0100
0010
1000
0000
,  // measure 51
0001
0100
0010
1000
0100
0010
0001
0000
,  // measure 52
1000
0010
1000
0001
0100
0000
0001
0010
,  // measure 53
0001
0000
0000
0000
1000
0000
0000
0001
1000
0000
0010
0000
0100
0000
0000
0000
,  // measure 54
0001
0100
0010
1000
0100
1000
0001
0000
,  // measure 55
0010
0100
1000
0010
0100
0001
1000
0000
,  // measure 56
0001
0100
0001
0010
0100
0000
1000
0100
,  // measure 57
0010
0000
0000
0000
0001
0000
0000
1000
0001
0000
0100
0000
0010
0000
0010
0000
,  // measure 58
2000
0000
0000
3020
0000
0000
0130
0002
,  // measure 59
0000
0000
0000
0000
0000
0013
0100
1000
,  // measure 60
0020
0000
0000
0000
0000
0000
0130
0002
,  // measure 61
0000
0000
0000
1003
,  // measure 62
0020
0000
0000
0230
0000
0000
0301
0020
,  // measure 63
0000
0000
0000
0000
0000
0130
1000
0001
,  // measure 64
0200
0000
0000
0000
,  // measure 65
0310
0000
0100
0000
0001
0000
1000
0100
0000
0000
1000
0000
0001
0000
1000
0000
,  // measure 66
0010
0000
0000
0000
;

//---------------dance-single - ----------------
#NOTES:
     dance-single:
     :
     Medium:
     8:
     0.305532,0.338566,0.071028,0.149948,0.000000,271.000000,262.000000,9.000000,19.000000,0.000000,0.000000,0.305532,0.338566,0.071028,0.149948,0.000000,271.000000,262.000000,9.000000,19.000000,0.000000,0.000000:
// measure 0
0000
0000
0000
0000
,  // measure 1
1000
0000
0000
0001
0000
0000
0100
0010
,  // measure 2
0000
0000
0000
0000
0000
1000
0001
1000
,  // measure 3
0010
0000
0000
0000
0000
0000
0100
0001
,  // measure 4
0000
0000
0000
1000
,  // measure 5
1010
0010
0100
0001
,  // measure 6
0010
0100
1000
0001
,  // measure 7
1000
0100
1000
0000
0001
0100
0001
0000
,  // measure 8
1001
0000
0000
1001
,  // measure 9
0110
0000
0010
0000
1000
0100
1000
0000
,  // measure 10
0001
0000
0100
0000
0010
0100
0010
0000
,  // measure 11
1000
0000
0100
0000
0010
0001
0010
0000
,  // measure 12
0100
0000
0010
0000
0001
1000
0001
0000
,  // measure 13
0100
0000
0010
0000
1000
0100
0000
0010
,  // measure 14
0000
0001
0000
1000
0000
0010
0000
0100
,  // measure 15
0000
0000
0000
0010
0000
0000
0100
0000
,  // measure 16
0001
1000
0001
1000
0010
0000
0010
0000
,  // measure 17
0000
0100
0001
0000
1000
0000
0001
0000
,  // measure 18
1000
0100
0010
0000
0001
0100
0010
0000
,  // measure 19
1000
0000
0001
0000
0100
0001
0100
0000
,  // measure 20
0010
0000
1000
0000
0100
1000
0100
0000
,  // measure 21
0010
0000
0001
0000
1000
0001
1000
0000
,  // measure 22
0010
0000
0100
0000
0001
1000
0001
0000
,  // measure 23
1000
1000
0000
0001
0001
0000
0100
0000
,  // measure 24
0010
0000
0100
0000
0001
1000
0001
0000
,  // measure 25
1001
0000
0000
0001
0000
1000
0000
0010
,  // measure 26
0000
0100
0000
0001
0000
0010
0000
0100
,  // measure 27
0000
0000
0000
2000
0000
0000
0000
0000
,  // measure 28
0000
0000
3001
0001
0000
0000
0010
0000
,  // measure 29
0100
0000
0000
1000
0000
0010
0000
0100
,  // measure 30
0000
0001
0000
1000
0000
0100
0000
0020
,  // measure 31
0000
0000
0000
0032
0000
0000
0203
0000
,  // measure 32
0000
0000
0000
0000
0300
0001
0000
0001
,  // measure 33
1000
0001
1000
0001
,  // measure 34
0100
0010
0100
0010
,  // measure 35
1000
0100
1000
0100
,  // measure 36
0010
0001
0010
0001
,  // measure 37
0100
0010
1000
0001
,  // measure 38
1000
0100
0010
0001
,  // measure 39
1000
0010
0100
0001
,  // measure 40
1000
0001
1000
0001
0000
0000
0110
0000
,  // measure 41
1000
0000
0110
0110
,  // measure 42
1001
0000
0100
0000
0001
0010
0001
0000
,  // measure 43
1000
0000
0100
0000
1000
0010
1000
0000
,  // measure 44
0001
0000
0100
0000
0010
0100
0001
0000
,  // measure 45
1000
0000
0100
0000
0010
0100
1000
0000
,  // measure 46
0001
0000
0100
0000
0001
0100
0000
0010
,  // measure 47
0000
1000
0000
0100
0000
1000
0000
0002
,  // measure 48
0000
0000
0000
0023
0000
0000
0000
0000
,  // measure 49
0130
0000
0100
0000
0100
1000
0100
1000
,  // measure 50
0001
0000
0100
0001
1000
0001
0000
1000
,  // measure 51
0000
0100
0000
0010
0000
0001
0000
0020
,  // measure 52
0000
0000
0000
0230
0000
0000
1300
0000
,  // measure 53
0001
0000
0100
0001
1000
0001
1000
0000
,  // measure 54
0001
0000
1000
0100
1000
0001
0000
1000
,  // measure 55
0000
0100
0000
0010
0000
0001
0000
0020
,  // measure 56
0000
0000
0000
0230
0000
0000
1300
0000
,  // measure 57
0001
0000
1000
0000
0100
0010
0100
0010
,  // measure 58
0002
0000
0000
2003
0000
0000
3010
0200
,  // measure 59
0000
0000
0000
0000
0000
0301
0010
0100
,  // measure 60
2000
0000
0000
0000
0000
0000
3001
0200
,  // measure 61
0000
0000
0000
0310
,  // measure 62
0200
0000
0000
0302
0000
0000
0013
0200
,  // measure 63
0000
0000
0000
0000
0000
1300
0010
0100
,  // measure 64
0002
0000
0000
0000
,  // measure 65
1003
0000
1000
0000
0001
1000
0001
1000
,  // measure 66
0010
0000
0000
0000
;

//---------------dance-single - ----------------
#NOTES:
     dance-single:
     :
     Easy:
     4:
     0.182643,0.260435,0.047352,0.157839,0.000000,162.000000,156.000000,6.000000,20.000000,0.000000,0.000000,0.182643,0.260435,0.047352,0.157839,0.000000,162.000000,156.000000,6.000000,20.000000,0.000000,0.000000:
// measure 0
0000
0000
0000
0000
,  // measure 1
1000
0000
0000
0000
,  // measure 2
0000
0000
0000
0000
,  // measure 3
0001
0000
0000
0000
,  // measure 4
0000
0000
0000
0000
,  // measure 5
0100
0000
0000
0000
,  // measure 6
0100
0000
0000
0000
,  // measure 7
0010
0000
0010
0000
,  // measure 8
0020
0000
0000
0030
,  // measure 9
1000
0000
1000
0000
,  // measure 10
0001
0000
0001
0000
,  // measure 11
1000
0100
1000
0100
,  // measure 12
0010
0001
0010
0001
,  // measure 13
0100
0000
0100
0000
,  // measure 14
0010
0000
0010
0010
,  // measure 15
0020
0000
2000
0030
,  // measure 16
3200
0000
0320
0000
,  // measure 17
0031
0001
0100
0000
,  // measure 18
1000
1000
0100
0000
,  // measure 19
0001
0001
0010
0000
,  // measure 20
1000
1000
0010
0000
,  // measure 21
0001
0000
0001
0001
,  // measure 22
1000
0000
1000
1000
,  // measure 23
0010
0000
0010
0000
,  // measure 24
0100
0100
0010
0010
,  // measure 25
0210
0000
0000
0000
,  // measure 26
0302
0000
0000
0000
,  // measure 27
0023
0000
0000
0000
,  // measure 28
0000
0000
0000
0000
,  // measure 29
0230
0000
0000
0000
,  // measure 30
2300
0000
0000
3000
,  // measure 31
0020
0000
0000
0000
,  // measure 32
0000
0000
0000
0130
,  // measure 33
0110
0000
0001
0000
,  // measure 34
1000
1000
0001
0001
,  // measure 35
0010
0000
0100
0000
,  // measure 36
1000
0001
1000
0000
,  // measure 37
0010
0000
0010
0000
,  // measure 38
0100
0000
0100
0000
,  // measure 39
0001
0100
0010
1000
,  // measure 40
0001
0001
1000
1000
,  // measure 41
1001
0000
0001
1000
,  // measure 42
1001
0000
0001
0000
,  // measure 43
1000
0100
1000
0100
,  // measure 44
0010
0000
0010
0000
,  // measure 45
0001
0100
0001
0100
,  // measure 46
0010
0000
1000
0000
,  // measure 47
0001
0010
0100
1000
,  // measure 48
0020
0000
0230
0000
,  // measure 49
0301
0001
0001
1000
,  // measure 50
1001
0001
1000
0100
,  // measure 51
1000
0001
1000
0001
,  // measure 52
0100
0010
0100
0010
,  // measure 53
1000
0001
0010
0100
,  // measure 54
1000
1000
0001
0001
,  // measure 55
0100
0100
0010
0010
,  // measure 56
1000
0001
1000
0001
,  // measure 57
0010
0100
0010
0100
,  // measure 58
2000
0000
0000
0000
,  // measure 59
3002
0000
0000
0103
,  // measure 60
0020
0000
0000
0130
,  // measure 61
0200
0000
0000
0300
,  // measure 62
0020
0000
0000
0000
,  // measure 63
2030
0000
0000
3001
,  // measure 64
0200
0000
0000
0300
,  // measure 65
0001
0010
0100
1000
,  // measure 66
1001
0000
0000
0000
;

//---------------dance-single - ----------------
#NOTES:
     dance-single:
     :
     Beginner:
     1:
     0.057499,0.104174,0.015784,0.000000,0.000000,51.000000,49.000000,2.000000,0.000000,0.000000,0.000000,0.057499,0.104174,0.015784,0.000000,0.000000,51.000000,49.000000,2.000000,0.000000,0.000000,0.000000:
// measure 0
0000
0000
0000
0000
,  // measure 1
1000
0000
0000
0000
,  // measure 2
0000
0000
0000
0000
,  // measure 3
0001
0000
0000
0000
,  // measure 4
0000
0000
0000
0000
,  // measure 5
1000
0000
0000
0000
,  // measure 6
0000
0000
0000
0000
,  // measure 7
0001
0000
0000
0000
,  // measure 8
0100
0000
0000
0000
,  // measure 9
0100
0000
0000
0000
,  // measure 10
0000
0000
0000
0000
,  // measure 11
0001
0000
0000
0000
,  // measure 12
0000
0000
0000
0000
,  // measure 13
1000
0000
0000
0000
,  // measure 14
0000
0000
0000
0000
,  // measure 15
0001
0000
0000
0000
,  // measure 16
0000
0000
0000
0000
,  // measure 17
1000
0000
0000
0000
,  // measure 18
0000
0000
0000
0000
,  // measure 19
0100
0000
0000
0000
,  // measure 20
0000
0000
0000
0000
,  // measure 21
0010
0000
0000
0000
,  // measure 22
0000
0000
0000
0000
,  // measure 23
0001
0000
0000
0000
,  // measure 24
0000
0000
0000
0000
,  // measure 25
1001
0000
0000
0000
,  // measure 26
0000
0000
0000
0000
,  // measure 27
0001
0000
0000
0000
,  // measure 28
0000
0000
0000
0000
,  // measure 29
1000
0000
0000
0000
,  // measure 30
0000
0000
0000
0000
,  // measure 31
0010
0000
0010
0000
,  // measure 32
0010
0000
0000
0000
,  // measure 33
0100
0000
0000
0000
,  // measure 34
0100
0000
0000
0000
,  // measure 35
0001
0000
0000
0000
,  // measure 36
0001
0000
0000
0000
,  // measure 37
1000
0000
0000
0000
,  // measure 38
1000
0000
0000
0000
,  // measure 39
0010
0000
0000
0000
,  // measure 40
0010
0000
0000
0000
,  // measure 41
0100
0000
0000
0000
,  // measure 42
0100
0000
0000
0000
,  // measure 43
0001
0000
0000
0000
,  // measure 44
1000
0000
0000
0000
,  // measure 45
0100
0000
0000
0000
,  // measure 46
0010
0000
0000
0000
,  // measure 47
0001
0000
0000
0000
,  // measure 48
1000
0000
0000
0000
,  // measure 49
0010
0000
0000
0000
,  // measure 50
0100
0000
0000
0000
,  // measure 51
0100
0000
0000
0000
,  // measure 52
0010
0000
0000
0000
,  // measure 53
0010
0000
0000
0000
,  // measure 54
0100
0000
0000
0000
,  // measure 55
0100
0000
0000
0000
,  // measure 56
0010
0000
0000
0000
,  // measure 57
0010
0000
0000
0000
,  // measure 58
1000
0000
0000
0000
,  // measure 59
0000
0000
0000
0000
,  // measure 60
0001
0000
0000
0000
,  // measure 61
0000
0000
0000
0000
,  // measure 62
1000
0000
0000
0000
,  // measure 63
0000
0000
0000
0000
,  // measure 64
0001
0000
0000
0000
,  // measure 65
0000
0000
0000
0000
,  // measure 66
1001
0000
0000
0000
;
