#VERSION:0.83;
#TITLE:encounter;
#SUBTITLE:;
#ARTIST:猫叉Master+;
#TITLETRANSLIT:;
#SUBTITLETRANSLIT:;
#ARTISTTRANSLIT:Nekomata Master+;
#GENRE:;
#ORIGIN:;
#CREDIT:;
#BANNER:encounter.png;
#BACKGROUND:encounter-bg.png;
#PREVIEWVID:;
#JACKET:encounter-jacket.png;
#CDIMAGE:;
#DISCIMAGE:;
#LYRICSPATH:;
#CDTITLE:;
#MUSIC:encounter.ogg;
#OFFSET:-0.026000;
#SAMPLESTART:93.489998;
#SAMPLELENGTH:15.000000;
#SELECTABLE:YES;
#BPMS:0.000=190.000,
116.000=95.000,
124.000=190.000,
252.000=95.000,
260.000=190.000,
276.000=95.000,
278.000=190.000,
342.000=95.000;
#STOPS:;
#DELAYS:;
#WARPS:;
#TIMESIGNATURES:0.000=4=4;
#TICKCOUNTS:0.000=4;
#COMBOS:0.000=1;
#SPEEDS:0.000=1.000=0.000=0;
#SCROLLS:0.000=1.000;
#FAKES:;
#LABELS:0.000=Song Start;
#BGCHANGES:;
#KEYSOUNDS:;
#ATTACKS:
;

//---------------dance-single - ----------------
#NOTEDATA:;
#CHARTNAME:;
#STEPSTYPE:dance-single;
#DESCRIPTION:;
#CHARTSTYLE:;
#DIFFICULTY:Beginner;
#METER:3;
#RADARVALUES:0.151287,0.254341,0.115829,0.107555,0.000000,128.000000,114.000000,14.000000,13.000000,0.000000,0.000000,0.000000,0.000000,0.000000,0.151287,0.254341,0.115829,0.107555,0.000000,128.000000,114.000000,14.000000,13.000000,0.000000,0.000000,0.000000,0.000000,0.000000;
#CREDIT:Marten;
#NOTES:
// measure 0
0000
0000
0000
0000
,  // measure 1
0000
0000
0000
0000
,  // measure 2
0000
0000
0000
0000
,  // measure 3
0000
0000
0000
0000
,  // measure 4
0000
0000
0000
0000
,  // measure 5
1000
0000
0000
0000
,  // measure 6
0001
0000
0000
0000
,  // measure 7
1000
0000
0000
0000
,  // measure 8
0001
0000
0000
0000
,  // measure 9
0010
0000
0010
0000
,  // measure 10
0010
0000
0000
0000
,  // measure 11
0100
0000
0100
0000
,  // measure 12
0100
0000
0000
0000
,  // measure 13
1000
0000
1000
0000
,  // measure 14
1000
0000
0000
0000
,  // measure 15
0001
0000
0001
0000
,  // measure 16
1001
0000
1001
0000
,  // measure 17
0020
0000
0000
0030
,  // measure 18
0000
0000
0001
0000
,  // measure 19
0002
0000
0000
0000
,  // measure 20
0003
0000
1000
0000
,  // measure 21
2000
0000
0000
0000
,  // measure 22
3000
0000
0100
0000
,  // measure 23
0200
0000
0000
0000
,  // measure 24
0300
0000
0000
0000
,  // measure 25
1001
0000
0000
0000
,  // measure 26
0001
0000
0000
0000
,  // measure 27
1001
0000
0000
0000
,  // measure 28
1000
0000
0000
0000
,  // measure 29
0220
0000
0330
0000
,  // measure 30
0001
0002
0000
0003
,  // measure 31
1000
0000
0000
0000
,  // measure 32
0001
0000
1000
0000
,  // measure 33
0010
0000
0000
0000
,  // measure 34
0100
0000
1000
0000
,  // measure 35
0001
0000
0000
0000
,  // measure 36
1000
0000
0001
0000
,  // measure 37
1001
0000
0000
0000
,  // measure 38
0110
0000
0000
0000
,  // measure 39
1000
0000
0000
0000
,  // measure 40
0010
0000
0100
0000
,  // measure 41
0001
0000
0000
0000
,  // measure 42
1000
0000
0001
0000
,  // measure 43
0010
0000
0000
0000
,  // measure 44
0100
0000
1000
0000
,  // measure 45
1001
0000
0000
0000
,  // measure 46
0110
0000
0000
0000
,  // measure 47
0001
0000
0000
0000
,  // measure 48
1000
0000
0000
0000
,  // measure 49
0010
0000
0000
0000
,  // measure 50
0100
0000
0000
0000
,  // measure 51
0001
0000
0000
0000
,  // measure 52
1000
0000
0000
0000
,  // measure 53
0100
0000
0000
0000
,  // measure 54
0010
0000
0000
0000
,  // measure 55
0001
0000
0000
0000
,  // measure 56
0010
0000
0010
0000
,  // measure 57
0010
0000
0000
0000
,  // measure 58
0100
0000
0100
0000
,  // measure 59
0100
0000
0000
0000
,  // measure 60
1000
0000
1000
0000
,  // measure 61
1000
0000
0000
0000
,  // measure 62
0001
0000
0001
0000
,  // measure 63
0002
0000
0003
0000
,  // measure 64
2000
3000
0020
0030
,  // measure 65
0100
0000
0100
0000
,  // measure 66
0100
0000
0100
0000
,  // measure 67
0100
0000
0100
0000
,  // measure 68
0100
0000
0100
0000
,  // measure 69
0220
0330
0001
0000
,  // measure 70
0001
0000
1000
0000
,  // measure 71
1000
0000
0001
0000
,  // measure 72
0001
0000
1000
0000
,  // measure 73
1000
0000
0010
0000
,  // measure 74
0010
0000
0100
0000
,  // measure 75
0100
0000
0110
0000
,  // measure 76
0000
0000
1001
0000
,  // measure 77
0000
0000
0100
0000
,  // measure 78
0100
0000
0010
0000
,  // measure 79
0010
0000
0100
0000
,  // measure 80
0100
0000
0010
0000
,  // measure 81
0010
0000
1000
0000
,  // measure 82
1000
0000
0001
0000
,  // measure 83
0001
0000
1001
0000
,  // measure 84
0000
0000
0110
0000
,  // measure 85
0000
0000
0200
0000
,  // measure 86
0000
0000
0000
0000
,  // measure 87
0000
0000
0000
0000
0000
0000
0000
0000
0000
0000
0300
0000
;

//---------------dance-single - ----------------
#NOTEDATA:;
#CHARTNAME:;
#STEPSTYPE:dance-single;
#DESCRIPTION:;
#CHARTSTYLE:;
#DIFFICULTY:Easy;
#METER:7;
#RADARVALUES:0.364033,0.436013,0.430221,0.215111,0.008273,308.000000,256.000000,52.000000,26.000000,0.000000,0.000000,0.000000,0.000000,0.000000,0.364033,0.436013,0.430221,0.215111,0.008273,308.000000,256.000000,52.000000,26.000000,0.000000,0.000000,0.000000,0.000000,0.000000;
#CREDIT:Marten;
#NOTES:
// measure 0
0000
0000
0000
0000
,  // measure 1
0000
0000
0000
0000
,  // measure 2
0000
0000
0000
0000
,  // measure 3
0000
0000
0000
0000
,  // measure 4
0000
0000
0000
0000
,  // measure 5
0001
0010
0001
0000
,  // measure 6
1000
0010
1000
0000
,  // measure 7
0001
0100
0001
0000
,  // measure 8
1000
0100
1000
0000
,  // measure 9
1000
0010
0100
0001
,  // measure 10
0010
0100
1000
0000
,  // measure 11
0001
0100
0010
1000
,  // measure 12
0100
0010
0001
0000
,  // measure 13
1000
0010
1000
0001
,  // measure 14
0010
0001
0100
0000
,  // measure 15
0010
1000
0001
0010
,  // measure 16
0100
0100
1001
1001
,  // measure 17
1000
0000
0000
0001
0000
0000
0100
0000
,  // measure 18
0000
0010
0000
0000
1000
0000
0000
0000
,  // measure 19
0100
0000
0000
1000
0000
0000
0001
0000
,  // measure 20
0000
0010
0000
0000
0100
0000
0000
0000
,  // measure 21
1000
0000
0000
0001
0000
0000
0100
0000
,  // measure 22
0000
0010
0000
0000
1000
0000
0000
0000
,  // measure 23
0001
0000
0000
0010
0000
0000
1000
0000
,  // measure 24
0000
0010
0000
0000
0001
0000
0000
0000
,  // measure 25
1001
0000
0000
1001
0000
0000
0110
0000
,  // measure 26
0000
0110
0000
0000
1010
0000
0000
1010
,  // measure 27
0000
0000
0101
0000
0000
0101
0000
0000
,  // measure 28
0011
0000
0000
0011
0000
0000
1100
0000
,  // measure 29
2002
0000
3003
0000
,  // measure 30
1000
0001
1000
0002
0000
0000
0000
0000
0000
0003
0000
0000
,  // measure 31
1000
0000
0000
1000
0000
0000
0001
0000
,  // measure 32
0100
0010
1000
0100
,  // measure 33
0010
0000
0000
0010
0000
0000
0001
0000
,  // measure 34
1000
0010
1000
0100
,  // measure 35
0001
0000
0000
0001
0000
0000
0100
0000
,  // measure 36
0010
1000
0001
0010
,  // measure 37
0110
0000
0000
1001
0000
0000
0000
0000
,  // measure 38
0110
0000
0000
1001
0000
0000
0000
0000
,  // measure 39
0100
0000
0000
0100
0000
0000
0010
0000
,  // measure 40
1000
0001
1000
0100
,  // measure 41
0010
0000
0000
0010
0000
0000
0001
0000
,  // measure 42
1000
0010
0100
0001
,  // measure 43
1000
0000
0000
1000
0000
0000
0001
0000
,  // measure 44
0010
0100
1000
0001
,  // measure 45
0110
0000
0000
1001
0000
0000
0000
0000
,  // measure 46
0110
0000
0000
1001
0000
0000
0000
0000
,  // measure 47
0001
0010
0100
0001
,  // measure 48
0010
0100
1000
0001
,  // measure 49
1000
0010
0100
1000
,  // measure 50
0010
0100
0001
1000
,  // measure 51
0001
0100
1000
0001
,  // measure 52
0100
1000
0010
1000
,  // measure 53
0100
1000
0010
0100
,  // measure 54
1000
0010
1000
0001
,  // measure 55
0020
0000
0000
0230
0000
0000
1300
0000
,  // measure 56
0001
0100
0010
1000
,  // measure 57
0002
0000
0000
2003
0000
0000
3020
0000
,  // measure 58
0000
0230
0000
0000
0301
0000
1000
0000
,  // measure 59
0200
0000
0000
0320
0000
0000
0031
0000
,  // measure 60
1000
0010
1000
0001
,  // measure 61
0200
0000
0000
0302
0000
0000
2003
0000
,  // measure 62
0000
3200
0000
0000
0310
0000
0001
0000
,  // measure 63
2001
0000
0000
0000
3010
0000
1000
0100
,  // measure 64
0020
0000
0230
0000
,  // measure 65
0310
1001
0100
0010
,  // measure 66
1000
1001
0010
0100
,  // measure 67
0001
1001
0010
1000
,  // measure 68
2002
3003
0220
0330
,  // measure 69
0200
0000
0010
0000
0310
0000
0000
0001
,  // measure 70
0000
0000
0100
0000
0000
0010
0000
0000
,  // measure 71
1001
0000
0110
0000
0001
0000
0000
1000
,  // measure 72
0000
0000
0100
0000
0000
0010
0000
0000
,  // measure 73
0110
0000
1001
0000
0010
0000
0000
1000
,  // measure 74
0000
0000
0001
0000
0000
0100
0000
0000
,  // measure 75
0110
0000
1001
0000
2010
0000
0000
0100
,  // measure 76
0000
0000
3001
0000
0012
0000
0000
0100
,  // measure 77
0000
0000
1003
0000
1010
0000
0000
0101
,  // measure 78
0000
0000
0011
0000
0000
1100
0000
0000
,  // measure 79
1000
0000
0001
0000
0011
0000
0000
1100
,  // measure 80
0000
0000
1010
0000
0000
0101
0000
0000
,  // measure 81
0001
0000
1000
0000
1010
0000
0000
0101
,  // measure 82
0000
0000
0011
0000
0000
1100
0000
0000
,  // measure 83
0001
0000
0100
0000
0011
0000
0000
1100
,  // measure 84
0000
0000
0001
0000
1010
0000
0000
0101
,  // measure 85
0000
1000
0200
0000
,  // measure 86
0000
0000
0000
0000
,  // measure 87
0000
0000
0000
0000
0000
0000
0000
0000
0000
0000
0300
0000
;

//---------------dance-single - ----------------
#NOTEDATA:;
#CHARTNAME:;
#STEPSTYPE:dance-single;
#DESCRIPTION:;
#CHARTSTYLE:;
#DIFFICULTY:Medium;
#METER:9;
#RADARVALUES:0.531867,0.545016,0.570871,0.289572,0.115829,450.000000,381.000000,69.000000,35.000000,0.000000,0.000000,0.000000,0.000000,0.000000,0.531867,0.545016,0.570871,0.289572,0.115829,450.000000,381.000000,69.000000,35.000000,0.000000,0.000000,0.000000,0.000000,0.000000;
#CREDIT:Marten;
#NOTES:
// measure 0
0000
0000
0000
0000
,  // measure 1
0000
0000
0000
0000
,  // measure 2
0000
0000
0000
0000
,  // measure 3
0000
0000
0000
0000
,  // measure 4
0000
0000
0000
0000
,  // measure 5
0001
0100
0001
0100
0001
0100
0000
0000
,  // measure 6
1000
0010
1000
0010
1000
0010
0000
0000
,  // measure 7
0100
0010
0100
0010
0100
0010
0000
0000
,  // measure 8
1000
0001
1000
0001
0000
1000
0001
0000
,  // measure 9
1000
0000
0100
0000
0001
0010
0000
0100
,  // measure 10
1000
0000
0010
1000
0000
0001
0100
0000
,  // measure 11
0110
0000
1001
0000
0010
1000
0000
0100
,  // measure 12
1000
0000
0001
0100
0000
0001
0010
0000
,  // measure 13
0100
0000
1000
0000
0001
0100
0000
1000
,  // measure 14
0010
0000
1000
0100
0000
1000
0001
0000
,  // measure 15
0110
0000
1001
0000
1000
0001
0000
0000
,  // measure 16
0100
0010
0100
0010
0100
0000
0110
0000
,  // measure 17
0101
0000
0000
1010
0000
0000
1100
0000
,  // measure 18
0000
0110
0000
0000
1001
0000
0010
0000
,  // measure 19
0101
0000
0000
1010
0000
0000
1100
0000
,  // measure 20
0000
1001
0000
0000
0110
0000
0010
0000
,  // measure 21
0011
0000
0000
1010
0000
0000
0101
0000
,  // measure 22
0000
0110
0000
0000
1001
0000
0100
0000
,  // measure 23
1100
0000
0000
0101
0000
0000
0110
0000
,  // measure 24
0000
1010
0000
0000
0011
0000
1000
0000
,  // measure 25
1100
0000
0000
0101
0000
0000
1010
0000
,  // measure 26
0000
0011
0000
0000
0110
0000
0000
0101
,  // measure 27
0000
0000
1100
0000
0000
1010
0000
0000
,  // measure 28
1001
0000
0000
0110
0000
0000
0001
0000
,  // measure 29
2002
0000
3003
0000
,  // measure 30
1000
0100
0010
0002
0000
0000
0000
0000
0000
0003
0000
0000
,  // measure 31
0001
0000
0100
0010
0000
1000
0100
0000
,  // measure 32
0001
0000
0010
0100
1000
0001
1000
0000
,  // measure 33
0010
0000
0100
0001
0000
1000
0100
0000
,  // measure 34
0011
0000
1100
0000
0001
1000
0010
0000
,  // measure 35
0101
0000
0010
1002
0000
0000
0203
0000
,  // measure 36
0320
0000
2030
0000
3100
0010
0001
1000
,  // measure 37
2100
0000
0000
3001
0000
0000
0010
0000
,  // measure 38
0102
0000
0000
1003
0000
0000
0010
0000
,  // measure 39
0101
0000
0000
1010
0000
0100
1000
0000
,  // measure 40
0001
0000
0010
0100
1000
0001
1000
0000
,  // measure 41
0100
0010
0100
0010
0100
0000
0001
0000
,  // measure 42
0100
0000
0001
0010
0100
1000
0001
0000
,  // measure 43
1001
0000
0010
2001
0000
0000
3002
0000
,  // measure 44
0023
0000
0230
0000
1300
0100
0010
0001
,  // measure 45
0012
0000
0000
1003
0000
0000
0010
0000
,  // measure 46
2010
0000
0000
3001
0000
0010
0100
0001
,  // measure 47
1000
0000
0000
1000
0000
0000
1000
0000
0000
0000
0000
0000
0001
0000
0000
0001
,  // measure 48
0000
0001
1000
0100
0010
0001
1000
0000
,  // measure 49
0010
0000
0000
0010
0000
0000
0010
0000
0000
0000
0000
0000
0100
0000
0000
0100
,  // measure 50
0000
0100
0020
0000
2030
0000
3002
0000
,  // measure 51
0103
0000
0000
0100
0000
0000
0100
0000
0000
0000
0000
0000
0010
0000
0000
0010
,  // measure 52
0000
0010
1000
0100
0010
0000
0001
0000
,  // measure 53
1000
0000
0000
1000
0000
0000
1000
0000
0000
0000
0000
0000
0001
0000
0000
0001
,  // measure 54
0000
0001
1000
0000
0110
0000
1001
0000
,  // measure 55
0010
0000
0000
0010
0000
0000
0010
0000
0000
0000
0100
0000
0010
0000
1000
0000
,  // measure 56
0100
0010
0001
1000
0001
0100
0010
0000
,  // measure 57
0100
0000
0000
0100
0000
0000
0100
0000
0000
0000
0000
0000
0001
0000
0000
0001
,  // measure 58
0000
0000
0001
0000
0000
0010
0000
0000
0100
0000
0000
1000
0000
0000
0001
0000
,  // measure 59
0100
0000
0000
0100
0000
0000
0100
0000
0000
0000
0000
0000
0010
0000
0000
0010
,  // measure 60
0000
0000
0000
0010
0000
0000
1000
0000
0000
0000
0100
0000
0010
0000
0000
0000
0001
0000
0100
0000
0000
0000
0010
0000
,  // measure 61
1000
0000
0000
1000
0000
0000
1000
0000
0000
0000
0000
0000
0001
0000
0000
0001
,  // measure 62
0000
0001
1000
0000
0110
0000
1001
0000
,  // measure 63
2100
0000
0100
0000
0100
0000
3100
0010
,  // measure 64
0002
0000
0200
0003
,  // measure 65
0301
0000
1010
0000
0001
0100
0010
0000
,  // measure 66
1000
0000
0011
0000
1000
0100
0010
0000
,  // measure 67
0001
0000
0110
0000
0001
1000
0010
0000
,  // measure 68
0100
0000
1001
0000
0010
1000
0001
0000
,  // measure 69
0020
0000
0000
0000
0000
0000
0100
0000
0100
0000
0100
0000
1030
0000
0000
0000
0000
0000
0100
0000
0000
0010
0000
0000
,  // measure 70
0000
0001
0100
0000
0010
1000
0000
0001
,  // measure 71
0100
0010
1000
0000
0100
0000
0010
0001
,  // measure 72
0000
1000
0100
0000
0010
0001
0000
1000
,  // measure 73
0010
0000
1001
0000
1010
0000
0001
0100
,  // measure 74
0000
0010
1000
0000
0100
1000
0000
0001
,  // measure 75
0010
0100
1000
0001
2001
0000
0000
3010
,  // measure 76
0000
0000
0100
0000
2002
3003
0000
0220
,  // measure 77
0330
0000
0010
0000
1100
0000
0001
0010
,  // measure 78
0000
0100
1000
0000
0001
1000
0000
0010
,  // measure 79
0100
0001
1000
0100
0010
0000
0001
0010
,  // measure 80
0000
0100
1000
0000
0010
1000
0000
0001
,  // measure 81
1000
0000
1001
0000
0011
0000
0001
0100
,  // measure 82
0000
0010
1000
0000
0100
1000
0000
0001
,  // measure 83
0010
0100
1000
0000
1002
0000
0000
0013
,  // measure 84
0000
0000
0001
1000
2002
3003
0000
0220
,  // measure 85
0330
0001
2002
0000
,  // measure 86
0000
0000
0000
3003
0000
0000
0001
0010
0100
1000
0100
0020
,  // measure 87
0000
0000
0000
0000
0000
0000
0000
0000
0000
0000
0030
0000
;

//---------------dance-single - ----------------
#NOTEDATA:;
#CHARTNAME:;
#STEPSTYPE:dance-single;
#DESCRIPTION:;
#CHARTSTYLE:;
#DIFFICULTY:Challenge;
#METER:16;
#RADARVALUES:0.816711,1.090032,0.910084,0.562597,0.546050,691.000000,581.000000,110.000000,68.000000,0.000000,0.000000,0.000000,0.000000,0.000000,0.816711,1.090032,0.910084,0.562597,0.546050,691.000000,581.000000,110.000000,68.000000,0.000000,0.000000,0.000000,0.000000,0.000000;
#CREDIT:Marten;
#NOTES:
// measure 0
0000
0000
0000
0000
,  // measure 1
0000
0000
0000
0000
,  // measure 2
0000
0000
0000
0000
,  // measure 3
0000
0000
0000
0000
,  // measure 4
0000
0000
0000
0000
,  // measure 5
0001
0100
1000
0100
0001
1000
0000
0000
,  // measure 6
1000
0010
0001
0010
1000
0001
0000
0000
,  // measure 7
0100
0010
0001
0010
0100
0001
0000
0000
,  // measure 8
1000
0100
0010
1000
0010
0100
0110
0000
,  // measure 9
0001
0100
0010
1000
0100
1000
0001
0010
,  // measure 10
1000
0010
0001
0100
0010
1000
0100
0000
,  // measure 11
1000
0100
0001
0100
1000
0001
0010
1000
,  // measure 12
0010
0100
0010
0001
0010
0100
1000
0000
,  // measure 13
0001
0010
1000
0010
0100
0001
0100
0010
,  // measure 14
1000
0001
0100
1000
0001
0100
0001
0000
,  // measure 15
0001
0010
1000
0001
0100
1000
0001
0000
,  // measure 16
0010
0000
0010
0000
0010
0000
0010
0000
0001
1000
0001
1000
0002
0000
0003
0000
,  // measure 17
1200
0000
0310
0012
0000
0103
0120
0000
,  // measure 18
1030
2100
0000
3001
0202
0000
0303
0000
,  // measure 19
1020
0000
0130
0210
0000
0301
0012
0000
,  // measure 20
1003
2100
0000
3010
0220
0000
0330
0000
,  // measure 21
0012
0000
0103
2010
0000
3100
1002
0000
,  // measure 22
0013
1200
0000
0310
2002
0000
3003
0000
,  // measure 23
0102
0000
0013
2100
0000
3010
1002
0000
,  // measure 24
0103
2010
0000
3100
0022
0000
0033
0000
,  // measure 25
1000
0010
1000
0000
0000
0000
0001
0100
0001
0000
0000
0000
1000
0100
1000
0000
,  // measure 26
0000
0000
0001
0010
0001
0000
0000
0000
0100
0010
0100
0000
0000
0000
0001
1000
,  // measure 27
0001
0000
0000
0000
1000
0100
0010
0000
0000
0000
0001
0100
0010
0000
0000
0000
,  // measure 28
1000
0000
0000
0010
0000
0000
0001
0000
0000
0000
0000
0000
0000
0000
0000
0000
0000
0000
1000
0000
0000
0100
0000
0000
0001
0000
0000
0000
0000
0000
0000
0000
0000
0000
0000
0000
0001
0000
0000
0000
0100
0000
0000
0000
0010
0000
0000
0000
,  // measure 29
2000
0000
0000
0000
0000
0000
0000
0000
0000
0000
0000
0000
3000
0000
0000
0000
0000
0000
0000
0000
0000
1000
0100
0010
,  // measure 30
0001
0000
0000
0000
0000
0000
0000
0000
0000
0000
0000
0000
0000
0000
0000
0000
0010
0000
0000
0000
0000
0000
0000
0000
0000
0000
0000
0000
0000
0000
0000
0000
0100
0000
0000
0000
0000
0000
0000
0000
0000
0000
0000
0000
0000
0000
0000
0000
2000
0000
0000
0000
0000
0000
0000
0000
0000
0000
0000
0000
0000
0000
0000
0000
0000
0000
0000
0000
0000
0000
0000
0000
0000
0000
0000
0000
0000
0000
0000
0000
0000
0000
0000
0000
0000
0000
0000
0000
0000
0000
0000
0000
0000
0000
0000
0000
0000
0000
0000
0000
0000
0000
0000
0000
0000
0000
0000
0000
0000
0000
0000
0000
0000
0000
0000
0000
0000
0000
0000
0000
0000
0000
0000
0000
0000
0000
0000
0000
0000
0000
0000
0000
0000
0000
0000
0000
0000
0000
0000
0000
0000
0000
0000
0000
3000
0000
0000
0000
0000
0000
0000
0000
0000
0000
0000
0000
0000
0000
0000
0000
0000
0000
0000
0000
0000
0000
0000
0000
0001
0000
0000
0000
0000
0000
1000
0000
0000
0000
0000
0000
0001
0000
0000
0000
0000
0000
0000
0000
0000
0000
0000
0000
,  // measure 31
0101
0000
0000
1010
0000
0000
2100
0000
0000
0000
0001
0000
3001
0000
0100
0000
,  // measure 32
0020
0000
0000
0000
1030
0000
0100
0000
0001
0000
0100
0010
0100
0000
0000
0000
,  // measure 33
1010
0000
0000
0101
0000
0000
0012
0000
0000
0000
1000
0000
1003
0000
0010
0000
,  // measure 34
0200
0000
0000
0000
0301
0000
1000
0100
1000
0000
0010
0000
0010
0000
1000
0000
,  // measure 35
1010
0000
0000
0100
0001
0000
0012
0000
0000
0000
0000
0000
2003
0000
0000
0000
,  // measure 36
3200
0000
0320
0000
0031
0100
1000
0100
,  // measure 37
0101
0000
1000
2020
3030
0001
0010
1000
,  // measure 38
1100
0000
0010
0012
0000
1000
0000
1003
,  // measure 39
1100
0000
0000
0101
0000
0000
0210
0000
0000
0000
0001
0000
0301
0000
0100
0000
,  // measure 40
0020
0000
0000
0000
1030
0000
0100
0000
0001
0000
0100
0010
0100
0000
0000
0000
,  // measure 41
0001
0100
0010
0100
0001
1000
0100
0010
0001
0010
0100
1000
0200
0000
0000
0000
,  // measure 42
0320
0000
0000
0000
0031
0000
1000
0001
1000
0000
0010
0000
0010
0000
0000
0000
,  // measure 43
0101
0000
0000
0010
1000
0000
2010
0000
0000
0000
0000
0000
3002
0000
0000
0000
,  // measure 44
0023
0000
0230
0000
1300
0100
0010
0001
,  // measure 45
0011
0000
0000
0000
1000
0000
2200
0000
0000
3300
0000
0000
1001
0000
0000
0000
,  // measure 46
0101
0000
1000
2010
0000
0001
0000
3001
,  // measure 47
0101
0000
0000
0110
0000
0000
1010
0000
0000
0000
0000
0000
1010
0000
0000
0110
,  // measure 48
0000
0000
0101
0000
0001
0100
0010
1000
0001
0100
0010
1000
0001
0000
1000
0000
,  // measure 49
1100
0000
0000
0110
0000
0000
0011
0000
0000
0000
0000
0000
0011
0000
0000
0110
,  // measure 50
0000
1100
2000
0000
3020
0000
0230
0300
,  // measure 51
0101
0000
0000
1001
0000
0000
1010
0000
0000
0000
0000
0000
1010
0000
0000
1001
,  // measure 52
0000
0101
0001
0000
0110
0000
1001
0000
,  // measure 53
1100
0000
0000
1001
0000
0000
0011
0000
0000
0000
0000
0000
0011
0000
0000
1001
,  // measure 54
0000
1100
1000
0000
0010
0100
1001
0000
,  // measure 55
1100
0000
0000
0101
0000
0000
1100
0000
0000
0001
0010
0100
1000
0001
0000
0001
,  // measure 56
1000
0000
1000
0100
0000
0000
0010
0001
1000
0010
0100
0001
1000
0001
0010
0000
,  // measure 57
0011
0000
0000
1010
0000
0000
0011
0000
0000
0000
0000
0000
1010
0000
0000
1010
,  // measure 58
0000
0000
0011
0000
0000
0110
0000
0000
1100
0000
0000
0101
0000
0000
1001
0000
,  // measure 59
0101
0000
0000
1010
0000
0000
0101
0000
0000
0000
0000
0000
1100
0000
0000
0011
,  // measure 60
0000
0000
0000
1100
0000
0000
1000
0000
0100
0000
0010
0000
0100
0000
0001
0000
0100
0000
0010
0000
1000
0000
0010
0000
,  // measure 61
0110
0000
0000
1001
0000
0000
0110
0000
0000
0000
0000
0000
1001
0000
0000
0110
,  // measure 62
0000
1001
0001
0000
1100
0000
0101
0000
,  // measure 63
0120
0000
0000
0001
0000
0000
1030
0000
0000
0100
0001
0010
,  // measure 64
2000
0000
0001
0000
3020
0000
0100
0030
,  // measure 65
0010
0000
1200
0000
0301
0100
1000
0000
,  // measure 66
0010
0000
0201
0000
1300
0100
0001
0000
,  // measure 67
0100
0000
1020
0000
0031
0010
1000
0000
,  // measure 68
1000
0010
0100
0001
1000
0100
0001
0100
,  // measure 69
1000
0000
0000
0000
0000
0000
0001
0000
0000
0000
0000
0000
1000
0000
0000
0000
0000
0000
0001
0000
0000
0000
0000
0000
1000
0000
0000
0000
0000
0000
0001
0000
0000
0000
0000
0000
1000
0000
0000
0000
0000
0000
0000
0000
0000
0000
0000
0000
0110
0000
0000
0000
0000
0000
0000
0000
0000
0000
0000
0000
0000
0000
0000
0000
0110
0000
0000
0000
0000
0000
0000
0000
0000
0000
0000
0000
0000
0000
0000
0000
0110
0000
0000
0000
0000
0000
0000
0000
0000
0000
0000
0000
0000
0000
0000
0000
0001
0000
0000
0000
0000
0000
0000
0000
0000
0000
0000
0000
0100
0000
0000
0000
0000
0000
0000
0000
0000
0000
0000
0000
0010
0000
0000
0000
0000
0000
0000
0000
0000
0000
0000
0000
0000
0000
0000
0000
0000
0000
0000
0000
0000
0000
0000
0000
1000
0000
0000
0000
0000
0000
0000
0000
0000
0000
0000
0000
0000
0000
0000
0000
0000
0000
0000
0000
0000
0000
0000
0000
0001
0000
0000
0000
0000
0000
0000
0000
0000
0000
0000
0000
0100
0000
0000
0000
0000
0000
0000
0000
0000
0000
0000
0000
,  // measure 70
0010
0000
1000
0000
0001
0100
0010
0000
1000
0000
0001
0100
0010
0000
1000
0000
,  // measure 71
0001
0100
0010
1000
0100
0000
0100
0000
1000
0100
0010
0000
0001
0000
1000
0100
,  // measure 72
0010
0000
0001
0000
1000
0100
0010
0000
0001
0000
1000
0100
0010
0000
0000
0001
,  // measure 73
0100
0010
1000
0010
0100
0000
0001
0000
0010
0100
1000
0000
0010
0000
0100
0001
,  // measure 74
0010
0000
0100
0000
1000
0010
0100
0000
0001
0000
0010
0100
1000
0000
0001
0000
,  // measure 75
0010
0100
1000
0001
0100
0010
1000
0001
0020
0000
0000
0000
0130
0000
2100
0000
,  // measure 76
0000
0000
3010
0000
0100
0001
1000
0010
0200
0000
0000
0000
0301
0000
0012
0000
,  // measure 77
0000
0000
1003
0000
1000
0000
1000
0000
0001
0100
0001
0000
0010
0000
0100
1000
,  // measure 78
0100
0000
0010
0000
0001
0100
0001
0000
0010
0000
0100
1000
0100
0000
0010
0000
,  // measure 79
0001
0010
1000
0010
0001
0000
1001
0000
1000
0010
1000
0000
0100
0000
0010
0001
,  // measure 80
0010
0000
0100
0000
1000
0010
1000
0000
0100
0000
0010
0001
0010
0000
0000
1000
,  // measure 81
0001
0100
1000
0100
0001
0000
1001
0000
0010
0100
0010
0000
0001
0000
0010
0100
,  // measure 82
0010
0000
1000
0000
0100
0010
0100
0000
0001
0000
0100
0010
0100
0000
1000
0000
,  // measure 83
0001
0100
0010
0100
0001
1000
0100
0010
0002
0000
0000
0000
1003
0000
2100
0000
,  // measure 84
0000
0000
3010
0000
0100
0000
0001
1000
0010
0000
0000
0000
1000
0001
0020
0000
,  // measure 85
0000
0130
2002
0000
,  // measure 86
0000
0000
0000
3003
0000
0000
0001
0010
1000
0001
0100
1000
,  // measure 87
0000
0020
0000
0000
0000
0000
0000
0000
0000
0000
0000
0000
0000
0000
0000
0000
0000
0000
0000
0000
0130
0000
0000
0000
;

//---------------dance-single - ----------------
#NOTEDATA:;
#CHARTNAME:;
#STEPSTYPE:dance-single;
#DESCRIPTION:;
#CHARTSTYLE:;
#DIFFICULTY:Hard;
#METER:13;
#RADARVALUES:0.654788,0.799357,0.678426,0.496409,0.322666,554.000000,472.000000,82.000000,60.000000,0.000000,0.000000,0.000000,0.000000,0.000000,0.654788,0.799357,0.678426,0.496409,0.322666,554.000000,472.000000,82.000000,60.000000,0.000000,0.000000,0.000000,0.000000,0.000000;
#CREDIT:Marten;
#NOTES:
// measure 0
0000
0000
0000
0000
,  // measure 1
0000
0000
0000
0000
,  // measure 2
0000
0000
0000
0000
,  // measure 3
0000
0000
0000
0000
,  // measure 4
0000
0000
0000
0000
,  // measure 5
0010
0100
1000
0010
0100
0001
0000
0000
,  // measure 6
0100
0001
0010
0100
1000
0010
0000
0000
,  // measure 7
1000
0010
0100
0001
0010
0100
0000
0000
,  // measure 8
1000
0100
0010
0001
0100
0010
0110
0000
,  // measure 9
1000
0100
0010
0001
0100
0010
0100
0001
,  // measure 10
0010
0100
1000
0010
1000
0100
0010
0000
,  // measure 11
0001
0100
0010
0100
0001
1000
0100
0010
,  // measure 12
0001
0010
0100
1000
0001
0100
0010
0000
,  // measure 13
1000
0010
0100
0001
0010
0100
1000
0001
,  // measure 14
0100
0010
1000
0100
0010
0001
1000
0000
,  // measure 15
0100
1000
0001
0100
0100
0001
1000
0000
,  // measure 16
0010
0000
0010
0000
0010
0000
0010
0000
0100
0010
0100
0000
0020
0000
0030
0000
,  // measure 17
2010
0000
3000
0102
0000
0003
2100
0000
,  // measure 18
3000
0012
0000
0003
0220
0000
0330
0000
,  // measure 19
1002
0000
0003
2010
0000
3000
0012
0000
,  // measure 20
0003
2100
0000
3000
0202
0000
0303
0000
,  // measure 21
1100
0000
0001
0101
0000
0010
0011
0000
,  // measure 22
1000
1010
0000
0100
0110
0000
1001
0000
,  // measure 23
0101
0000
1000
1100
0000
0001
0011
0000
,  // measure 24
1000
1010
0000
0010
0220
0000
0330
0000
,  // measure 25
0001
1000
0000
0000
0000
0000
1000
0010
0000
0000
0000
0000
0100
0001
0000
0000
,  // measure 26
0000
0000
0001
0010
0000
0000
0000
0000
0010
0100
0000
0000
0000
0000
0100
1000
,  // measure 27
0000
0000
0000
0000
0100
0001
0000
0000
0000
0000
0010
0100
0000
0000
0000
0000
,  // measure 28
1000
0000
0000
0010
0000
0000
0000
0000
0000
0000
0000
0000
0000
0000
0000
0000
0000
0000
0001
0000
0000
0010
0000
0000
0000
0000
0000
0000
0000
0000
0000
0000
0000
0000
0000
0000
0001
0000
0000
0000
1000
0000
0000
0000
0001
0000
0000
0000
,  // measure 29
2000
0000
3000
0000
,  // measure 30
0001
0000
0010
0000
0100
0000
2000
0000
0000
0000
0000
0000
0000
0000
0000
0000
0000
0000
3000
0000
0000
0001
0000
0000
,  // measure 31
0011
0000
0000
0110
0000
0000
2100
0000
0000
0000
0000
0000
3001
0000
0100
0000
,  // measure 32
0020
0000
0000
0000
1030
0000
0100
0000
0010
0000
0001
1000
0001
0000
0000
0000
,  // measure 33
1010
0000
0000
0110
0000
0000
0102
0000
0000
0000
0000
0000
1003
0000
0000
0000
,  // measure 34
0200
0000
0000
0000
0310
0000
0001
1000
0001
0000
0100
0000
0010
0000
0000
0000
,  // measure 35
2000
0000
3000
0010
0100
0000
0002
0000
0000
0000
0000
0000
2003
0000
0000
0000
,  // measure 36
3200
0000
0320
0000
0031
0010
0100
1000
,  // measure 37
1002
0000
0003
2000
0000
0000
3001
0000
,  // measure 38
0120
0000
0000
0230
0000
0010
0000
0310
,  // measure 39
0110
0000
0000
0101
0000
0000
1002
0000
0000
0000
0000
0000
1003
0000
0100
0000
,  // measure 40
0020
0000
0000
0000
0031
0000
0010
0000
0100
0000
1000
0001
1000
0000
0000
0000
,  // measure 41
1000
0010
0001
0010
1000
0001
2000
0000
,  // measure 42
3002
0000
0000
0000
0103
0000
0010
0100
0010
0000
1000
0000
1001
0000
0000
0000
,  // measure 43
0002
0000
0000
0013
0100
0000
2000
0000
0000
0000
0000
0000
3002
0000
0000
0000
,  // measure 44
0203
0000
0320
0000
1030
0010
0100
0001
,  // measure 45
2001
0000
0000
3002
0000
0000
1003
0000
,  // measure 46
0210
0000
0000
0320
0000
0100
0000
0130
,  // measure 47
0001
0000
0000
0001
0000
0000
0001
0000
0000
0000
0000
0000
1000
0000
0000
1000
,  // measure 48
0000
0000
1000
0000
0001
1000
0001
0000
0010
0000
0100
0000
1000
0000
0000
0000
,  // measure 49
0010
0000
0000
0010
0000
0000
0010
0000
0000
0000
0000
0000
0100
0000
0000
0100
,  // measure 50
0000
0100
0002
0000
2003
0000
3020
0000
,  // measure 51
0130
0000
0000
0100
0000
0000
0100
0000
0000
0000
0000
0000
0010
0000
0000
0010
,  // measure 52
0000
0010
0000
0000
1100
0000
0101
0000
,  // measure 53
0001
0000
0000
0001
0000
0000
0001
0000
0000
0000
0000
0000
1000
0000
0000
1000
,  // measure 54
0000
1000
0010
0100
0001
1000
0001
0000
,  // measure 55
1010
0000
0000
0110
0000
0000
0101
0000
0000
0001
1000
0000
1000
0010
0000
0010
,  // measure 56
0100
0000
0100
0001
0000
0000
0001
1000
0001
0000
1000
0000
0100
0000
0010
0000
,  // measure 57
0011
0000
0000
0110
0000
0000
1100
0000
0000
0000
0000
0000
1001
0000
0000
1001
,  // measure 58
0000
0000
2001
0000
0000
3020
0000
0000
0230
0000
0000
0302
0000
0000
1003
0000
,  // measure 59
1010
0000
0000
1001
0000
0000
0101
0000
0000
0000
0000
0000
0011
0000
0000
1001
,  // measure 60
0000
0000
0000
1100
0000
0000
1000
0000
0100
0000
1000
0000
0100
0000
0010
0000
0100
0000
0010
0000
0001
0000
0010
0000
,  // measure 61
0001
0000
0000
0110
0000
0000
1001
0000
0000
0000
0000
0000
1000
0000
0000
0110
,  // measure 62
0000
1001
0001
0000
0011
0000
1010
0000
,  // measure 63
0210
0000
0000
0001
0000
0000
0000
0000
0000
0301
0010
0100
,  // measure 64
2000
3100
0002
0103
,  // measure 65
1000
0000
1010
0000
0001
1000
0001
0000
,  // measure 66
0001
0000
0011
0000
1000
0001
1000
0000
,  // measure 67
0010
0000
0110
0000
0100
0010
0100
0000
,  // measure 68
0001
0010
0100
1000
0010
0100
0001
0000
,  // measure 69
2002
0000
0000
3003
0000
0000
0110
0000
0110
0000
0110
0000
0101
0000
0000
0000
0000
0000
0010
0000
0000
1010
0000
0000
,  // measure 70
0000
1000
1100
0000
0001
0011
0000
1000
,  // measure 71
0100
0010
0001
0100
0101
0000
0010
1010
,  // measure 72
0000
1000
1100
0000
0100
0110
0000
0001
,  // measure 73
0010
0100
1000
0010
1010
0000
0001
0011
,  // measure 74
0000
1000
1100
0000
0001
0101
0000
0010
,  // measure 75
1000
0000
0001
0000
0010
0000
0100
1000
0200
0000
0000
0000
0000
0000
0310
0000
,  // measure 76
0000
0000
0001
0000
0100
0000
0010
1000
0020
0000
0000
0000
0000
0000
0130
0000
,  // measure 77
0000
0000
0001
0000
0010
0000
0100
0000
1000
0010
1000
0000
0000
0000
0001
0010
,  // measure 78
0001
0000
0000
0000
1000
0010
1000
0000
0000
0000
0001
0010
0001
0000
0000
0000
,  // measure 79
1000
0000
0001
0000
0100
0000
0010
0000
1000
0100
1000
0000
0000
0000
0001
0100
,  // measure 80
0001
0000
0000
0000
1000
0100
1000
0000
0000
0000
0001
0100
0001
0000
0000
0000
,  // measure 81
1000
0000
0100
0000
0001
0000
0100
0000
1000
0001
1000
0000
0000
0000
0010
0100
,  // measure 82
0010
0000
0000
0000
1000
0001
1000
0000
0000
0000
0010
0100
0010
0000
1000
0000
,  // measure 83
0010
0001
0010
1000
1001
0000
0010
0110
,  // measure 84
0000
0000
1000
0000
0100
0000
0010
0100
0010
0000
0000
0000
0001
1000
0001
0000
,  // measure 85
0000
0010
0100
0000
2002
0000
0000
0000
,  // measure 86
0000
0000
0000
3003
0000
0000
0010
0100
0001
0010
0100
2000
,  // measure 87
0000
0000
0000
0000
0000
0000
0000
0000
0000
0000
3001
0000
;
