#VERSION:0.83;
#TITLE:aura;
#SUBTITLE:;
#ARTIST:Expander;
#TITLETRANSLIT:;
#SUBTITLETRANSLIT:;
#ARTISTTRANSLIT:;
#GENRE:;
#ORIGIN:;
#CREDIT:;
#BANNER:aura.png;
#BACKGROUND:aura-bg.png;
#PREVIEWVID:;
#JACKET:aura-jacket.png;
#CDIMAGE:;
#DISCIMAGE:;
#LYRICSPATH:;
#CDTITLE:;
#MUSIC:aura.ogg;
#OFFSET:-0.651805;
#SAMPLESTART:71.966003;
#SAMPLELENGTH:15.000000;
#SELECTABLE:YES;
#BPMS:0.000=175.000,
64.000=87.500,
124.000=175.000,
132.000=87.500,
139.000=175.000,
207.000=87.500;
#STOPS:139.000=0.343,
183.750=0.343;
#DELAYS:;
#WARPS:;
#TIMESIGNATURES:0.000=4=4;
#TICKCOUNTS:0.000=4;
#COMBOS:0.000=1;
#SPEEDS:0.000=1.000=0.000=0;
#SCROLLS:0.000=1.000;
#FAKES:;
#LABELS:0.000=Song Start;
#BGCHANGES:;
#KEYSOUNDS:;
#ATTACKS:
;

//---------------dance-single - ----------------
#NOTEDATA:;
#CHARTNAME:;
#STEPSTYPE:dance-single;
#DESCRIPTION:;
#CHARTSTYLE:;
#DIFFICULTY:Beginner;
#METER:3;
#RADARVALUES:0.108177,0.229908,0.018247,0.036493,0.000000,83.000000,81.000000,2.000000,4.000000,0.000000,0.000000,0.000000,0.000000,0.000000,0.108177,0.229908,0.018247,0.036493,0.000000,83.000000,81.000000,2.000000,4.000000,0.000000,0.000000,0.000000,0.000000,0.000000;
#CREDIT:Marten;
#NOTES:
// measure 0
0000
0000
0000
0000
,  // measure 1
0000
0000
0000
0000
,  // measure 2
0000
0000
0000
0000
,  // measure 3
0000
0000
0000
0000
,  // measure 4
1000
0000
0000
0000
,  // measure 5
0001
0000
0000
0000
,  // measure 6
1000
0000
0000
0000
,  // measure 7
0100
0000
0100
0000
,  // measure 8
0010
0000
0000
0000
,  // measure 9
1000
0000
0000
0000
,  // measure 10
0001
0000
0000
0000
,  // measure 11
0100
0000
0000
0000
,  // measure 12
0001
0000
0000
0000
,  // measure 13
1000
0000
0000
0000
,  // measure 14
0100
0000
0000
0000
,  // measure 15
0010
0000
0010
0000
,  // measure 16
0001
0000
0000
0000
,  // measure 17
1000
0000
0000
0000
,  // measure 18
0010
0020
0000
0030
,  // measure 19
0100
0000
0100
0000
,  // measure 20
0001
0001
1000
0000
,  // measure 21
1000
1000
0001
0000
,  // measure 22
0010
0020
0130
0000
,  // measure 23
0100
0000
0100
0000
,  // measure 24
1000
0000
0000
0000
,  // measure 25
0001
0000
0000
0000
,  // measure 26
1000
0000
0000
0000
,  // measure 27
0001
0000
0000
0000
,  // measure 28
1000
1000
0001
0001
,  // measure 29
0010
0010
0100
0000
,  // measure 30
1000
1001
0001
0000
,  // measure 31
1000
0000
0000
0000
,  // measure 32
0001
0000
0000
0000
,  // measure 33
0100
0000
0010
0000
,  // measure 34
1000
0000
0002
0003
,  // measure 35
1000
0000
0000
0000
,  // measure 36
0001
0000
0000
0000
,  // measure 37
0010
0000
0000
0000
,  // measure 38
0100
0000
0000
0000
,  // measure 39
1000
0000
0000
0000
,  // measure 40
0001
0000
0001
0000
,  // measure 41
0001
0000
0000
0000
,  // measure 42
1000
0000
1000
0000
,  // measure 43
1000
0000
0000
0000
,  // measure 44
0010
0000
0000
0000
,  // measure 45
0100
0000
0000
0000
,  // measure 46
0000
0001
0000
0001
,  // measure 47
0000
0000
0000
1000
,  // measure 48
0000
0000
0000
0100
,  // measure 49
0000
0000
0000
0010
,  // measure 50
0000
0000
0000
0200
,  // measure 51
0000
0000
0000
0310
,  // measure 52
0000
0001
0000
0100
,  // measure 53
0100
0100
0000
0001
,  // measure 54
0000
1000
0000
0100
,  // measure 55
0000
0010
0000
0100
,  // measure 56
0110
0000
0000
0000
;

//---------------dance-single - ----------------
#NOTEDATA:;
#CHARTNAME:;
#STEPSTYPE:dance-single;
#DESCRIPTION:;
#CHARTSTYLE:;
#DIFFICULTY:Hard;
#METER:16;
#RADARVALUES:0.755934,1.047359,0.428797,0.565647,0.834785,580.000000,533.000000,47.000000,62.000000,0.000000,0.000000,0.000000,0.000000,0.000000,0.755934,1.047359,0.428797,0.565647,0.834785,580.000000,533.000000,47.000000,62.000000,0.000000,0.000000,0.000000,0.000000,0.000000;
#CREDIT:Marten;
#NOTES:
// measure 0
0000
0000
0000
0000
,  // measure 1
0000
0000
0000
0000
,  // measure 2
0000
0000
0000
0000
,  // measure 3
0000
0000
0000
0000
,  // measure 4
0101
0000
0001
0100
0020
0000
1030
0000
,  // measure 5
1100
0000
0001
0101
0000
0010
0100
0110
,  // measure 6
0000
0000
0010
0000
1000
0000
0100
0000
0001
0000
0100
0000
1000
0000
0001
1000
,  // measure 7
0100
0000
1000
0001
0100
0001
1000
0000
,  // measure 8
1100
0000
0001
0010
1000
0010
0001
0100
,  // measure 9
0010
1000
0100
0001
0000
0100
1000
0010
,  // measure 10
0110
0000
0100
0001
1000
0100
1000
1010
,  // measure 11
0000
0000
0110
0000
0001
0100
0010
1000
,  // measure 12
0002
0000
1000
0000
0103
0000
0010
1000
,  // measure 13
1100
0000
0001
0101
0000
0010
0100
0110
,  // measure 14
0000
0000
0010
0000
0100
0000
0001
0000
0010
0000
0100
0000
1000
0000
0001
0100
,  // measure 15
0010
0000
1000
0100
0001
0100
1000
0000
,  // measure 16
1001
0000
0000
0000
0001
0000
0000
0000
0102
0000
0000
0000
0000
0000
0000
0000
1003
0000
0100
0000
1000
0000
0000
0000
0010
0000
0100
0000
0001
0100
0001
0100
,  // measure 17
0020
0000
0000
0000
1030
0000
0001
0000
0011
0000
0010
0000
0100
0000
1100
0000
0000
0000
1000
0010
0100
0000
0001
0010
0100
0000
1000
0000
0002
0000
0000
0000
,  // measure 18
1003
0000
0000
0000
0020
0000
0000
0000
0130
0010
0100
0010
0100
0010
0100
0010
2000
0000
0000
0000
3200
0000
0000
0000
0320
0000
0000
0000
0032
0000
0000
0000
,  // measure 19
1003
0000
0000
0000
0000
0000
0000
0000
0000
0000
0000
0000
0000
0000
0000
0000
0010
0000
0000
0000
0000
0000
0000
0000
0000
0000
0000
0000
0000
0000
0000
0000
0010
0000
0000
0000
0000
0000
0000
0000
0000
0000
0000
0000
0000
0000
0000
0000
0110
0000
0000
0000
0000
0000
0000
0000
0000
0000
0000
0000
0000
0000
0000
0000
0000
0000
0000
0000
0000
0000
0000
0000
0101
0000
0000
0000
0000
0000
0000
0000
0000
0000
0000
0000
0000
0000
0000
0000
0000
0000
0000
0000
0000
0000
0000
0000
0001
0000
0000
0000
0000
0000
0000
0000
0000
0000
0000
0000
0000
0000
0000
0000
0000
0000
1000
0000
0000
0000
0000
0000
0100
0000
0000
0000
0000
0000
0000
0000
0000
0000
0000
0000
0000
0000
0000
0000
0000
0000
0010
0000
0000
0000
0000
0000
0001
0000
0000
0000
0000
0000
0000
0000
1000
0000
0000
0000
0000
0000
0000
0000
0010
0000
0000
0000
0000
0000
0000
0000
0100
0000
0000
0000
0000
0000
0000
0000
0000
0000
0000
0000
0000
0000
0000
0000
0000
0000
0000
0000
0000
0000
0000
0000
,  // measure 20
1001
0000
0000
0000
1000
0000
0000
0000
2100
0000
0000
0000
0000
0000
0000
0000
3001
0000
0100
0000
0010
0000
0100
0000
0001
0000
0010
0000
0100
1000
0001
1000
,  // measure 21
0020
0000
0000
0000
0130
0000
0010
0000
1010
0000
0010
0000
0100
0000
0102
0000
0000
0000
1003
0000
0100
0000
0000
0000
0010
0000
0001
0000
1000
0010
1000
0000
,  // measure 22
1100
0000
0000
0000
1100
0000
0000
0000
0010
0100
0010
0100
0010
0100
0010
0100
0002
0000
0000
0000
0203
0000
0000
0000
0320
0000
0000
0000
2030
0000
0000
0000
,  // measure 23
3001
0000
0000
0000
0000
0000
0000
0000
0000
0000
0000
0000
0010
0000
0000
0000
0000
0000
0000
0000
0000
0000
0000
0000
0100
0000
0000
0000
0000
0000
0000
0000
0000
0000
0000
0000
1000
0000
0000
0000
0000
0000
0000
0000
0000
0000
0000
0000
0001
0000
0000
0000
0000
0000
0000
0000
0000
0000
0000
0000
0100
0000
0000
0000
0000
0000
0000
0000
0000
0000
0000
0000
0010
0000
0000
0000
0000
0000
0000
0000
0000
0000
0000
0000
1000
0000
0000
0000
0000
0000
0000
0000
0000
0000
0000
0000
0001
0000
0000
0000
0000
0000
0010
0000
0000
0000
0000
0000
0100
0000
0000
0000
0000
0000
1000
0000
0000
0000
0000
0000
0001
0000
0000
0000
0000
0000
0010
0000
0000
0000
0000
0000
0100
0000
0000
0000
0000
0000
1000
0000
0000
0000
0000
0000
0001
0000
0000
0000
0000
0000
0000
0000
0100
0000
0000
0000
0000
0000
0000
0000
0010
0000
0000
0000
0000
0000
0000
0000
1000
0000
0000
0000
0000
0000
0000
0000
0001
0000
0000
0000
0000
0000
0000
0000
0100
0000
0000
0000
0000
0000
0000
0000
,  // measure 24
0010
0000
1000
0010
2000
0000
0000
0000
3100
0000
0000
0000
1000
0000
0010
0000
0100
0000
0100
0000
0001
0000
0000
0000
0001
0000
0010
0000
1000
0000
0010
0000
,  // measure 25
0001
0000
0000
0000
1000
0100
1000
0000
0010
0000
0100
0001
0010
0000
0100
1000
0010
1000
0010
1000
0010
0100
0001
0100
0001
0100
0001
1000
0100
0010
0001
2000
,  // measure 26
0000
0000
0000
0000
3010
0000
0000
0000
1001
0000
0000
0000
0000
0000
0101
0000
0000
0000
1000
0100
1000
0000
0001
0000
1000
0000
0010
0000
0000
0000
0010
0000
,  // measure 27
0100
0000
0001
0000
1000
0100
1000
0100
1000
0000
0002
0000
0103
0000
0100
0000
0010
1000
0010
1000
0001
0010
0001
0010
0100
1000
0001
1000
0001
0000
0000
0000
,  // measure 28
2000
0000
0000
0000
3010
1000
0010
1000
0002
0000
0000
0000
0013
0001
0010
0001
2000
0000
0000
0000
3001
0000
0100
0000
0010
0000
0010
0000
0100
0000
0001
0000
,  // measure 29
0020
0000
0130
1000
0002
0000
0103
0000
0002
0023
2030
3020
0032
0203
2300
3200
,  // measure 30
0301
0000
0000
0000
0000
0000
0000
0000
0000
0000
0000
0000
0000
0000
0000
0000
0010
0000
0000
0000
0000
0000
0000
0000
0000
0000
0000
0000
0000
0000
0000
0000
0100
0000
0000
0000
0000
0000
0000
0000
1000
0000
0000
0000
0000
0000
0000
0000
0001
0000
0000
0000
0000
0000
0000
0000
0100
0000
0000
0000
0000
0000
0000
0000
0010
0000
0000
0000
0000
0000
0000
0000
1000
0000
0000
0000
0000
0000
0000
0000
0000
0000
0000
0000
0000
0000
0000
0000
0000
0000
0000
0000
0000
0000
0000
0000
0100
0000
0000
0000
0000
0000
0000
0000
0000
0000
0000
0000
0010
0000
0000
0000
0000
0000
0001
0000
0000
0000
0000
0000
0010
0000
0000
0000
0000
0000
0000
0000
0000
0000
0000
0000
0100
0000
0000
0000
0000
0000
0000
0000
0000
0000
0000
0000
1000
0000
0000
0000
0000
0000
0000
0000
0000
0000
0000
0000
0010
0000
0000
0000
0000
0000
0000
0000
0000
0000
0000
0000
0100
0000
0000
0000
0000
0000
0000
0000
0000
0000
0000
0000
0001
0000
0000
0000
0000
0000
0000
0000
0000
0000
0000
0000
,  // measure 31
0020
0000
0000
0000
0130
1000
0100
1000
0002
0000
0000
0000
0103
0010
0100
0010
,  // measure 32
1000
0100
0001
0100
1000
0001
0100
1000
,  // measure 33
0100
0000
0001
0000
0010
0100
0000
1000
0100
0000
0010
0000
0001
0100
0000
0010
1000
0000
1000
0000
0001
0100
0001
0100
0010
0000
0010
0000
1000
0100
1000
0100
,  // measure 34
0020
0032
0023
2030
3002
0203
2300
3002
0103
0000
0110
0000
1001
0000
0000
0000
,  // measure 35
0102
0000
1003
0010
1000
0100
0001
0100
,  // measure 36
1000
0010
0100
0002
0000
1003
0100
1000
,  // measure 37
2001
0000
3001
0010
0100
0010
0001
0101
,  // measure 38
0000
0010
0100
0000
0001
0100
0010
1000
,  // measure 39
0001
1000
0010
0100
0000
0100
0001
0010
,  // measure 40
0110
0000
1000
1100
0000
0001
1000
1001
,  // measure 41
0000
0000
0001
0000
0010
0000
1000
0000
0010
0000
0001
0000
1000
0000
0010
0100
,  // measure 42
0002
0000
1003
0100
0000
1000
0010
0000
,  // measure 43
0210
0000
0310
1000
0100
1000
0001
0010
,  // measure 44
1000
0010
0001
2000
0000
3100
1000
0001
,  // measure 45
0101
0000
0000
0000
0010
0000
1000
0000
0001
0000
0010
0000
0100
0000
2002
3003
,  // measure 46
0110
0000
0001
0010
0100
1000
0100
0010
,  // measure 47
0001
2000
0000
3010
0100
0001
0101
0000
,  // measure 48
0010
0110
0000
1000
0001
1001
0000
0001
,  // measure 49
0100
0000
0001
0000
0010
0000
1000
0000
0010
0000
0001
0100
0020
0000
0000
0000
,  // measure 50
1030
0100
0001
0100
2000
0000
0000
0000
,  // measure 51
0000
3000
1001
0200
,  // measure 52
0301
0000
0010
0000
0100
1000
0100
1000
0001
0000
1000
0000
1010
0000
0000
0000
0110
0000
0000
0000
0101
0000
0000
0000
0002
0000
0000
0000
1003
0000
0010
0000
,  // measure 53
1010
0000
0010
0000
0100
0000
0101
0000
0000
0000
1000
0010
0100
0000
0001
0010
0100
0000
1000
0000
1001
0000
0000
0000
0001
0000
0000
0000
0010
0000
0000
0000
,  // measure 54
0200
0000
0000
0000
1300
0001
1000
0001
0200
0000
0000
0000
0320
0000
0000
0000
2030
0000
0000
0000
3002
0000
0000
0000
1003
0000
0100
0000
0010
0000
0001
0000
,  // measure 55
1000
0000
0000
0000
0000
0000
0000
0000
0000
0000
0000
0000
0010
0000
0000
0000
0000
0000
0000
0000
0000
0000
0000
0000
0100
0000
0000
0000
0000
0000
0000
0000
0000
0000
0000
0000
0001
0000
0000
0000
0000
0000
0000
0000
0000
0000
0000
0000
1000
0000
0000
0000
0000
0000
0100
0000
0000
0000
0000
0000
0010
0000
0000
0000
0000
0000
0001
0000
0000
0000
0000
0000
1000
0000
0000
0000
0000
0000
0100
0000
0000
0000
0000
0000
0010
0000
0000
0000
0000
0000
0001
0000
0000
0000
0000
0000
1000
0000
0000
0000
0000
0000
0000
0000
0010
0000
0000
0000
0000
0000
0000
0000
0100
0000
0000
0000
0000
0000
0000
0000
0001
0000
0000
0000
0000
0000
0000
0000
1000
0000
0000
0000
0000
0000
0000
0000
0010
0000
0000
0000
0000
0000
0000
0000
0200
0000
0000
0000
0000
0000
0000
0000
0000
0000
0000
0000
0000
0000
0000
0000
0000
0000
0000
0000
0000
0000
0000
0000
0000
0000
0000
0000
0000
0000
0000
0000
0000
0000
0000
0000
0000
0000
0000
0000
0000
0000
0000
0000
0000
0000
0000
0000
,  // measure 56
0310
0000
0000
0000
;

//---------------dance-single - ----------------
#NOTEDATA:;
#CHARTNAME:;
#STEPSTYPE:dance-single;
#DESCRIPTION:;
#CHARTSTYLE:;
#DIFFICULTY:Easy;
#METER:7;
#RADARVALUES:0.319317,0.408726,0.173343,0.410550,0.009123,245.000000,226.000000,19.000000,45.000000,0.000000,0.000000,0.000000,0.000000,0.000000,0.319317,0.408726,0.173343,0.410550,0.009123,245.000000,226.000000,19.000000,45.000000,0.000000,0.000000,0.000000,0.000000,0.000000;
#CREDIT:Marten;
#NOTES:
// measure 0
0000
0000
0000
0000
,  // measure 1
0000
0000
0000
0000
,  // measure 2
0000
0000
0000
0000
,  // measure 3
0000
0000
0000
0000
,  // measure 4
0002
0000
1003
0100
,  // measure 5
1000
0000
0000
0001
0000
0000
1001
0000
,  // measure 6
0000
1000
0001
1000
,  // measure 7
0020
0000
0000
0230
0000
0000
0310
0000
,  // measure 8
1010
1000
0001
1000
,  // measure 9
0100
0000
0000
1000
0000
0000
0100
0000
,  // measure 10
0020
0000
0031
0000
0100
0000
0000
0110
,  // measure 11
0000
0001
1000
0100
,  // measure 12
2000
0100
3100
1000
,  // measure 13
0001
0000
0000
1000
0000
0000
1001
0000
,  // measure 14
0000
0001
1000
0010
,  // measure 15
0200
0000
0000
0320
0000
0000
0130
0000
,  // measure 16
0002
0000
0203
0000
0310
1000
0010
1000
,  // measure 17
0001
0000
0000
0000
1000
0000
0000
1001
0000
0000
0100
0000
0100
0000
0000
0000
,  // measure 18
0002
0000
2003
0000
3001
0010
0100
1000
,  // measure 19
0001
0001
2000
0000
3100
0000
0110
0000
,  // measure 20
0020
0000
0032
0000
1003
1000
0001
0001
,  // measure 21
0100
0000
0000
0000
0010
0000
0000
0110
0000
0000
1000
0000
1000
0000
0000
0000
,  // measure 22
0001
1000
1001
0000
0002
1003
2000
3001
,  // measure 23
0001
0100
0010
1000
0002
0000
2003
0000
,  // measure 24
3100
0000
0110
0000
0010
0001
0010
0001
,  // measure 25
0010
0000
0100
0000
1000
0100
1000
0000
,  // measure 26
0001
0000
0101
0000
0001
0100
0001
1000
,  // measure 27
0001
0000
1001
0000
1000
0010
0200
0000
,  // measure 28
0302
0000
2003
0000
3200
0000
0310
0010
,  // measure 29
0002
0000
2003
0000
3010
0100
0001
1000
,  // measure 30
0002
0000
0003
1001
1000
0001
1000
0000
,  // measure 31
0001
0100
0001
1000
,  // measure 32
0100
0100
0010
0010
,  // measure 33
0002
0000
0023
0000
0130
1000
0100
1000
,  // measure 34
0001
0000
1000
0000
0010
0100
0110
0000
,  // measure 35
0001
0101
1000
1100
,  // measure 36
0001
0100
0010
1000
,  // measure 37
0010
1000
0100
1000
,  // measure 38
0002
0000
1003
0100
,  // measure 39
1000
0001
0020
0000
,  // measure 40
0230
0000
0000
0320
0000
0000
0130
0000
,  // measure 41
0010
0001
1000
0200
,  // measure 42
2300
0000
0000
3002
0000
0000
1003
0000
,  // measure 43
0001
0011
1000
1010
,  // measure 44
0001
0100
0010
1000
,  // measure 45
0100
0000
1000
0000
0001
0000
0000
0110
,  // measure 46
1001
0001
1000
0010
,  // measure 47
1000
0100
1000
0002
,  // measure 48
0000
0023
0000
0000
0031
0000
1000
0000
,  // measure 49
0001
1000
0010
0200
,  // measure 50
0000
0302
0000
0000
0203
0000
0000
0000
,  // measure 51
0000
0000
0300
0002
,  // measure 52
2003
0000
3100
1000
0001
1000
0010
0000
,  // measure 53
0100
0000
0001
1000
0001
1000
0100
0100
,  // measure 54
0020
0000
0031
0010
0100
1000
0002
0000
,  // measure 55
2003
0000
3001
1000
0001
1000
0020
0000
,  // measure 56
0130
0000
0000
0000
;

//---------------dance-single - ----------------
#NOTEDATA:;
#CHARTNAME:;
#STEPSTYPE:dance-single;
#DESCRIPTION:;
#CHARTSTYLE:;
#DIFFICULTY:Medium;
#METER:12;
#RADARVALUES:0.514817,0.638634,0.100357,0.419674,0.241768,395.000000,384.000000,11.000000,46.000000,0.000000,0.000000,0.000000,0.000000,0.000000,0.514817,0.638634,0.100357,0.419674,0.241768,395.000000,384.000000,11.000000,46.000000,0.000000,0.000000,0.000000,0.000000,0.000000;
#CREDIT:Marten;
#NOTES:
// measure 0
0000
0000
0000
0000
,  // measure 1
0000
0000
0000
0000
,  // measure 2
0000
0000
0000
0000
,  // measure 3
0000
0000
0000
0000
,  // measure 4
2000
0000
0001
0000
3001
0100
0001
0000
,  // measure 5
0010
0000
0010
0100
0000
0100
1000
0001
,  // measure 6
0000
0100
0001
1000
0100
1000
0001
1000
,  // measure 7
0010
0000
0100
0001
1000
0001
0100
0000
,  // measure 8
0110
0000
0010
1000
0100
1000
0001
0000
,  // measure 9
1000
0000
0100
1000
0000
0001
0100
0010
,  // measure 10
1000
0000
1000
0010
0100
0001
0010
0200
,  // measure 11
0000
0000
0310
0000
0001
0100
0001
1000
,  // measure 12
0002
0000
0010
0000
0103
0000
0010
1000
,  // measure 13
0100
0000
0010
0001
0000
0100
0001
0100
,  // measure 14
0000
0010
1000
0000
0100
1000
0001
0000
,  // measure 15
1000
0000
0001
0000
0010
0100
0010
0000
,  // measure 16
0200
0000
0000
0000
2300
0000
0000
0000
3001
0100
0001
0100
0010
1000
0100
0000
,  // measure 17
2000
0000
3100
0100
0010
0001
0010
0100
0000
1000
0100
1000
0001
0000
1001
0000
,  // measure 18
0010
0010
0220
0030
0302
0203
0320
2030
,  // measure 19
3001
0000
1000
0000
0001
0000
0100
0000
0000
0100
0000
0000
0010
0000
0000
1000
0000
0000
0001
1000
0001
1000
0000
0000
,  // measure 20
0100
0100
0210
0000
0310
0001
1000
0001
,  // measure 21
0100
0000
0010
0000
1000
0000
0010
0000
0100
0001
0100
0000
0010
1000
0010
0000
,  // measure 22
1000
0100
0020
0000
0032
0023
0230
2300
,  // measure 23
3001
0000
0000
0100
0000
0000
0001
0000
0000
0000
0000
0000
1000
0000
0000
0010
0000
0000
1000
0000
0000
0000
0000
0000
0100
0000
0000
0000
0000
0000
0010
0000
0000
0000
0000
0000
0001
0000
1000
0000
0001
0000
1000
0000
0000
0000
0000
0000
,  // measure 24
0100
0000
0100
0000
0020
0000
0030
0001
0100
0000
0010
0000
1000
0100
1000
0000
,  // measure 25
0001
0000
0100
0000
0010
0000
1000
0000
0001
0010
0001
0000
1000
0010
1000
0000
,  // measure 26
0100
0100
0110
0000
0010
0001
1000
0001
,  // measure 27
1000
0000
0010
0000
1000
0100
1000
0000
0001
0100
0010
1000
0001
1000
0001
0000
,  // measure 28
2000
3100
0020
0031
0200
0310
2000
3010
,  // measure 29
0200
0000
0310
0000
2000
0000
3100
0000
0010
0001
0010
0100
0010
0001
0100
0000
,  // measure 30
0010
0000
0100
0000
0010
0000
0100
0000
0000
0110
0000
0000
0001
0000
0000
1000
0000
0000
1001
0000
0000
0000
0000
0000
,  // measure 31
0001
0101
1000
1100
,  // measure 32
0001
0100
0001
0100
0010
1000
0010
1000
,  // measure 33
0100
1000
0000
0001
1000
0001
0000
0100
0001
0000
0010
0000
0100
0000
1000
0000
,  // measure 34
0001
1000
0001
1000
0010
0100
0010
0100
0002
0000
1003
0000
1001
0000
0000
0000
,  // measure 35
2000
0000
3100
0010
0001
0010
0100
0000
,  // measure 36
2000
0000
3010
0200
0000
0301
0100
0010
,  // measure 37
2000
0000
3100
1000
0001
0010
0100
2000
,  // measure 38
0000
0000
3100
0000
0010
0001
1000
0010
,  // measure 39
0100
0000
0010
0100
0000
0001
0100
0010
,  // measure 40
1000
0000
0100
1000
0000
0001
0100
0001
,  // measure 41
0000
1000
0010
0000
0100
0001
0010
0100
,  // measure 42
1000
0000
0001
0100
0000
0001
1000
0000
,  // measure 43
0020
0000
1030
0100
1000
0001
1000
0000
,  // measure 44
0020
0000
0130
0001
0000
0100
0010
1000
,  // measure 45
0200
0000
1300
0001
1000
0001
0010
0100
,  // measure 46
0010
0000
0001
0100
0001
0100
0010
1000
,  // measure 47
0010
1000
0000
0100
1000
0001
1000
0000
,  // measure 48
0010
1000
0000
0100
1000
0001
0000
0100
,  // measure 49
0001
0100
0010
1000
0010
1000
0100
0000
,  // measure 50
1000
0100
1000
0001
2000
0000
0000
0000
,  // measure 51
0000
0000
3001
2000
,  // measure 52
3002
0000
0000
0000
0103
0010
0100
0010
1000
0010
1000
0000
0200
0000
2300
0000
,  // measure 53
3001
0010
0100
1000
0000
0001
0100
0001
1000
0001
1000
0000
0010
0000
0010
0000
,  // measure 54
0220
0000
0300
0000
2030
0000
3020
0000
0230
0000
0302
0000
1003
0100
1000
0100
,  // measure 55
0010
0000
0000
0001
0000
0000
0010
0000
0000
0001
0000
0000
0100
0000
0000
0000
0000
0000
0010
0000
0000
0000
0000
0000
1000
0000
0001
0000
1000
0000
0001
0000
0000
0000
0000
0000
0200
0000
0000
0000
0000
0000
0000
0000
0000
0000
0000
0000
,  // measure 56
0310
0000
0000
0000
;
