#TITLE:While Shining feat. Yukacco;
#SUBTITLE:;
#ARTIST:aran & Kobaryo;
#TITLETRANSLIT:;
#SUBTITLETRANSLIT:;
#ARTISTTRANSLIT:;
#GENRE:;
#CREDIT:;
#MUSIC:While Shining feat Yukacco.ogg;
#BANNER:While Shining feat Yukacco.png;
#BACKGROUND:While Shining feat Yukacco-bg.png;
#CDTITLE:;
#SAMPLESTART:89.239;
#SAMPLELENGTH:15.000;
#SELECTABLE:YES;
#OFFSET:-0.096;
#BPMS:0.000=175.000
,139.000=87.500
,139.250=175.000
,139.500=350.000
,140.000=175.000
,155.000=350.000
,156.000=175.000
,160.000=350.000
,161.500=175.000
,356.000=87.500
,356.250=175.000
,356.500=350.000
,357.000=175.000
;
#STOPS:155.000=0.043
,155.250=0.043
,155.500=0.043
,155.750=0.043
,160.000=0.086
,160.500=0.086
,161.000=0.086
;
#DISPLAYBPM:175.000;
#BGCHANGES:;
#FGCHANGES:;

//--------------- dance-single - Marten ----------------
#NOTES:
     dance-single:
     Marten:
     Beginner:
     4:
     0,0,0,0,0:
0000
0000
0000
0000
,
0000
0000
0000
0000
,
0000
0000
0000
0000
,
0000
0000
0000
0000
,
0000
0000
0000
0000
,
2000
0000
0000
0000
,
0000
0000
0000
3000
,
0002
0000
0000
0003
,
0000
0000
0100
0000
,
0001
0000
0010
0000
,
0000
0000
0001
0000
,
0000
0000
0100
0000
,
0000
0000
1000
0000
,
0000
0000
0010
0000
,
0000
0000
1000
0000
,
0000
0000
0100
0000
,
0000
0000
0001
0000
,
0001
0000
0010
0000
,
1000
0000
0010
0000
,
0001
0000
0010
0000
,
1000
0000
0010
0000
,
0001
0000
0100
0000
,
1000
0000
0100
0000
,
0001
0000
0100
0000
,
1000
0000
0100
0000
,
0001
0000
0001
0000
,
1000
0000
1000
0000
,
0010
0000
0010
0000
,
0100
0000
0100
0000
,
0001
0001
0001
0000
,
1000
1000
1000
0000
,
0100
0100
0100
0100
,
0000
0000
0000
0000
,
1001
0000
1000
0000
,
0100
0000
0100
0100
,
0000
0000
0001
0000
,
0100
0000
1000
1000
,
1000
0000
0001
0000
,
0010
0000
0010
0000
,
0001
0000
1000
0000
,
0020
0000
0000
0030
,
1001
0000
0001
0000
,
0100
0000
0100
0000
,
1000
0000
1000
0000
,
0010
0000
0010
0010
,
0010
0000
1000
0000
,
0001
0000
1000
0000
,
1001
0000
1001
0000
,
0000
0100
0100
0000
,
2000
0000
0000
3000
,
0020
0000
0000
0030
,
0100
0000
0100
0000
,
0001
0000
0001
0000
,
0002
0000
0000
0003
,
0020
0000
0000
0030
,
0100
0000
0100
0000
,
0000
1000
1000
0000
,
1000
0000
1000
0000
,
0001
0000
0001
0000
,
0010
0000
0010
0000
,
0100
0000
0100
0000
,
1000
1000
1000
0000
,
0001
0001
0001
0000
,
0100
0100
0100
0100
,
0000
0000
0000
0000
,
0001
0000
0010
0000
,
1000
0000
0010
0000
,
0001
0001
0001
0000
,
1000
1000
1000
0000
,
0001
0000
0100
0000
,
1000
0000
0100
0000
,
0001
0001
0001
0000
,
1000
1000
1000
0000
,
1000
0000
0010
0000
,
0001
0000
0010
0000
,
1000
1000
1000
0000
,
0001
0001
0001
0000
,
1000
0000
0100
0000
,
0001
0000
0100
0000
,
1000
1000
1000
0000
,
0000
0000
0010
0010
,
2000
3000
0020
0030
,
0200
0300
0002
0000
,
0000
0003
2000
0000
,
0000
0000
0000
3000
,
0001
0000
0001
0000
,
0010
0000
0010
0000
,
1000
0000
1000
0000
,
0000
0001
0001
0000
,
0200
0300
0020
0030
,
2000
3000
0002
0000
,
0000
0003
2000
0000
,
0000
0000
0000
3000
,
1001
0000
1001
0000
,
0110
0000
0110
0000
,
1001
0000
0000
0000
,
0000
0100
0100
0000
,
1001
0000
0000
0000
;

//--------------- dance-single - Marten ----------------
#NOTES:
     dance-single:
     Marten:
     Easy:
     8:
     0,0,0,0,0:
0000
0000
0000
0000
,
0000
0000
0000
0000
,
0000
0000
0000
0000
,
0000
0000
0000
0000
,
0000
0000
0000
0000
,
2000
0000
0000
0000
,
0010
0000
0001
0000
,
3002
0000
0000
0003
,
0000
0100
0100
0000
0100
0000
0100
0000
,
0000
0002
0023
0000
,
0230
0000
0300
0000
1000
0000
0000
2000
,
0000
0000
3000
0000
0001
0000
0000
0002
,
0000
0000
1003
0000
0001
0000
0100
0200
,
0000
0000
0000
0000
0301
0000
0010
0020
,
0000
0000
0130
1000
,
2002
0000
0000
3003
,
0000
0001
0001
0000
1000
0000
0001
0000
,
0100
0000
1010
0000
,
1000
0100
0011
0000
,
0100
0000
1001
0000
,
0010
0100
1001
0000
,
0010
0000
0101
0000
,
0001
0010
1100
0000
,
0010
0000
1001
0000
,
0000
1000
1000
0000
0001
0000
1000
0000
,
0100
0100
1000
1000
,
0001
0001
0010
0010
,
0001
0100
0010
1000
,
0001
0010
0100
1000
,
0001
0100
1000
0100
,
0001
1000
0100
0001
,
0100
1000
0001
1000
,
0000
0000
0000
0000
,
2001
3020
0230
0302
,
0013
0000
0110
0000
1000
1000
0000
0000
,
1002
0203
0320
2030
,
3001
0021
0230
1300
,
0002
0023
0230
2300
,
3010
0000
0110
0000
0001
0001
0000
0000
,
2001
3200
0320
0032
,
0203
0000
0310
0000
,
2000
3000
1002
0000
0203
0000
0320
0000
,
1030
0000
1100
0000
0101
0000
0100
0100
,
0002
0010
1000
0103
,
0101
1100
1000
0001
,
0002
2003
3200
0320
,
0031
0101
1100
1001
,
1010
0000
0011
0000
,
0000
1000
1000
0000
0001
0000
1000
0000
,
0100
0000
0100
0000
1000
0000
1000
0001
,
0000
0100
0100
0000
,
0002
0023
0230
2300
,
3002
0203
0320
0130
,
0100
0000
0100
0000
0001
0000
0001
1000
,
0000
0100
0100
0000
,
2000
3020
0230
0302
,
0003
0100
0100
0000
0010
0000
0010
0000
,
0100
0100
0001
0001
,
1000
1000
0010
0010
,
1000
0100
0010
0001
,
1000
0010
0100
0001
,
1000
0100
0001
0100
,
1000
0001
0100
1000
,
0100
0001
1000
0001
,
0000
0000
0000
0000
,
0011
0011
0110
0110
,
0100
1000
0001
1000
,
0020
1000
0100
1030
,
2000
0010
0001
3010
,
1010
1010
0110
0110
,
0100
0001
1000
0001
,
0020
0001
0100
0031
,
0002
0010
1000
0013
,
0101
0101
0110
0110
,
0010
1000
0001
1000
,
0200
1000
0010
1300
,
2000
0100
0001
3100
,
1100
1100
0110
0110
,
0010
0001
1000
0001
,
0200
0001
0010
0301
,
0000
0100
0100
0000
0010
0000
0100
0000
,
0201
0310
2010
3001
,
0012
1003
2100
3020
,
0100
1000
0230
0302
,
0010
0000
1000
0000
0103
0000
0001
1000
,
0001
0010
0100
0010
,
0001
1000
0010
0100
,
0110
0110
1001
1001
,
0000
0001
0001
0000
1000
0000
0001
0000
,
0020
0030
0012
1003
,
2010
3001
0102
0023
,
0100
0001
0230
2300
,
0010
0000
0001
0000
3100
0000
1000
0001
,
1000
0000
1001
0010
,
0110
0000
0110
0100
,
1001
0000
0000
0100
0000
0100
0000
0100
,
0000
0010
0010
0000
0100
0000
0010
0000
,
2002
0000
0000
0000
,
3003
0000
0000
0000
;

//--------------- dance-single - Marten ----------------
#NOTES:
     dance-single:
     Marten:
     Medium:
     13:
     0,0,0,0,0:
0000
0000
0000
0000
,
0000
0000
0000
0000
,
0000
0000
0000
0000
,
0000
0000
0000
0000
,
0000
0000
0000
0000
,
0002
0000
0000
0000
0000
0000
1000
1000
,
0000
0100
0000
0100
0000
0000
0010
0000
,
2003
0000
0000
3000
,
0000
0100
0100
0000
0010
0000
0010
0000
,
0001
0200
0320
0030
,
2000
0000
3001
0000
0200
0000
0310
2000
,
0000
0000
0000
0000
3001
0000
0010
0200
,
0000
0000
0320
0000
0032
0000
1003
0002
,
0000
0010
0000
0013
0000
0000
0001
2000
,
0000
0010
0000
3010
0000
0000
0100
0000
,
0220
0000
0000
0000
,
0330
0100
0100
0000
0010
0000
0010
0000
,
1001
1000
1010
0000
,
1001
1001
0011
0000
,
1001
0001
0101
0000
,
1001
0000
1001
0000
1100
0000
0000
1000
,
1100
0000
0110
0000
,
1001
0101
0110
0000
,
0101
0000
0110
0000
,
1000
0010
0010
0000
0100
0000
0010
0000
,
1000
0100
1000
0001
1000
0010
0100
0000
,
0001
0100
0001
1000
0001
0010
0100
0000
,
1000
0010
0001
0010
1000
0001
0010
0000
,
0001
0010
1000
0010
0001
1000
0010
0000
,
1000
0100
1000
0100
0010
0001
0010
0001
,
0100
0010
1000
0100
0001
0100
1000
0001
,
0100
1000
0100
0001
0010
0100
1000
0001
,
0000
0000
0000
0000
,
0011
0000
1001
0000
1020
0000
0130
0001
,
0010
0010
0110
0000
0100
1000
0002
0003
,
1001
0000
0101
0000
0110
0000
0010
1000
,
0001
0001
0020
0000
1030
0010
0001
1000
,
1010
0000
1001
0000
0021
0000
0130
1000
,
0010
0010
0110
0000
0100
0001
2000
3000
,
1001
0000
1100
0000
0110
0000
0010
0001
,
1000
1000
0001
0001
2000
3200
0320
0032
,
0103
0000
1010
0000
0102
0000
0013
0100
,
1000
1000
0001
0010
0001
0001
0100
0010
,
2000
3200
0302
0203
2300
3002
0103
0010
,
1000
1000
0001
0001
0100
0100
0020
2030
,
3100
0000
0011
0000
2100
0000
3010
0100
,
0001
0001
1000
0000
0010
0010
0100
0010
,
1010
0000
1000
0001
0011
0000
0001
1000
,
0000
0100
0100
0000
0010
0000
0010
0000
,
0001
0100
0001
0100
0010
1000
0001
0100
,
0000
0010
1000
0001
1000
0100
0000
0011
,
0000
1100
0000
0110
0000
1001
0000
1010
,
0000
0101
0000
0110
0000
1001
0000
0001
,
1000
0100
1000
0100
0010
0001
1000
0100
,
0000
0010
0001
1000
0001
0100
0000
1010
,
0000
0101
0000
0110
0000
1001
0000
1010
,
0000
1000
0010
0100
0010
0000
0010
0000
,
1000
0010
1000
0010
0100
0001
1000
0000
,
0001
0010
0001
0010
0100
1000
0001
0000
,
1000
0100
0001
0100
1000
0010
0100
0000
,
0001
0100
1000
0100
0001
0010
0100
0000
,
1000
0010
1000
0010
0100
0001
0100
0001
,
1000
0100
0010
0001
0100
0010
1000
0001
,
0010
1000
0010
0001
1000
0010
0001
0010
,
0000
0000
0000
0000
,
1010
0000
0101
0000
0110
0000
0010
1000
,
0000
0100
0001
0100
1000
0001
1000
0010
,
1000
0100
0010
0001
0100
0010
1000
0001
,
1000
0010
0100
0001
0010
0100
1000
0000
,
0011
0000
1100
0000
0110
0000
0010
0001
,
0000
0100
1000
0100
0001
1000
0001
0010
,
0001
0100
0010
1000
0100
0010
0001
1000
,
0001
0010
0100
1000
0010
0100
0001
0000
,
0101
0000
1100
0000
0011
0000
0010
0001
,
0100
0001
0010
1000
0010
0001
0100
0000
,
0010
1000
0001
1000
0100
1000
0001
0010
,
0001
1000
0001
0100
0010
1000
0100
0000
,
1100
0000
0101
0000
1010
0000
0010
1000
,
0100
1000
0010
0001
0010
1000
0100
0000
,
0010
0001
1000
0001
0100
0001
1000
0010
,
1000
0001
1000
0100
0010
0000
0110
0000
,
0011
1001
1010
0110
,
0101
0011
1100
1010
,
1000
0100
0001
0100
0010
0001
1000
0001
,
0100
1000
0100
0010
1000
0001
1000
0000
,
1010
1001
0011
0110
,
1100
1010
0101
0011
,
0001
0100
1000
0100
0010
1000
0001
1000
,
0100
0001
0100
0010
0001
1000
0001
0000
,
0200
0000
0310
1000
0100
1000
0010
0100
,
0001
0010
0001
0100
0001
0010
0100
0000
,
1010
0000
0101
0000
1001
0000
0001
1000
,
0001
0100
2000
0000
3100
0001
1000
0100
,
0110
0000
0011
0001
,
1001
0000
0000
0000
1010
1000
0010
0000
,
1000
0100
0010
0001
0100
0010
1000
0001
,
0000
0100
0100
0010
0100
0000
0100
0000
,
2002
0000
0000
0000
,
3003
0000
0000
0000
;

//--------------- dance-single - Marten ----------------
#NOTES:
     dance-single:
     Marten:
     Hard:
     17:
     0,0,0,0,0:
0000
0000
0000
0000
,
0000
0000
0000
0000
,
0000
0000
0000
0000
,
0000
0000
0000
0000
,
0000
0000
0000
0000
,
2000
0000
0000
0000
0000
0000
0010
0010
,
0000
0001
0000
0100
0000
0000
0001
0000
,
3002
0000
0000
0003
,
1000
0010
0010
0100
0010
0000
0110
0000
,
1001
0002
0023
0130
,
0020
0000
0031
0000
2000
0000
3010
0200
,
0000
0000
1000
0000
0302
0000
0013
0200
,
0000
0000
0001
0000
1300
0000
0001
0020
,
0000
1000
0000
0032
0000
0000
1003
0020
,
0000
0001
0000
2030
0000
0000
3010
0000
,
2002
0000
0000
3003
,
0001
0010
0010
0100
0010
0000
0010
0000
,
1001
0001
0011
0100
,
1100
0101
1001
0010
,
1001
1000
1010
0100
,
0101
0000
1100
0000
1001
0000
1000
0100
,
0110
0100
1001
1000
,
1010
0011
1001
0001
,
0110
0100
1001
0001
,
0011
0010
1000
0010
0001
0000
1001
0000
,
1000
0100
1000
0100
0001
1000
0001
1000
,
0010
0001
0010
0001
0100
0001
0100
0001
,
0100
1000
0100
1000
0001
0010
0001
0010
,
1000
0010
1000
0010
1000
0001
1000
0001
,
1000
0100
1000
0000
0001
0010
0001
0000
0100
0010
0100
0000
0001
1000
0001
0000
,
0010
0100
1000
0000
0010
0100
0001
0000
1000
0001
0010
0000
0001
1000
0010
0000
,
1000
0100
1000
0100
0010
0001
0010
0001
1000
0001
1000
0001
0100
0010
0100
0010
,
0000
0000
0000
0000
,
2001
3000
1020
0030
0021
0030
0210
0301
,
0021
0031
0012
0003
2001
3001
0200
0300
,
1002
0003
0201
0300
1200
0300
0120
1030
,
2010
3010
2000
3000
0001
1000
1001
0110
,
1002
0003
0021
0030
1020
0030
0210
1300
,
1020
1030
2010
3000
1002
1003
0200
0300
,
2001
3000
1200
0300
0201
0300
0120
0031
,
1002
0000
1000
0000
1003
0000
1000
0010
0100
0000
1000
0000
0001
0000
0010
0000
,
2000
3000
1020
0030
0210
0300
0102
1003
,
2100
3001
0102
0003
0012
0013
0210
0310
,
1200
2300
3002
0023
2030
3020
0032
1003
,
2010
3001
0012
1003
0001
1000
1001
0110
,
1002
0003
0021
0030
0210
0300
2100
3010
,
0102
0013
0120
0030
0012
0103
2010
3100
,
1002
0013
0100
1000
2001
3010
0100
0001
,
0000
0010
0010
0100
0010
0000
0010
0000
,
0001
1000
0100
1000
0001
0010
1000
0010
,
0000
0001
1000
0010
0001
0010
1000
0200
,
0310
0200
1300
0200
0301
0200
1300
0020
,
0130
0020
0031
0020
1030
0020
0130
0020
,
1030
0001
0100
0001
1000
0010
0001
0010
,
0000
1000
0001
0010
1000
0010
0001
0200
,
0310
0200
0301
0200
1300
0200
0301
0020
,
0130
0010
1000
0010
0001
0000
1001
0000
,
0001
0100
0001
0100
1000
0001
1000
0001
,
0010
1000
0010
1000
0100
1000
0100
1000
,
0100
0001
0100
0001
1000
0010
1000
0010
,
0001
0010
0001
0010
0001
1000
0001
1000
,
0001
0100
0001
0000
1000
0001
1000
0000
0100
0010
0100
0000
1000
0010
1000
0000
,
0001
0010
0100
0000
1000
0010
0100
0000
0001
1000
0100
0000
1000
0001
0100
0000
,
0001
0010
0001
0010
0100
1000
0100
1000
0001
1000
0001
1000
0010
0100
0010
0100
,
0000
0000
0000
0000
,
1002
0000
0103
0000
1000
0000
0100
0000
0001
0000
0010
0000
0100
0000
1000
0010
,
0100
0000
1000
0000
0100
0000
0010
0000
1000
0000
0001
0000
0010
0000
0100
1000
,
0001
0000
0010
0001
0100
0000
0010
0100
1000
0000
0100
0000
0001
0000
0010
0001
,
1000
0000
0010
1000
0001
0000
0100
0010
0001
0000
0010
0000
1000
0000
0001
0000
,
2001
0000
3100
0000
0001
0000
0100
0000
0010
0000
0001
0000
0100
0000
0010
0100
,
1000
0000
0100
0000
0001
0000
0010
0000
0100
0000
0001
0000
0100
0000
1000
0010
,
0100
0000
0001
0010
0100
0000
0010
0100
0001
0000
0100
0000
0010
0000
0001
0100
,
0010
0000
1000
0100
0010
0000
1000
0010
0100
0000
1000
0000
0001
0000
1000
0000
,
1002
0000
0013
0000
1000
0000
0010
0000
0001
0000
0100
0000
0010
0000
0001
0010
,
0100
0000
1000
0000
0100
0000
0010
0000
0100
0000
0001
0000
1000
0000
0001
0010
,
0100
0000
1000
0010
0100
0000
0001
0010
1000
0000
0010
0000
0100
0000
1000
0100
,
0010
0000
0001
0100
0010
0000
1000
0010
0001
0000
0010
0000
0100
0000
0001
0000
,
2001
0000
3010
0000
0001
0000
0010
0000
1000
0000
0001
0000
0010
0000
0100
0010
,
1000
0000
0010
0000
0001
0000
0100
0000
0010
0000
0100
0000
0001
0000
1000
0001
,
0010
0000
0001
1000
0010
0000
0100
1000
0100
0000
0001
0000
0010
0000
0100
1000
,
0001
0000
0010
0001
1000
0000
0100
0000
0010
0000
0000
0000
0110
0000
0000
0000
,
0012
0103
0010
1000
2010
3100
0010
0001
,
1002
0000
0203
0000
1300
0000
0100
0000
2001
0000
3200
0000
0301
0000
0100
1000
,
0010
0000
1000
0100
0001
0000
0100
1000
0010
0000
1000
0100
0001
0000
0100
0010
,
0001
0000
0001
0100
1000
0000
0100
0001
0010
0000
0001
0100
1000
0000
0100
0000
,
2010
3100
0010
0001
0012
0103
0010
1000
,
2001
0000
3200
0000
0301
0000
0100
0000
1002
0000
0203
0000
1300
0000
0100
0001
,
0010
0000
0001
0100
1000
0000
0100
0001
0010
0000
0001
0100
1000
0000
0100
0010
,
1000
0000
1000
0100
0001
0000
0100
1000
0010
0000
0000
0000
0110
0000
0000
0000
,
0020
0000
0000
0000
0130
0000
0001
0010
1000
0000
0010
0001
1000
0000
0010
0000
,
0110
0000
0100
0000
0001
0000
1000
0010
0001
0000
0010
1000
0001
0000
0000
0000
,
0012
1003
2010
3001
0102
1003
2100
3001
,
0100
0100
0020
0030
0100
0010
1010
0101
,
1001
1000
0010
0000
1001
0001
0011
0000
,
1100
1000
0001
0000
0101
0101
0110
0000
,
1001
0001
0010
0100
1000
0010
0100
0001
,
0000
0010
0010
0100
0010
0000
0010
0000
,
2002
0000
0000
0000
,
3003
0000
0000
0000
;
