#TITLE:Touch the Sky (tokiwa Remix);
#SUBTITLE:;
#ARTIST:lapix;
#TITLETRANSLIT:;
#SUBTITLETRANSLIT:;
#ARTISTTRANSLIT:;
#GENRE:;
#CREDIT:;
#BANNER:Touch the Sky (tokiwa Remix).png;
#BACKGROUND:Touch the Sky (tokiwa Remix)-bg.png;
#LYRICSPATH:;
#CDTITLE:;
#MUSIC:Touch the Sky (tokiwa Remix).ogg;
#OFFSET:-1.100719;
#SAMPLESTART:91.454002;
#SAMPLELENGTH:15.000000;
#SELECTABLE:YES;
#BPMS:0.000000=170.000000
;
#STOPS:
;
#BGCHANGES:;
#KEYSOUNDS:;
#ATTACKS:;

//---------------dance-single - ----------------
#NOTES:
     dance-single:
     :
     Hard:
     16:
     0.677794,0.795907,0.470245,0.322855,0.428133,676.000000,609.000000,67.000000,46.000000,0.000000,0.000000,0.677794,0.795907,0.470245,0.322855,0.428133,676.000000,609.000000,67.000000,46.000000,0.000000,0.000000:
// measure 0
0000
0000
0000
0000
,  // measure 1
0000
0000
0000
0000
,  // measure 2
0000
0000
0000
0000
,  // measure 3
0000
0000
0000
0000
,  // measure 4
0002
0000
0103
0000
,  // measure 5
2000
0000
3100
0000
,  // measure 6
0002
0000
0013
0000
,  // measure 7
2002
3003
2020
3030
,  // measure 8
1200
0000
0310
0001
1001
0000
0001
0100
,  // measure 9
1000
0100
0100
0000
0101
0000
0001
1000
,  // measure 10
1001
0000
0001
1000
0010
0200
0000
0302
,  // measure 11
0000
0000
1003
0000
0100
0000
0010
0000
0011
0000
0000
0000
0001
0100
0001
0000
,  // measure 12
0101
0000
0100
0000
1010
0000
1000
0100
,  // measure 13
0001
0100
0100
0000
1100
0000
0010
0001
,  // measure 14
1000
0000
0010
0100
0110
0000
0010
1000
,  // measure 15
1002
0000
0000
0000
0103
0000
0010
0000
1000
0100
0010
0000
0001
1000
0100
0000
,  // measure 16
1000
0000
0010
0000
0100
0000
0001
0100
0000
1000
0100
0000
0001
0000
0000
0000
,  // measure 17
1000
0000
1000
0000
0001
0000
0010
0100
0000
1000
0001
0000
0100
0000
0100
0000
,  // measure 18
0010
0000
1000
0000
0001
0000
1000
0010
0000
0100
0001
0000
0010
0000
1000
0000
,  // measure 19
0010
0000
0001
1000
0000
0100
0000
2000
0001
0000
0000
0001
0000
0000
3001
0000
,  // measure 20
1000
0000
0010
0000
0001
0000
0010
0100
0000
0001
0100
0000
0001
0000
0000
0000
,  // measure 21
0100
0000
0100
0000
0001
0000
1000
0100
0000
0010
0100
0000
1000
0000
0001
0000
,  // measure 22
0100
0000
1000
0000
0100
0000
0001
0000
0010
0000
0100
0000
1000
0001
0020
0000
,  // measure 23
0100
0000
0000
0100
0000
0000
0230
0000
1000
0000
0000
1000
0000
0000
1300
0000
,  // measure 24
0001
0000
0100
0000
1000
0000
0100
0001
0000
0100
0001
0000
0101
0000
0100
0000
,  // measure 25
0001
0000
0010
0000
0100
0000
1000
0100
0000
1000
0100
0000
0010
0000
0010
0000
,  // measure 26
0001
0000
0010
0000
1000
0000
0010
0001
0000
0010
0001
0000
0011
0000
0010
0000
,  // measure 27
0001
0000
1000
0100
0000
0001
0000
0100
1000
0000
0010
0100
0010
0000
0100
0000
,  // measure 28
0001
0100
1000
0100
0010
1000
0001
1000
,  // measure 29
0100
0001
0100
1000
0001
0010
1000
0010
,  // measure 30
0001
0010
0001
0100
0001
0010
0001
0100
0010
1000
0100
1000
0010
1000
0100
0010
,  // measure 31
0001
0010
0100
1000
,  // measure 32
1002
0000
0000
0000
0103
0000
0010
0000
0100
0001
0000
1000
0000
1000
0100
1000
,  // measure 33
0100
0010
0002
1003
1200
0000
0310
0001
,  // measure 34
2001
0000
0000
0000
3100
0000
0010
0000
0100
1000
0000
0001
0000
0001
0100
0001
,  // measure 35
0100
0000
0100
0010
2000
0000
3000
0000
2002
0000
3003
0000
0202
0000
0303
0000
,  // measure 36
0020
0000
0000
0000
1030
0000
0100
0000
0001
0100
0000
1000
0001
0100
0001
0100
,  // measure 37
0010
0000
1000
0000
1020
0000
1030
0100
0020
0000
0030
0000
0022
0000
0033
0000
,  // measure 38
1001
0000
0001
0100
1000
0100
0001
0010
,  // measure 39
2100
0000
0000
0000
3010
0000
0010
0000
0200
0000
0000
0000
0301
0010
0100
1000
,  // measure 40
0001
0100
0010
1000
0002
0000
1003
0000
0100
0010
0000
0010
0001
1000
0001
0100
,  // measure 41
0001
1000
1010
0010
0210
0000
0302
0000
,  // measure 42
2003
0000
0000
0000
3100
0000
0010
0000
0100
1000
0000
1000
0001
0100
0010
0100
,  // measure 43
0001
0000
0010
0100
1000
0000
0010
0100
0020
0000
0030
0000
2002
0000
3003
0000
,  // measure 44
0200
0000
0000
0000
0301
0000
0010
0000
0100
0010
0000
0010
0001
1000
0001
0100
,  // measure 45
0010
0000
1000
0100
0001
0000
0100
0000
2200
0000
3300
0000
0202
0000
0303
0000
,  // measure 46
1001
0000
1000
0100
0001
0100
1000
0010
,  // measure 47
0102
0000
0000
0000
1003
0000
0100
0010
0001
0010
0001
0100
0020
0000
0000
0000
,  // measure 48
1030
0100
0001
0100
1000
1100
0000
0101
,  // measure 49
0100
0010
0001
0010
1010
0000
0011
0000
,  // measure 50
0001
0100
1000
0100
0001
0101
0000
1100
,  // measure 51
0100
0010
1000
0010
0011
0000
1010
1000
,  // measure 52
1001
0001
0100
0010
0001
0011
0000
1010
,  // measure 53
1000
0001
0010
1000
1010
0000
0011
0000
,  // measure 54
1001
1000
0100
0010
1000
1010
0000
0011
,  // measure 55
0001
1000
0010
0001
0011
0100
0110
0100
,  // measure 56
0101
0001
0010
0100
0001
0101
0000
1100
,  // measure 57
1000
0001
0100
1000
1100
0000
0101
0000
,  // measure 58
1100
1000
0010
0100
1000
1100
0000
0101
,  // measure 59
0001
1000
0100
0001
0101
0000
1100
1000
,  // measure 60
1001
0001
0100
1000
0100
1001
0000
1001
,  // measure 61
1000
0100
0001
0100
1001
0000
0110
0000
,  // measure 62
0010
1000
0001
1000
0010
1000
0001
0010
0001
1000
0001
0010
0001
1000
0010
0100
,  // measure 63
0001
0010
0100
1000
,  // measure 64
1001
0000
0001
0000
0100
0000
0001
0010
0000
0001
0100
0000
0010
0000
1000
0001
,  // measure 65
1000
0000
0100
0000
0001
0000
0100
1000
0000
1000
0010
0000
0100
0000
0100
0000
,  // measure 66
0001
0000
0100
0000
0001
0000
0010
0100
0000
0010
1000
0000
0010
0000
0001
1000
,  // measure 67
0001
0000
0100
0001
0010
0000
0100
1000
0001
0000
0100
0000
1000
0000
0001
0000
,  // measure 68
0010
0000
1000
0000
0100
0000
0010
0001
0000
1000
0100
0000
0001
0000
0100
1000
,  // measure 69
0001
0000
0100
0000
1000
0000
0100
0001
0000
0100
0010
0000
1000
0000
0001
0000
,  // measure 70
0010
0000
1000
0000
0010
0000
0001
0000
1000
0000
0010
0000
0100
0001
0010
0000
,  // measure 71
1000
0010
0001
0100
0010
0001
0010
1000
,  // measure 72
1001
0000
1000
0001
0100
0000
0001
0010
0001
0000
0100
0000
0010
0000
1000
0100
,  // measure 73
1000
0000
0001
0010
1000
0000
0010
0001
0100
0000
0010
0000
1000
0000
1000
0000
,  // measure 74
0001
0000
0100
0001
0010
0000
0100
1000
0001
0000
1000
0000
0100
0000
0010
0001
,  // measure 75
0100
0000
0010
1000
0001
0000
0100
0010
0001
0000
0010
0000
1000
0000
0001
0000
,  // measure 76
0011
0000
0010
0000
0100
0000
1000
0010
0100
0000
1000
0000
0100
0000
0010
1000
,  // measure 77
0001
0000
0010
0000
0100
0000
1000
0001
0100
0000
1000
0000
0100
0000
0001
1000
,  // measure 78
0010
1000
0100
0010
0001
0100
0010
1000
0100
0010
0001
0100
0010
1000
0100
0010
,  // measure 79
0001
0000
0000
0000
0010
0000
0100
1000
0010
0000
0001
0010
1000
0000
0001
0000
,  // measure 80
2002
0000
0000
0000
,  // measure 81
0000
0000
0000
0000
,  // measure 82
0000
0000
0000
0000
,  // measure 83
0000
0000
0000
0000
,  // measure 84
3003
0000
0000
0000
;

//---------------dance-single - ----------------
#NOTES:
     dance-single:
     :
     Medium:
     13:
     0.507343,0.530604,0.189502,0.428133,0.084223,506.000000,479.000000,27.000000,61.000000,0.000000,0.000000,0.507343,0.530604,0.189502,0.428133,0.084223,506.000000,479.000000,27.000000,61.000000,0.000000,0.000000:
// measure 0
0000
0000
0000
0000
,  // measure 1
0000
0000
0000
0000
,  // measure 2
0000
0000
0000
0000
,  // measure 3
0000
0000
0000
0000
,  // measure 4
2000
0000
3100
0000
,  // measure 5
0002
0000
0103
0000
,  // measure 6
2000
0000
3010
0000
,  // measure 7
2002
3003
0022
0033
,  // measure 8
0102
0000
1003
0100
0001
0000
0100
0000
,  // measure 9
0000
1000
0001
0000
1001
0000
0100
0000
,  // measure 10
0010
0000
1000
0010
0001
0020
0000
0230
,  // measure 11
0000
0301
1000
0000
1001
0000
0001
0010
,  // measure 12
0100
0000
1000
0001
1001
0000
1000
0010
,  // measure 13
0000
0100
0010
0000
0110
0000
1000
0001
,  // measure 14
0010
0000
0100
1000
0001
1000
0010
0100
,  // measure 15
0002
0000
0000
0003
,  // measure 16
1000
0000
0100
0000
0010
0000
0000
0100
0000
0000
1000
0000
0001
0000
0000
0000
,  // measure 17
0010
0001
1000
0010
0100
0100
0010
0000
,  // measure 18
0100
0000
0001
0000
0010
0000
0000
0100
0000
0000
0100
0000
0010
0000
0001
0000
,  // measure 19
1000
0000
0100
0010
0000
0001
0000
1000
0000
0000
0000
0000
0000
0000
0000
0000
,  // measure 20
0010
0000
1000
0000
0001
0000
0000
0010
0000
0000
0001
0000
1000
0000
0000
0000
,  // measure 21
0100
1000
0001
0100
0010
0010
1000
0001
,  // measure 22
1000
0100
0010
0001
0010
0100
1000
0002
,  // measure 23
1000
0000
0000
1000
0000
0000
2003
0000
0001
0000
0000
0001
0000
0000
3001
0000
,  // measure 24
1000
0100
0010
0001
0010
1000
0010
0000
,  // measure 25
0001
0100
0010
0100
0001
0001
1000
1000
,  // measure 26
0100
1000
0001
0010
0100
0010
0001
0100
,  // measure 27
0010
1000
0001
1000
0020
0000
0130
0000
,  // measure 28
0001
0100
0001
0100
0010
0100
0010
0100
,  // measure 29
1000
0100
1000
0100
0010
0100
0010
0100
,  // measure 30
0002
0000
1003
0100
0001
0100
1000
0001
,  // measure 31
1000
0010
0100
0001
,  // measure 32
2001
0000
0000
0000
3100
0000
1000
0000
0001
0000
0000
0001
0000
0000
0001
0000
,  // measure 33
0100
0001
0010
0001
0200
0000
0310
1000
,  // measure 34
0002
0000
0000
0000
0103
0000
0001
0000
1000
0000
0000
1000
0000
0000
1000
0000
,  // measure 35
0100
1000
0010
1000
2002
3003
2020
3030
,  // measure 36
0200
0000
0000
0000
0301
0000
1000
0000
0100
1000
0000
1000
0001
0000
0100
0000
,  // measure 37
0001
0010
0100
1000
2002
3003
0202
0303
,  // measure 38
0010
0000
1000
0100
0010
0001
0010
1000
,  // measure 39
0020
0000
0031
0001
2000
0000
3010
0010
,  // measure 40
0100
0000
0001
0000
2000
0000
3100
0000
0010
0001
0000
0001
0100
0000
0001
0000
,  // measure 41
1000
0010
0001
0010
2000
0000
3001
0010
,  // measure 42
0200
0000
0000
0000
0301
0000
0100
0000
1000
0001
0000
0001
0100
0000
0001
0000
,  // measure 43
1000
0010
0100
0001
2002
3003
0202
0303
,  // measure 44
0020
0000
0000
0000
1030
0000
0010
0000
0001
0010
0000
0010
1000
0000
0001
0000
,  // measure 45
0010
0100
1000
0001
0202
0303
2200
3300
,  // measure 46
0001
0000
1000
0100
0010
1000
0010
0001
,  // measure 47
1000
0010
0100
0001
,  // measure 48
1000
0100
0010
1000
0010
0001
0000
0012
,  // measure 49
0000
1003
0010
0100
0002
0000
2003
0000
,  // measure 50
3001
0100
0010
0001
0010
1000
0000
2010
,  // measure 51
0000
3001
0010
0100
1000
0000
0001
0100
,  // measure 52
0001
0010
1000
0010
0001
0100
0000
0201
,  // measure 53
0000
0310
1000
0001
2000
0000
3002
0000
,  // measure 54
1003
0010
0001
0010
1000
0100
0000
1200
,  // measure 55
0000
0310
0001
1000
0002
1000
2003
0001
,  // measure 56
3001
0010
0100
0001
0100
1000
0000
1020
,  // measure 57
0000
0130
0001
1000
1001
0000
0110
0000
,  // measure 58
1000
0010
0100
1000
0100
0001
0000
0021
,  // measure 59
0000
0130
1000
0001
1001
0000
0001
0100
,  // measure 60
0001
0100
1000
0001
0010
1000
0000
1002
,  // measure 61
0000
1003
0010
0100
0002
0000
2003
0000
,  // measure 62
3001
0010
0100
0100
1000
0010
0001
0010
,  // measure 63
1000
0010
0100
0001
,  // measure 64
1000
0000
0100
0000
0010
0000
0001
0010
0000
0000
0001
0000
1000
0000
0000
0000
,  // measure 65
0010
0000
1000
0000
0100
0000
1000
0001
0000
0000
0100
0000
0001
0000
0001
0000
,  // measure 66
1000
0000
0100
0000
0010
0000
0001
0010
0000
0000
0010
0000
0100
0000
1000
0000
,  // measure 67
0001
0100
1000
0100
0002
0000
1003
0000
,  // measure 68
0010
0000
1000
0000
0001
0000
0010
0001
0000
0000
0001
0000
0100
0000
0001
0000
,  // measure 69
1000
0000
0100
0000
0010
0000
0100
1000
0000
0000
0001
0000
1000
0000
1000
0000
,  // measure 70
0100
0000
1000
0000
0001
0000
1000
0000
0010
0000
0100
0000
0001
1000
0002
0000
,  // measure 71
0000
0010
1000
0103
,  // measure 72
0001
0100
0010
0100
1000
0100
0010
0000
,  // measure 73
1000
0010
0100
0001
0010
0100
1000
0001
,  // measure 74
1000
0100
0010
0100
0001
0100
0010
0000
,  // measure 75
0001
0010
0100
1000
0002
0000
1003
0000
,  // measure 76
0010
1000
0001
0001
0010
0001
1000
1000
,  // measure 77
0010
1000
0100
0100
0010
0001
0100
0100
,  // measure 78
0001
0100
1000
0100
0001
0010
0100
0100
,  // measure 79
1000
0000
0010
0100
0001
0010
0100
0000
,  // measure 80
2002
0000
0000
0000
,  // measure 81
0000
0000
0000
0000
,  // measure 82
0000
0000
0000
0000
,  // measure 83
0000
0000
0000
0000
,  // measure 84
3003
0000
0000
0000
;

//---------------dance-single - ----------------
#NOTES:
     dance-single:
     :
     Easy:
     8:
     0.351932,0.442170,0.266706,0.308817,0.000000,351.000000,313.000000,38.000000,44.000000,0.000000,0.000000,0.351932,0.442170,0.266706,0.308817,0.000000,351.000000,313.000000,38.000000,44.000000,0.000000,0.000000:
// measure 0
0000
0000
0000
0000
,  // measure 1
0000
0000
0000
0000
,  // measure 2
0000
0000
0000
0000
,  // measure 3
0000
0000
0000
0000
,  // measure 4
0002
0000
0013
0000
,  // measure 5
2000
0000
3010
0000
,  // measure 6
0002
0000
0103
0000
,  // measure 7
2002
3003
2200
3300
,  // measure 8
1010
0000
0000
0001
1000
0000
0100
0000
,  // measure 9
0000
0010
1001
0000
,  // measure 10
0001
0000
0000
1000
0010
2000
0000
3002
,  // measure 11
0000
0013
0011
0000
,  // measure 12
0100
0000
1001
0001
,  // measure 13
0000
0100
0010
0000
1001
0000
0000
0000
,  // measure 14
0010
0000
0000
1000
0001
1000
0000
0200
,  // measure 15
0000
0000
0010
0310
,  // measure 16
0001
0100
1000
0100
,  // measure 17
0001
0001
1000
1000
,  // measure 18
0001
0010
1000
0010
,  // measure 19
0001
1000
1001
0000
,  // measure 20
1000
0100
0001
0100
,  // measure 21
1000
1000
0001
0001
,  // measure 22
1000
0010
0001
0010
,  // measure 23
2000
0000
3002
0000
,  // measure 24
0013
0000
0001
0000
0100
0001
0100
0000
,  // measure 25
0010
1000
0001
0001
,  // measure 26
1000
0000
0100
0000
1000
0001
1000
0000
,  // measure 27
0010
0100
0110
0000
,  // measure 28
0010
1000
0001
0001
,  // measure 29
0010
0001
1000
1000
,  // measure 30
0020
1030
0100
0010
,  // measure 31
0001
0100
0010
1000
,  // measure 32
0002
0103
0001
0001
,  // measure 33
1000
0100
1000
0000
1001
0000
0000
0000
,  // measure 34
2000
3100
1000
1000
,  // measure 35
0001
0100
0001
0000
1001
0000
0110
0000
,  // measure 36
0200
0310
1000
0001
,  // measure 37
0010
0010
1100
0101
,  // measure 38
1001
0001
0100
0010
,  // measure 39
2000
0000
3001
1000
0002
0000
0013
0000
,  // measure 40
0100
1001
0001
0100
,  // measure 41
0001
0000
1000
0010
1000
0000
0001
0000
,  // measure 42
1001
1000
0100
1000
,  // measure 43
0001
0010
0001
0000
1001
0000
0110
0000
,  // measure 44
0010
0000
1001
0000
0001
1000
0001
0000
,  // measure 45
1000
0001
1000
0000
1001
0000
0110
0000
,  // measure 46
1001
1000
0100
0010
,  // measure 47
0001
0100
0010
1000
,  // measure 48
1002
0000
0203
0000
0301
1000
0000
0200
,  // measure 49
0000
1300
0001
0000
0010
0000
0002
0000
,  // measure 50
2003
0000
3200
0000
1300
0001
0000
0200
,  // measure 51
0000
0301
1000
0000
0010
0000
2000
0000
,  // measure 52
3002
0000
0023
0000
0130
1000
0000
0020
,  // measure 53
0000
1030
0010
0000
0100
0000
0002
0000
,  // measure 54
2003
0000
3020
0000
0130
0001
0000
0020
,  // measure 55
0000
0031
0010
0000
0100
0000
2000
0000
,  // measure 56
3001
0000
0011
0000
0001
0100
0000
0020
,  // measure 57
0000
1030
0010
0000
1000
0000
1001
0000
,  // measure 58
1000
0000
1010
0000
1000
0100
0000
0020
,  // measure 59
0000
0031
0010
0000
0001
0000
1001
0000
,  // measure 60
1000
0000
1100
0000
0010
0001
0000
0200
,  // measure 61
0000
0301
1000
0000
0010
0000
1001
0000
,  // measure 62
2000
0000
3002
0000
1003
0001
1000
0000
,  // measure 63
0001
0100
0010
1000
,  // measure 64
1001
1000
0001
0100
,  // measure 65
0001
0010
0001
0000
1000
0100
1000
0000
,  // measure 66
0001
0100
0010
0100
,  // measure 67
0001
0000
1000
0001
2000
0000
3000
0000
,  // measure 68
1001
0001
1000
0100
,  // measure 69
1000
0010
1000
0000
0001
0100
0001
0000
,  // measure 70
1000
0000
0100
0000
0010
0000
0001
2000
,  // measure 71
0000
0010
0001
3100
,  // measure 72
1010
0000
0101
0000
0001
1000
0001
0000
,  // measure 73
0010
0100
1000
0001
,  // measure 74
0011
0000
1100
0000
1000
0001
1000
0000
,  // measure 75
0010
0100
1002
0103
,  // measure 76
0001
0010
0001
0000
0010
0100
0010
0000
,  // measure 77
0100
1000
0100
0000
1000
0001
1000
0000
,  // measure 78
0001
0010
1000
0100
,  // measure 79
0001
0100
0010
1000
,  // measure 80
2002
0000
0000
0000
,  // measure 81
0000
0000
0000
0000
,  // measure 82
0000
0000
0000
0000
,  // measure 83
0000
0000
0000
0000
,  // measure 84
3003
0000
0000
0000
;

//---------------dance-single - ----------------
#NOTES:
     dance-single:
     :
     Beginner:
     4:
     0.184488,0.265302,0.140372,0.119316,0.000000,184.000000,164.000000,20.000000,17.000000,0.000000,0.000000,0.184488,0.265302,0.140372,0.119316,0.000000,184.000000,164.000000,20.000000,17.000000,0.000000,0.000000:
// measure 0
0000
0000
0000
0000
,  // measure 1
0000
0000
0000
0000
,  // measure 2
0000
0000
0000
0000
,  // measure 3
0000
0000
0000
0000
,  // measure 4
2000
0000
3000
0000
,  // measure 5
0002
0000
0003
0000
,  // measure 6
2000
0000
3000
0000
,  // measure 7
1001
0000
0110
0000
,  // measure 8
0001
0000
1001
1000
,  // measure 9
0000
0010
0110
0000
,  // measure 10
0100
0000
1001
0001
,  // measure 11
0000
0010
0110
0000
,  // measure 12
1000
0000
1001
1000
,  // measure 13
0000
0010
0110
0000
,  // measure 14
0001
0000
1001
1000
,  // measure 15
2000
0000
0000
3000
,  // measure 16
0001
0000
0100
0000
,  // measure 17
1000
0000
0100
0000
,  // measure 18
0001
0000
1000
0000
,  // measure 19
0001
0000
1000
0000
,  // measure 20
1000
0000
0100
0000
,  // measure 21
0001
0000
0100
0000
,  // measure 22
1000
0000
0001
0000
,  // measure 23
2000
0000
0000
3000
,  // measure 24
0001
0000
0010
0000
,  // measure 25
0100
0100
0100
0000
,  // measure 26
1000
0000
0010
0000
,  // measure 27
0100
0100
0100
0000
,  // measure 28
0001
0000
1000
0000
,  // measure 29
0010
0000
0100
0000
,  // measure 30
0001
0000
1000
0000
,  // measure 31
2002
0000
0000
3003
,  // measure 32
0002
0003
0100
0000
,  // measure 33
0001
0001
0001
0000
,  // measure 34
2000
3000
0100
0000
,  // measure 35
1000
0000
0001
0001
,  // measure 36
0000
0200
0300
0000
,  // measure 37
0010
0000
1000
0000
,  // measure 38
1001
0000
0001
0000
,  // measure 39
2000
3000
0002
0003
,  // measure 40
0100
0110
0000
0010
,  // measure 41
0010
0000
1000
0000
,  // measure 42
0002
0003
0010
0000
,  // measure 43
0100
0000
1000
1000
,  // measure 44
0000
0001
0001
0000
,  // measure 45
0100
0000
0010
0000
,  // measure 46
1000
0000
0001
0000
,  // measure 47
0010
0010
0010
0000
,  // measure 48
1001
0000
0001
0000
,  // measure 49
0010
0000
1000
0000
,  // measure 50
0010
0000
0001
0000
,  // measure 51
1000
0000
0001
0000
,  // measure 52
1000
0000
0010
0000
,  // measure 53
0001
0000
0010
0000
,  // measure 54
1000
0000
0100
0000
,  // measure 55
0010
0000
0001
0000
,  // measure 56
0100
0100
0100
0000
,  // measure 57
0001
0000
1000
0000
,  // measure 58
0100
0100
0100
0000
,  // measure 59
1000
0000
0001
0000
,  // measure 60
1001
0000
0010
0000
,  // measure 61
0110
0000
0100
0000
,  // measure 62
1001
0000
0010
0000
,  // measure 63
2002
0000
0000
3003
,  // measure 64
0001
0000
0010
0000
,  // measure 65
0100
0100
0100
0000
,  // measure 66
1000
0000
0010
0000
,  // measure 67
0100
0100
0100
0000
,  // measure 68
0001
0000
1000
0000
,  // measure 69
0001
0001
0001
0000
,  // measure 70
0010
0000
0100
0000
,  // measure 71
1000
1000
1000
0000
,  // measure 72
0001
0000
1001
0000
,  // measure 73
1000
1000
1000
0000
,  // measure 74
1000
0000
1001
0000
,  // measure 75
0001
0001
0001
0000
,  // measure 76
0100
0000
0001
0000
,  // measure 77
1000
0000
0010
0000
,  // measure 78
1000
0000
0100
0000
,  // measure 79
0010
0000
0001
0000
,  // measure 80
2002
0000
0000
0000
,  // measure 81
0000
0000
0000
0000
,  // measure 82
0000
0000
0000
0000
,  // measure 83
0000
0000
0000
0000
,  // measure 84
3003
0000
0000
0000
;
