#TITLE:Thanatøs;
#ARTIST:RoughSketch;
#TITLETRANSLIT:Thanatos;
#BANNER:Thanatos.png;
#BACKGROUND:Thanatos-bg.png;
#MUSIC:Thanatos.ogg;
#SAMPLESTART:87.56;
#SAMPLELENGTH:15;
#DISPLAYBPM:100:400;
#BPMS:0=100,7=200,36=100,37.5=400,102=200,103=400,229=200,258=400,322=200,323=400,385=50,386=100,394=200,417=100,417.5=200,425=400,487=200,488=400,548=200,550=400,614=200;
#STOPS:7=0.038,7.125=0.038,7.25=0.038,7.375=0.038,7.5=0.038,7.625=0.038,7.75=0.038,7.875=0.038,37.5=0.225,257=0.9,421.5=0.1,422.25=0.075,422.417=0.125,422.75=0.1,423.167=0.025,424=0.925;

//--------------- dance-single - Marten vs RGTM ----------------
#NOTES:
     dance-single:
     Marten vs RGTM:
     Beginner:
     9:
     :
0000
0000
0000
0000
,
0000
0000
0000
0000
,
0001
0100
1000
0100
,
0001
0010
0110
1001
,
1000
0100
0001
0100
,
1000
0010
0110
1001
,
0001
0001
1000
1000
,
0010
0010
0100
0100
,
0001
0000
1000
0000
0001
1000
0001
1000
,
0020
0000
0000
0130
0001
0000
0000
0000
,
0010
0000
0100
0000
,
0010
0000
0001
0000
,
1000
0000
0010
0000
,
1001
0000
1000
0000
,
0010
0000
0100
0000
,
0010
0000
1000
0000
,
0001
0000
0010
0000
,
0001
1000
0001
0000
,
0100
0000
0010
0000
,
0100
0000
0001
0000
,
0010
0000
0100
0000
,
1001
0000
1000
0000
,
0010
0000
0100
0000
,
0001
0000
0010
0100
,
0010
0000
0001
1000
,
0001
0000
1000
1001
,
0000
0000
0001
0100
,
0000
0010
0000
1001
,
0000
0000
1000
0100
,
0000
0010
0000
1001
,
0000
0000
0001
0100
,
0000
0010
0000
1000
,
0001
1000
0000
0001
,
0000
0100
0000
1001
,
0000
0000
0001
0010
,
0000
0100
0000
1001
,
0000
0000
1000
0010
,
0000
0100
0000
1001
,
0000
0000
0001
0010
,
0000
0001
0000
0100
,
0000
0010
0000
1000
,
0000
0200
0300
0000
,
0000
0110
0000
1001
,
0000
1000
0001
1000
,
0000
0001
1000
0001
,
0000
0200
0300
0000
,
0000
0110
0000
1001
,
0000
0000
0000
0001
0000
0000
0000
0000
0000
0000
0000
0001
,
0000
0000
0000
1000
0000
0000
0000
0000
0000
0000
0000
1000
,
0000
0020
0030
0000
,
0000
0110
0000
1001
,
0000
0001
0000
1000
,
0001
1000
0000
0001
,
0000
0020
0030
0000
,
0000
0110
0000
1001
,
0000
0001
1000
0001
,
0000
1000
0002
0000
,
0003
1000
0100
0001
,
0100
1000
0010
0110
,
1001
0001
0100
1000
,
0100
0001
0010
0110
,
1001
1000
0010
0001
,
0010
1000
0100
0110
,
1001
0000
1000
0000
0001
0000
1000
0001
,
1000
0001
0020
0000
0031
0000
0100
0000
,
0001
0000
1000
0100
,
1000
0000
0010
0000
,
0010
0000
0100
0010
,
0100
0000
0001
1000
,
0000
0000
0110
0000
,
1001
0000
1000
0000
,
0001
0000
1000
0001
,
2000
3000
0001
0000
,
0010
0000
1000
0000
,
0010
0000
0001
1000
,
0001
0000
1000
0001
,
1000
0000
0010
0100
,
0000
0000
0110
0000
,
1001
0000
1000
0000
,
0001
0000
0010
0100
,
0020
0030
0001
0000
,
0000
1000
0001
1000
,
0000
0001
1000
0001
,
0000
1000
0001
2000
,
0000
3010
0000
0000
,
0000
0110
0000
1001
,
0000
0001
0010
0100
,
0000
1000
0100
0010
,
0000
0001
1000
0001
,
1000
0001
0000
0100
,
0000
0101
0000
1100
,
0000
1010
0000
0011
,
0000
1000
0000
0000
,
0000
0110
0000
1001
,
0000
0001
1000
0001
,
0000
0100
0020
0000
,
0000
0130
1002
0000
,
0023
0000
0230
0000
,
1300
2000
0000
3001
0100
0000
0001
0000
,
0100
0001
1000
0010
,
0100
0001
1000
0100
,
1000
0100
0001
0100
,
2000
3000
0001
0001
,
1000
1000
0010
0010
,
0200
0000
0000
0301
0000
1000
0000
0001
,
1000
0001
1000
0020
0000
0000
0000
0000
,
0000
0030
1000
0000
0000
0000
0100
0000
,
0000
0010
0001
0010
,
0000
0001
0000
0100
,
0000
0010
1000
0010
,
0000
1000
0000
0001
,
0000
0010
0100
0010
,
0000
0110
0000
1001
,
0000
0110
0000
1001
,
0000
0001
0000
0010
,
0000
0100
1000
0100
,
0000
1000
0000
0010
,
0000
0100
0001
0100
,
0000
0010
0000
0010
,
0000
1000
0000
1000
,
0000
0001
0000
0010
,
0000
0200
0000
0300
,
0010
0000
1001
0000
,
0001
1000
0001
0000
,
0010
0000
1001
0000
,
1000
0001
1000
0000
,
0010
0000
1001
0000
,
0001
1000
0001
0000
,
0100
0000
0010
0000
,
1001
0000
0000
0000
,
0001
0010
0100
0000
,
1000
0001
1000
0000
,
1000
0010
0100
0000
,
1001
0000
0000
0000
,
1000
0001
0010
0000
,
0001
1000
0010
0000
,
0100
0010
0100
0000
,
0002
0003
0200
0300
,
0000
0000
0110
0000
,
1001
0000
0001
1000
,
0001
0000
1000
0001
,
1000
0000
0200
0300
,
0000
0000
0110
0000
,
1001
0000
1000
0000
,
0000
0000
1000
0000
0000
0000
0001
0000
0000
0000
0000
0000
,
0000
0000
0001
0000
0000
0000
0020
0000
0000
0030
0000
0000
,
0000
0000
0110
0000
,
1001
0000
1000
0000
,
0001
1000
0001
0000
,
1000
0000
0020
0030
,
0000
0000
0110
0000
,
1001
0000
1000
0001
,
1000
0000
0001
1000
,
0001
0000
0000
0000
0020
0030
0000
0000
;

//--------------- dance-single - Marten vs RGTM ----------------
#NOTES:
     dance-single:
     Marten vs RGTM:
     Easy:
     13:
     :
0000
0000
0000
0000
,
0000
0000
0000
0000
,
0000
1000
0100
0010
0100
1000
0001
1000
,
0000
0010
0100
0000
0101
0000
1001
0000
,
0000
0001
0100
0010
0100
0001
1000
0001
,
0000
0010
0100
0000
1100
0000
1001
0000
,
0000
1000
0100
0010
0000
0001
0100
0010
,
0000
1000
0001
0010
0000
0001
1000
0010
,
1000
1000
0001
0001
1000
0100
0010
0001
,
0020
0000
0000
0130
1000
0000
0000
0000
,
0010
0000
1000
0100
,
0010
0000
0001
0000
,
0010
0000
0001
0100
,
0010
1000
0001
0000
,
0100
0000
0001
0010
,
0100
0000
1000
0000
,
0100
0000
1000
0010
,
0100
0001
1000
0000
,
0100
0000
0010
0100
,
1000
0000
0001
0000
,
0100
0000
0010
0100
,
0001
0000
1000
0100
,
1000
0000
0001
0100
,
0001
0000
1000
0010
,
1000
0000
0001
1000
,
0001
1000
0001
1001
,
0000
1000
0100
1000
,
0100
0010
0000
1001
,
0000
0001
0100
0001
,
0100
0010
0000
1001
,
0000
1000
0001
1000
,
0001
0100
0000
0001
,
1000
0100
0000
1001
,
0000
1000
0100
0010
,
0000
1000
0100
0010
,
0000
0001
0100
0010
,
0000
0001
0100
0010
,
0000
1000
0010
0100
,
0000
0001
0010
0100
,
0000
1000
0100
0000
,
0001
0100
0000
1000
,
0001
0000
0000
1000
0000
0000
0010
0000
0000
0000
0000
0100
,
0000
0010
0000
0100
0000
0000
0001
0000
0000
1000
0000
0000
,
0100
0010
0001
0010
,
0001
0010
0001
1000
,
0000
0000
0000
0001
0000
0000
0010
0000
0000
0000
0000
0100
,
0000
0010
0000
0100
0000
0000
1000
0000
0000
0001
0000
0000
,
1000
0000
0000
0010
0000
0000
0000
0110
0000
0000
0000
1001
,
0000
0000
0000
0010
0000
0000
0000
0110
0000
0000
0000
1001
,
0000
0000
0000
1000
0000
0000
0100
0000
0000
0000
0000
0010
,
0000
0100
0000
0010
0000
0000
0001
0000
0000
1000
0000
0000
,
0010
0100
0000
1001
,
0000
1000
0001
0010
,
0000
0000
0000
0001
0000
0000
0100
0000
0000
0000
0000
0010
,
0000
0100
0000
0010
0000
0000
1000
0000
0000
0001
0000
0000
,
0010
0100
1000
0100
,
1000
0001
2000
0000
,
3000
0000
0000
0001
0100
0010
0100
0001
,
1000
0001
0000
0010
0100
0000
1100
0000
,
1001
0000
0000
1000
0100
0010
0100
1000
,
0001
1000
0000
0010
0100
0000
0101
0000
,
1001
0000
0000
0001
0010
0100
0010
0001
,
0100
0010
0000
1000
0100
0000
1100
0000
,
1001
0000
0001
0001
1000
1000
0001
0100
,
0010
1000
0020
0030
1000
0000
0100
0000
,
0001
0000
0100
1000
,
0001
1000
0001
0100
,
0010
1000
0100
0100
,
0010
0000
0001
0011
,
0000
0000
1100
0000
,
1000
0001
1000
0010
,
0100
0001
0010
0010
,
0002
0003
0101
0000
,
1100
0000
1001
0000
,
1000
0000
0100
0000
0010
0000
0001
0000
0000
0000
0000
0000
,
0001
0100
1000
0100
,
0001
0000
1000
1010
,
0000
0000
0110
0000
,
0101
0000
0001
0010
,
0100
1000
0010
0010
,
2000
0000
0000
3000
0000
0000
0001
0000
0000
0001
0000
1000
,
0000
0001
0100
1000
,
0100
0001
0100
1000
,
0100
0001
0010
0200
,
0000
1300
1010
0000
,
0000
0110
0000
0101
,
0000
0000
0001
1000
0000
0001
1000
0000
,
0000
0010
0100
0002
,
0000
1003
1000
0001
,
0001
1000
0100
0001
,
0100
1000
0100
0001
,
0100
1000
0010
0200
,
0000
0301
0011
0000
,
0000
0110
0000
1001
,
0000
1000
0100
0010
,
0001
0100
0020
0000
,
0000
0130
2001
0000
,
3002
0000
0000
0000
0000
0000
0013
0100
0020
0000
0000
0000
0000
0000
0000
0000
,
0100
0230
0000
0000
1300
0000
0100
0000
,
0010
0000
0001
0000
0100
0001
1000
0001
,
0100
0020
0130
0001
,
0010
0100
0010
0001
1000
0000
0010
0000
,
0200
0300
0001
0001
,
1000
1000
0100
0100
,
0010
0000
0020
0031
0100
0010
1000
0001
,
0010
0100
0010
0002
0000
0000
0000
0000
,
0000
1003
0000
1100
,
0000
1000
0010
0100
,
0010
1000
0000
0101
,
0000
0001
0010
0100
,
0010
0001
1000
0100
,
0000
1000
0001
0100
,
0000
1010
0000
0011
,
0000
0110
0000
1001
,
0000
0001
0000
0101
,
0000
0001
0010
0100
,
0010
0001
0000
1100
,
0000
1000
0010
0010
,
0000
1000
0001
0100
,
0000
0001
1000
0100
,
0000
0010
0001
1000
,
1000
0002
0000
0203
,
0301
0010
1000
0010
,
0001
1000
0010
0000
,
1000
0010
0001
0010
,
1000
0001
0010
0000
,
0001
0100
0010
0000
,
1000
0100
0010
0000
,
0011
0000
1100
0000
,
1010
0000
0101
0000
,
0010
1000
0100
0010
,
0100
0100
1000
0000
,
0010
0100
0001
1000
,
0010
0000
0000
0000
0100
0000
0000
0000
0010
0000
0000
0000
,
1001
0000
0000
0000
1000
0000
0001
0000
0000
0010
0000
0000
,
0001
0000
0000
0000
0001
0000
1000
0000
0000
0100
0000
0000
,
1000
0010
0100
0001
,
0020
0000
0031
0011
,
0000
1000
1010
0000
,
0001
0100
0010
1000
,
0010
1000
0010
1000
,
0001
0000
1000
1010
,
0000
0001
0011
0000
,
1000
0000
0000
0001
0000
0000
0010
0000
0000
0000
0110
0000
,
0000
0000
1001
0000
0000
0000
0010
0000
0000
0000
0110
0000
,
0000
0000
1001
0000
0000
0000
0001
0000
0000
0101
0000
0000
,
0000
1000
1100
0000
,
0001
0010
0100
0000
,
1001
0000
0001
1000
,
0010
0000
1000
1100
,
0000
0001
0101
0000
,
1000
0010
0100
0001
,
0100
0001
1000
0010
,
0001
0000
0010
0000
2000
3000
0000
0000
;

//--------------- dance-single - Marten vs RGTM ----------------
#NOTES:
     dance-single:
     Marten vs RGTM:
     Medium:
     16:
     :
0000
0000
0000
0000
,
0000
0000
0000
0000
,
0000
1000
0100
0010
0100
1000
1000
0001
,
0000
0100
1000
0100
0001
0000
1001
0000
,
0000
0001
0100
0010
0100
0001
0001
1000
,
0000
0100
0001
0100
1000
0000
1001
0000
,
1000
1000
0001
0001
0100
0100
0010
0010
,
1000
1000
0100
0100
0010
0010
0001
0001
,
1000
0010
1000
0000
0001
0010
0001
0000
1000
0100
1000
0000
0001
0100
0001
0000
,
0020
0000
0000
0000
0000
0000
0000
0000
0000
0130
0000
0000
0010
0000
0000
0000
0001
0000
0000
0000
0000
0000
0000
0000
,
0100
0000
0000
0000
0010
0000
0000
0001
,
0100
0000
0000
0010
0000
0000
1000
0000
0100
0000
0000
0000
,
0010
0000
0000
0000
1000
0000
0000
0100
,
0010
0000
0000
0001
0000
0000
0100
0000
0001
0000
0000
0000
,
0010
0000
0000
0000
0100
0000
0000
0001
,
0010
0000
0000
0100
0000
0000
1000
0000
0010
0000
0000
0000
,
0100
0000
0000
0000
1000
0010
0000
0000
,
0100
0000
0000
0000
0000
0000
0010
0000
0000
0100
0000
0000
0010
0000
0000
0000
1000
0000
0000
0000
0000
0000
0000
0000
,
0100
0000
0000
0000
0010
0000
0000
1000
,
0100
0000
0000
0010
0000
0000
0001
0000
0100
0000
0000
0000
,
0010
0000
0000
0000
0001
0000
0000
0100
,
0010
1000
0001
0010
,
0001
1000
0010
0100
,
0010
1000
0001
0010
,
0100
0010
0001
0100
,
1000
0100
0001
1001
,
0000
0000
0001
0100
0000
0100
0001
0000
,
1000
0000
0000
0100
0000
0010
0000
0000
0000
0011
0000
0000
,
0000
0000
1000
0100
0000
0100
1000
0000
,
0001
0000
0000
0100
0000
0010
0000
0000
0000
1010
0000
0000
,
0000
0000
1000
0010
0000
0010
1000
0000
,
0001
0000
1000
0100
0000
0000
0010
0100
,
0000
0000
1000
0010
0000
0000
0110
0000
,
0000
0000
0000
0100
0000
0000
0001
0000
0000
0000
0100
0000
0000
0000
0000
0000
0000
0000
1010
0000
0000
0000
0000
0000
,
0000
0000
0001
0010
0000
0001
0100
0000
,
0001
0000
0000
1000
0000
0100
0000
0000
0000
0011
0000
0000
,
0000
0000
1000
0010
0000
1000
0100
0000
,
1000
0000
0000
0001
0000
0100
0000
0000
0000
0110
0000
0000
,
0000
0000
1000
0001
0000
0010
0100
0000
,
1000
0000
0001
0100
0001
0000
0010
0000
,
0000
0100
1000
0000
0100
0000
0010
0000
,
0001
0000
0000
1000
0000
0000
0010
0000
0000
0100
0000
0010
,
0000
0000
0100
0000
0000
0000
0010
0000
0000
0000
0000
0000
1000
0000
0000
0001
0000
0000
1000
0000
0000
0000
0000
0000
,
0002
0013
0010
0010
,
0010
0000
0000
0010
0000
0000
0010
0000
0000
0010
0000
0100
,
0000
1000
0000
0001
0000
0000
0100
0000
0000
0010
0000
0100
,
0000
0000
0010
0000
0000
0000
0100
0000
0000
0000
0000
0000
0001
0000
0000
1000
0000
0000
0001
0000
0000
0000
0000
0000
,
2000
0000
0000
3010
0000
0100
0000
0010
0000
0000
0000
1001
,
0000
0000
0000
0100
0000
0010
0000
0100
0000
0000
0000
1001
,
0000
0000
0000
0001
0000
0000
0010
0000
0000
0100
0000
0010
,
0000
0000
0100
0000
0000
0000
0010
0000
0000
0000
0000
0000
0001
0000
0000
1000
0000
0000
0001
0000
0000
0000
0000
0000
,
2000
0000
3010
0100
0000
0001
0010
0000
,
0100
0000
0000
1000
0000
0000
0100
0000
0000
0000
0000
0000
0010
0000
0000
0000
0000
0000
0001
0000
0000
0000
1000
0000
,
0000
0001
0000
1000
0000
0000
0010
0000
0000
0100
0000
0010
,
0000
0000
0100
0000
0000
0000
0010
0000
0000
0000
0000
0000
1000
0000
0000
0001
0000
0000
1000
0000
0000
0000
0000
0000
,
0002
0000
0013
0000
0100
0010
0100
0000
,
1000
0100
1000
0000
2002
0000
0000
0000
,
3003
0000
0000
0001
0100
0010
0100
0001
,
0001
1000
0000
0100
0001
0100
1000
0000
,
1001
0000
0000
1000
0100
0010
0100
1000
,
1000
0001
0000
0100
1000
0100
0001
0000
,
1001
0000
1000
0010
0100
0010
1000
0100
,
0010
0001
0000
0001
0100
1000
0010
0000
,
1001
0000
0000
0000
0001
0010
0001
0000
1000
0010
1000
0000
0001
0100
0001
0000
,
1000
0100
1000
0000
0020
0000
0130
0000
0010
0000
0000
0000
1000
0000
0000
0000
,
1010
0000
1000
0001
,
0011
0000
0010
0100
1000
0000
0001
0000
,
0001
0000
1000
0000
0001
0100
0010
0000
,
1000
0100
0010
0000
0100
0000
1100
0000
,
0000
0001
0101
0000
,
0110
0000
0010
1000
0001
0000
0100
0000
,
1000
0000
0100
0000
0001
0000
0010
0100
,
2000
3000
1001
1000
,
0010
0010
0100
0100
,
0001
0000
0010
0000
0100
0000
1000
0000
0000
0100
0000
0000
,
0001
0000
0100
0000
0010
0000
0001
0100
,
0010
0100
0001
0101
,
0000
1000
1100
0000
,
1001
0000
0000
0001
0000
0000
1000
0000
0000
0000
1010
0000
,
0000
0000
1000
0000
0001
0000
0010
0000
0000
0000
0011
0000
,
0000
0000
0000
0000
0110
0000
0000
0000
0000
0000
0000
0000
1000
0000
0000
0001
0000
0000
1000
0000
0000
0000
0001
0000
,
0000
0011
0010
0100
,
1000
0010
0001
0100
,
1000
0000
0010
0000
1000
0001
2000
0000
,
0000
0000
0000
3001
0000
0000
0010
0000
0000
0000
0000
0100
,
0000
1000
0000
1010
0000
0000
0010
0000
0000
0100
0000
0000
,
1000
0000
0100
0001
0000
0100
0001
0000
,
0010
0000
0000
0100
0000
0000
1000
0000
0000
0001
0000
1000
,
0000
0001
0000
1001
0000
0000
1000
0000
0000
0010
0000
0000
,
0010
0000
0000
0100
0000
0000
0001
0000
0000
0010
0000
0100
,
0000
0010
0000
0100
0000
0000
1000
0000
0000
0001
0000
1000
,
0000
0001
0000
1000
0000
0000
0010
0000
0000
0002
0000
0000
,
0000
0000
0000
0013
0000
0000
1000
0000
0000
0000
0000
0100
,
0000
0000
0010
0000
0000
0000
0011
0000
0000
0000
0000
0000
0001
0000
0000
1000
0000
0000
0001
0000
0000
0000
0000
0000
,
0100
0000
0010
1000
0000
0010
1000
0000
,
0100
1000
0100
0000
0020
0000
0000
0000
,
0000
0000
0000
0000
0130
0000
0000
0000
1001
0000
0000
1000
0000
0000
0100
0000
,
0010
0000
0000
0000
0000
0000
0001
0000
0000
0000
0000
0000
0100
0000
0000
0000
0010
0000
0000
0000
0000
0000
0000
0000
1000
0000
0000
0001
0000
0000
1000
0000
,
0100
0000
0000
0010
0000
0000
0000
0000
0001
0000
0100
0000
0010
0000
0100
0000
,
0001
0010
1000
0010
0001
0100
0010
1000
,
0100
0000
0010
0100
1000
0000
0000
0000
1000
0000
0100
0000
0001
0000
0100
0000
,
1000
0000
0010
0000
0100
0000
0010
0000
1000
0000
0000
0001
0000
0000
0010
0000
,
0200
0000
0000
0000
0300
0000
0000
0000
1000
0000
0001
0100
0000
0001
0100
0000
,
0010
0100
0000
0100
0010
0000
0100
0000
0001
0000
1000
0100
0000
1000
0100
0000
,
0010
0100
0000
0100
0020
0000
0130
0000
1000
0000
0001
0000
0100
0000
0010
0000
,
1000
0000
0001
1000
0001
1000
0200
0000
0000
0000
0000
0000
0000
0000
0000
0000
,
0000
1300
0001
0000
1000
0010
0000
0010
,
1000
0001
1000
0100
,
0010
0000
0001
0000
1000
0100
0000
0100
,
1000
0001
0100
0110
,
0000
0000
1000
0000
0010
0100
0000
0010
,
1000
0001
1000
0000
0100
0000
0010
0000
,
0001
0100
0000
0101
,
0000
0000
1000
0010
0000
0010
0100
0000
,
0001
0000
1000
0000
0001
0010
0000
0010
,
0001
1000
0001
0100
,
0010
0000
1000
0000
0001
0100
0000
0100
,
0001
1000
0100
0110
,
0000
0000
0001
0000
0010
0100
0000
0010
,
0001
1000
0001
0000
0100
0000
0010
0000
,
1000
0100
1000
0010
,
0001
0000
0020
0000
0000
0000
0130
0001
,
1000
0100
1100
0000
,
0001
0100
0101
0000
,
1000
0010
1010
0000
,
0001
0000
0010
0000
0100
0010
0100
0010
,
0001
0100
1010
0000
,
1000
0100
0011
0000
,
0001
0000
0000
0100
0000
0000
0010
0000
1000
0000
0001
0000
,
1000
0000
0001
0000
0010
0000
0100
1000
,
0001
0100
0110
0000
,
1000
0000
0100
0000
0010
0001
0010
0001
,
1000
0000
0000
0000
0000
0000
0001
0000
0100
0000
0001
0000
,
0010
0000
0000
0000
0100
0000
1000
0000
0100
0000
1000
0000
,
0010
0000
0000
0000
0000
0000
0000
0000
1000
0000
0000
0000
0001
0000
0000
0000
0000
0000
0010
0000
0000
0001
0000
0000
,
0010
0000
0000
0000
0000
0000
0000
0000
0001
0000
0000
0000
1000
0000
0000
0000
0000
0000
0010
0000
0000
0100
0000
0000
,
0010
0010
0100
0100
,
0002
0000
0003
0000
0001
0000
0010
0001
,
0010
0100
1000
0010
,
0100
0010
2000
0000
3010
0000
0010
0000
,
0010
0010
0010
0010
,
0010
0000
0000
0000
0100
0000
0000
0000
0001
0000
0000
0000
1000
0000
0000
0000
0000
0000
0100
0000
0000
1000
0000
0000
,
0100
0010
0001
0100
,
0010
0000
0000
1000
0000
0000
0002
0000
0000
0000
0000
0000
0013
0000
0000
0000
0100
0000
0000
0000
0010
0000
0000
0000
,
0000
0000
1001
0000
0000
0000
0100
0000
0010
0000
0100
0000
,
0000
0000
0000
0000
1001
0000
0000
0000
0000
0000
0000
0000
1000
0000
0000
0000
0000
0000
0010
0000
0000
1000
0000
0000
,
0010
0100
0001
0010
,
0100
0010
0002
0000
0013
0100
0000
1000
,
0010
0000
0100
0001
0100
0000
0010
0000
,
1000
0000
0000
0000
0001
0000
0000
0000
1000
0000
0000
0000
0001
0000
0000
0000
0000
0000
0100
0000
0000
0001
0000
0000
,
0100
0010
1000
0100
,
0010
0001
2000
0000
3010
0000
0100
0010
,
0100
0000
0001
0100
0001
0000
1000
0000
,
0100
0010
0100
0010
0002
0003
0000
0000
;

//--------------- dance-single - Marten vs RGTM ----------------
#NOTES:
     dance-single:
     Marten vs RGTM:
     Hard:
     18:
     :
0000
0000
0000
0000
,
0000
0000
0000
0000
,
0001
0100
0010
1000
0001
0100
0100
1000
,
0100
1000
0010
0001
0010
0000
1010
0000
,
1000
0100
0010
0001
1000
0100
0100
0001
,
0100
0001
0010
1000
0010
0000
0011
0000
,
0001
0020
0100
0130
1000
0020
0100
0130
,
0001
0200
0010
0310
1000
0200
0010
0310
,
0001
0010
0100
1000
0001
1000
0010
1000
0100
0010
0001
0010
0100
1000
0001
0100
,
0020
0000
0000
0000
0000
0000
0000
0000
0000
0130
0000
0000
0001
0000
0000
0000
0010
0000
0000
0000
0000
0000
0000
0000
,
0110
0000
0000
0000
0100
0010
0000
0001
,
0100
0000
0000
0010
0000
0000
1000
0000
0100
0000
0000
0000
,
0110
0000
0000
0000
0010
0100
0000
1000
,
0010
0000
0000
0001
0000
0000
0010
0000
1000
0000
0100
0000
,
0110
0000
0000
0000
0010
0001
0000
0100
,
0010
0000
0000
0100
0000
0000
0001
0000
0010
0000
0000
0000
,
0110
0000
0100
0000
1000
0010
0000
0000
,
0110
0000
0000
0000
0000
0000
0100
0000
0000
0010
0000
0000
1000
0000
0000
0000
0001
0000
0000
0000
0010
0000
0000
0000
,
0110
0000
0000
0000
0100
1000
0000
0001
,
0100
0000
0000
0010
0000
0000
1000
0000
0001
0000
0000
0000
,
0110
0000
0000
0000
0001
1000
0000
0010
,
0100
1000
0100
0001
,
0010
1000
0001
0100
,
1000
0010
0100
1000
,
0001
0010
1000
0100
,
0010
1001
0001
1001
,
1000
0000
0010
0001
0000
0010
0100
0000
,
0001
0000
0000
0010
0000
0100
0000
0000
0000
1001
0000
0000
,
1000
0000
0001
0010
0000
1000
0010
0000
,
0001
0000
0000
0100
0000
0010
0000
0000
0000
1001
0000
0000
,
1000
0000
0100
0001
0000
0100
0010
0000
,
0001
0000
0000
0000
0000
0000
0100
0000
0000
0000
1000
0000
0000
0000
0000
0000
0000
0000
0100
0000
0000
0001
0000
0000
,
0000
0000
0010
0100
0000
0000
1001
0000
,
0001
0000
0000
1000
0000
0000
0100
0000
0000
0000
1000
0000
0000
0000
0000
0000
0000
0000
1010
0000
0000
0000
0000
0000
,
1000
0000
0001
0100
0000
0010
0100
0000
,
0001
0000
0000
1000
0000
0000
0001
0000
0000
0000
0010
0000
0000
0000
0000
0000
0000
0000
0011
0000
0000
0000
0000
0000
,
0001
0000
1000
0100
0000
0010
0100
0000
,
1000
0000
0000
0001
0000
0000
0100
0000
0000
0000
0010
0000
0000
0000
0000
0000
0000
0000
0110
0000
0000
0000
0000
0000
,
0100
0000
0001
0010
0000
0100
1000
0000
,
0001
0000
1000
0100
0010
0000
0100
0000
,
1000
0000
0000
0010
0000
0000
0100
0000
0000
0000
0001
0000
0000
0000
0010
0000
0000
0000
0100
0000
0000
0000
0000
0000
,
1000
0000
0000
0001
0000
0000
0010
0000
0000
0001
0000
0100
,
0000
0000
0010
0000
0000
0000
0110
0000
0000
0000
0000
0000
0100
0000
0000
0010
0000
0000
1000
0000
0000
0000
0000
0000
,
1000
0001
0010
0000
0011
0000
0110
0000
,
0110
0000
0000
1100
0000
0000
1100
0000
0000
1001
0000
0001
,
0000
0100
0000
0010
0000
0000
1000
0000
0000
0001
0000
1000
,
0000
0000
0100
0000
0000
0000
0110
0000
0000
0000
0000
0000
0010
0000
0000
0001
0000
0000
1000
0000
0000
0000
0000
0000
,
0001
0000
0000
0100
0000
0000
0010
0000
0000
0000
1000
0000
0000
0000
1100
0000
0000
0000
0000
0000
0000
0000
0101
0000
,
0000
0000
0000
1000
0000
0001
0000
0011
0000
0000
0000
1010
,
0000
0000
0000
1000
0000
0000
0100
0000
0000
1000
0000
0010
,
0000
0000
0100
0000
0000
0000
0110
0000
0000
0000
0000
0000
0010
0000
0000
0100
0000
0000
0001
0000
0000
0000
0000
0000
,
1000
0001
0010
0100
0000
0100
1000
0000
,
0001
0000
0000
0100
0000
0000
0001
0000
0000
0000
0000
0000
0010
0000
0000
0000
0000
0000
0100
0000
0000
0000
1000
0000
,
0000
0001
0000
0100
0000
0000
0110
0000
0000
0010
0000
1000
,
0000
0000
0001
0000
0000
0000
1001
0000
0000
0000
0000
0000
1000
0000
0000
0001
0000
0000
0010
0000
0000
0000
0000
0000
,
0001
0100
0010
0000
1000
0010
1000
0000
,
0001
1000
0001
0000
0220
0000
0000
0000
,
0330
0000
1000
0100
0010
0001
1000
0100
,
0100
0001
0100
0001
0010
1000
0010
0000
,
0011
0000
0001
0100
0010
1000
0001
0100
,
0100
1000
0100
1000
0010
0001
0010
0000
,
1010
0000
0001
0010
0100
0010
0001
0100
,
0100
1000
0010
0001
0010
1000
0100
0000
,
1001
0000
0000
0000
1000
0010
0100
0001
1000
0001
0010
0001
0100
0010
1000
0010
,
0100
0001
1000
0100
0020
0000
0031
0000
0101
0000
0000
0000
0001
0000
0000
0000
,
1001
0000
1100
1000
,
1001
0000
0001
0100
0010
0000
1000
0000
,
1010
0010
0011
0010
,
1010
0000
1000
0001
0010
0000
0001
0000
,
1000
0000
0000
0000
0010
0000
0000
0000
0100
0000
0000
0000
0001
0000
0000
0000
0000
0000
1000
0000
0000
0100
0000
0000
,
0001
0000
0100
1000
0001
0100
0000
0010
,
0001
0000
0010
1000
0001
0010
0000
0010
,
0002
0003
2000
3000
1001
0000
0001
0000
,
0011
0010
0110
0100
,
1000
0000
0010
0000
0100
0000
0001
0000
0000
0010
0000
0000
,
0011
0000
0001
0000
1000
0010
0100
0001
,
0100
0000
0001
1000
0010
0000
1000
0000
,
0001
0000
0000
0000
0010
0000
0000
0000
0100
0000
0000
0000
1000
0000
0000
0000
0000
0000
0001
0000
0000
0100
0000
0000
,
1000
0000
0000
0000
0000
0000
0100
0000
0000
0001
0000
0000
1000
0000
0000
0000
0010
0000
0000
0000
1010
0000
0000
0000
,
0000
0000
0101
0000
0000
0000
0001
0000
0010
0000
0011
0000
,
0000
0000
0000
0000
1100
0000
0000
0000
0000
0000
0000
0000
0001
0000
0000
1000
0000
0000
0010
0000
0000
0000
0110
0000
,
0000
0000
0001
0100
0010
0000
1000
0100
,
0010
0001
1000
0010
0100
0000
0001
0010
,
0100
0000
1000
0000
0010
0100
0020
0000
,
0000
0000
0000
0030
0000
0000
1000
0000
0000
0000
0000
0000
0100
0000
0000
0000
0000
0000
0010
0000
0000
0000
0001
0000
,
0000
0000
1000
0000
0000
0000
1001
0000
0000
0000
0000
0000
1000
0000
0000
0010
0000
0000
0001
0000
0000
0000
0000
0000
,
0010
0000
0100
0001
0000
0010
0100
0000
,
0001
0000
0000
0100
0000
0000
1000
0000
0000
0000
0000
0000
1010
0000
0000
0000
0000
0000
0010
0000
0000
0000
1000
0000
,
0000
0001
0000
0011
0000
0000
0011
0000
0000
0110
0000
0000
,
0110
0000
0000
0000
0000
0000
0100
0000
0000
1000
0000
0000
0010
0000
0000
0000
0000
0000
0110
0000
0000
0000
0100
0000
,
0000
0000
0001
0000
0000
0000
0010
0000
0000
0001
0000
0000
0100
0000
0000
0000
0000
0000
0110
0000
0000
0000
0010
0000
,
0000
0000
1000
0000
0000
0000
0001
0000
0000
0010
0000
0000
0100
0000
0000
0000
0000
0000
2002
0000
0000
0000
0000
0000
,
0000
0000
0000
3003
0000
0000
0001
0000
0000
0000
0000
0000
0010
0000
0000
0000
0000
0000
0001
0000
0000
0000
0100
0000
,
0000
0000
0010
0000
0000
0000
1010
0000
0000
0000
0000
0000
1000
0000
0000
0100
0000
0000
0001
0000
0000
0000
0000
0000
,
0100
0010
0001
0000
1000
0010
0100
0000
,
1000
0100
0001
0000
0020
0000
0000
0000
,
0000
0000
0000
0000
0130
0000
0000
0000
2001
0000
0000
0001
0000
0000
3001
0100
,
0020
0000
0000
0000
0000
0000
0100
0000
0000
0000
0000
0000
0130
0000
0001
0000
2000
0000
0000
0000
0000
0000
0000
0000
3100
0000
0000
0010
0000
0000
0001
0000
,
0011
0000
0000
1100
0000
0000
0000
0000
1000
0000
0001
0100
0001
0000
0010
0000
,
0001
0000
0100
0000
0010
0000
1000
0000
0001
0000
0010
0100
0010
0000
0001
0000
,
1000
0000
0000
1000
0001
0000
0000
0000
0100
0000
0010
1000
0010
0000
1000
0000
,
0100
0000
0010
0001
0010
0000
0001
0000
1000
0000
0000
1010
0000
0000
0110
0000
,
0202
0000
0000
0000
0303
0000
0000
0000
0001
0000
0100
0010
0000
0100
0001
0000
,
0010
0100
0000
0100
1000
0000
0001
0000
1000
0000
0100
0010
0000
0100
1000
0000
,
0010
0100
0000
0100
0001
0001
1000
0100
0010
0001
0100
0010
0100
0001
1000
0010
,
0100
0010
1000
0001
0010
0100
2000
0000
0000
0000
0000
0000
0000
0000
0000
0000
,
0000
0000
3010
0100
0001
0000
0000
0000
0010
0000
0100
0000
0000
0000
0100
0000
,
1000
0000
0001
0100
0000
1000
0100
0000
,
0001
0000
1000
0000
0010
0100
0000
0100
,
0001
0000
1000
0100
0000
0001
0100
0000
,
1000
0001
0010
0000
0100
0010
0000
0001
,
0100
0010
1000
0000
0001
0010
0100
0010
,
0001
0000
1000
0000
0100
0001
0000
0100
,
1000
0000
0001
0100
0000
1000
0100
0000
,
0001
0000
1001
0000
0001
0200
0000
1300
,
0001
0000
1000
0200
0000
0301
1000
0000
,
0001
0000
1001
0000
1000
0020
0000
0031
,
1000
0000
0001
0010
0100
0000
0110
0000
,
0100
1000
0001
0000
1000
0010
0000
0100
,
0001
1000
0001
0000
0010
0100
1000
0100
,
0010
0000
0001
0000
0100
0010
0001
0000
,
0010
0000
1000
0000
0002
0000
0000
0000
0000
0000
0000
0000
1003
0010
0100
0001
,
1000
0100
1100
1000
,
0001
0000
0100
0000
0101
0000
0001
1000
,
0010
0100
0110
0010
,
1000
0000
0001
0000
0010
0001
0100
0010
,
0100
0001
0011
0010
,
0100
0000
1000
0000
1010
0000
0010
1000
,
0100
0000
0000
0010
0000
0000
0001
0000
0100
0000
0010
0000
,
1000
0001
0010
0100
0010
1000
0010
0001
,
1000
0010
1001
0100
,
0001
0000
0010
0000
0100
0010
0001
0100
,
0010
0000
0000
0100
0000
0000
1001
0000
0001
0000
0100
0000
,
0010
0000
0000
0000
1010
0000
0000
0000
1000
0000
0001
0000
,
0011
0000
0000
0000
0000
0000
0000
0000
0100
0000
0000
0000
1100
0000
0000
0000
0000
0000
0100
0000
0000
1000
0000
0000
,
0010
0000
0000
0000
0000
0000
0000
0000
0100
0000
0000
0000
0101
0000
0000
0000
0000
0000
0001
0000
0000
0100
0000
0000
,
1000
0100
0001
0010
,
0100
1000
0010
0100
0001
0010
0100
1000
0001
0000
0000
0000
0100
0000
0010
0000
,
0001
0010
1010
0010
,
0001
0010
0100
0000
0101
0000
0101
0000
,
0110
0110
1010
1010
,
1001
0000
0000
0000
1000
0000
0000
0000
0001
0000
0000
0000
0010
0000
0000
0000
0000
0000
0100
0000
0000
0010
0000
0000
,
1000
0010
0011
0010
,
1000
0000
0000
0010
0000
0000
0100
0000
0000
1000
0000
0000
0100
0000
0000
0000
1000
0000
0000
0000
1010
0000
0000
0000
,
0000
0000
0011
0000
0000
0000
1000
0000
0001
0000
0101
0000
,
0000
0000
0000
0000
1100
0000
0000
0000
0000
0000
0000
0000
1000
0000
0000
0000
0000
0000
0010
0000
0000
0100
0000
0000
,
1000
0100
0101
0100
,
1000
0100
0010
0000
0100
0010
0000
0010
,
1000
0000
0001
0010
0001
0000
0001
0000
,
0010
0000
0000
0000
0001
0000
0000
0000
1000
0000
0000
0000
0100
0000
0000
0000
0000
0000
0010
0000
0000
0100
0000
0000
,
0001
0100
1100
0100
,
0001
0100
0010
0000
0001
0100
0010
1000
,
0001
0010
0100
1000
0001
0100
0010
1000
,
0100
0001
0100
1000
0002
0003
0000
0000
;

//--------------- dance-single - Marten vs RGTM ----------------
#NOTES:
     dance-single:
     Marten vs RGTM:
     Challenge:
     19:
     :
0000
0000
0000
0000
,
0000
0000
0000
0000
,
1000
0100
0010
0001
1000
0100
0100
0001
,
0100
1000
0001
0010
1000
0000
1001
0000
,
0001
0100
0010
1000
0001
0100
0100
1000
,
0100
0001
1000
0010
0001
0000
1001
0000
,
0001
0020
0100
0031
1000
0020
0100
1030
,
0001
0200
0010
0301
1000
0200
0010
1300
,
0001
1000
0100
0010
0001
0100
1000
0100
0001
0010
0100
1000
0010
0001
0010
1000
,
0200
0000
0000
0000
0000
0000
0000
0000
0000
0310
0000
0000
0001
0000
0000
0000
0011
0000
0000
0000
0000
0000
0000
0000
,
1010
0000
0000
0000
0010
1000
0000
0100
,
0010
0000
0000
0001
0000
0000
0100
0000
0101
0000
0000
0000
,
1010
0000
0000
0000
1000
0001
0000
0010
,
0100
0000
0000
1000
0000
0000
0011
0000
1000
0000
0100
0000
,
1010
0000
0000
0000
0100
1000
0000
0010
,
0100
0000
0000
0001
0000
0000
0010
0000
0011
0000
0000
0000
,
0110
0000
1000
0000
0001
0100
0000
0000
,
1001
0000
0000
0000
0000
0000
1000
0000
0000
0010
0000
0000
0001
0000
0000
0000
1000
0000
0000
0000
0100
0000
0000
0000
,
0110
0000
0000
0000
0100
0001
0000
0010
,
0100
0000
0000
1000
0000
0000
0010
0000
1010
0000
0000
0000
,
0110
0000
0000
0000
0001
1000
0000
0100
,
0010
0000
0000
0001
0000
0000
0010
0000
0011
0000
0000
0000
,
0110
0000
0000
0000
0100
1000
0000
0010
,
0100
0000
0000
0001
0000
0000
1000
0000
0100
0010
0000
0000
,
0001
0000
0000
0000
0000
0000
0100
0000
0000
0010
0000
0000
0100
0000
0000
0000
0001
0000
1000
0000
0001
0000
0000
0000
,
0010
1001
0100
1001
,
0001
0000
1000
0001
0000
0100
0010
0000
,
1000
0000
0000
0100
0000
1100
0000
0000
0000
0011
0000
0000
,
0000
0000
0001
1000
0000
0010
0100
0000
,
0001
0000
0000
1010
0000
0001
0000
0100
0000
0011
0000
0000
,
0000
0000
1000
0001
0000
0010
0100
0000
,
1000
0000
0000
0000
0000
0000
0001
0000
0000
0000
1100
0000
0000
0000
0000
0000
0000
0000
1000
0000
0000
0101
0000
0000
,
0000
0000
0010
0110
0000
0000
1001
0000
,
1000
0000
0000
0010
0000
0000
0001
0000
0000
0000
1000
0000
0000
0000
0100
0000
0000
0000
0110
0000
0000
0000
0000
0000
,
1000
0000
0100
0001
0000
0100
0010
0000
,
0001
0000
0000
1000
0000
0010
0000
0000
0000
0110
0000
0000
,
0001
0000
0100
1000
0000
0100
0010
0000
,
1000
0000
0000
0101
0000
1000
0000
0010
0000
1100
0000
0000
,
0001
0000
0010
1000
0000
0010
0100
0000
,
0010
0000
0000
0000
0000
0000
0001
0000
0000
1000
0000
0000
1010
0000
0000
0000
0000
0000
0010
0000
0000
0000
0100
0000
,
0000
0001
0000
0011
0000
0010
0000
0100
0000
1100
0000
0000
,
1001
0000
0000
0001
0000
0000
0110
0000
0000
1000
0000
0001
,
0000
0000
0010
0000
0000
0000
0110
0000
0000
0000
0000
0000
1000
0000
0000
0001
0000
0000
1001
0000
0000
0000
0000
0000
,
1000
0010
0001
0000
0011
0000
1010
0000
,
0011
0000
0000
1010
0000
0000
0011
0000
0000
1010
0000
1000
,
0000
0100
0000
0001
0000
0000
0110
0000
0000
1000
0000
0001
,
0000
0000
0100
0000
0000
0000
0110
0000
0000
0000
0000
0000
0001
0000
0000
1000
0000
0000
1001
0000
0000
0000
0000
0000
,
0001
0000
0000
0010
0000
0000
1000
0000
0000
0000
0001
0000
0000
0000
0110
0000
0000
0000
0000
0000
0000
0000
1000
0000
,
0000
0001
1000
0001
0000
0100
0000
0110
0000
0000
0000
1000
,
0001
1000
0000
0100
0000
0000
0110
0000
0000
1000
0000
0010
,
0000
0000
0100
0000
0000
0000
0110
0000
0000
0000
0000
0000
0001
0000
0000
1000
0000
0000
1001
0000
0000
0000
0000
0000
,
0001
0100
1000
0100
0001
0010
1000
0000
,
0010
0000
0000
0100
0000
0000
1000
0000
0000
0000
0000
0000
0110
0000
0000
0000
0000
0000
0001
0000
0000
0000
0100
0000
,
0000
1000
0000
0001
0000
0000
0110
0000
0000
1000
0000
0100
,
0000
0000
0010
0000
0000
0000
0110
0000
0000
0000
0000
0000
0001
0000
0000
1000
0000
0000
1001
0000
0000
0000
0000
0000
,
1000
0100
0001
0000
0001
0100
1000
0000
,
0001
0000
0000
0100
0000
0000
0010
0000
0000
0000
0000
0000
1000
0000
0001
0000
1000
0000
0001
0000
1000
0000
0001
0000
,
1000
0000
0001
0000
1000
0000
0001
0000
0000
0100
0000
0000
0010
0000
0000
1000
0000
0000
0001
0000
0000
0100
0000
0000
,
0100
1000
0100
0001
1000
0010
0001
0000
,
1001
0000
1000
0100
0010
0001
1000
0100
,
0100
0001
0100
1000
0001
0010
1000
0000
,
1001
0000
0001
0010
0010
1000
0001
0100
,
0100
1000
0001
0100
1000
0001
0010
0000
,
1001
0000
0000
0000
1000
0100
0001
0100
1000
0010
0100
0001
0010
1000
0010
0001
,
0100
0010
1000
0100
0002
0000
0103
0000
1100
0000
0000
0000
1001
0000
0000
0000
,
1010
0000
0101
1001
,
0011
0000
0001
0100
0010
0000
1000
0000
,
0110
0001
0110
1010
,
0101
0000
0001
0010
0100
0000
1100
0000
,
1000
0000
0010
0000
1000
0000
0010
0000
0000
0100
0000
0000
0001
0000
0000
0010
0000
0000
0001
0000
0000
0100
0000
0000
,
0010
0000
1001
0000
0001
0010
1000
0010
,
0100
0000
0000
0000
0000
0000
1000
0000
0100
0000
1000
0000
0100
0000
0000
0010
0000
0000
0000
0000
0000
0001
0000
0000
,
0100
1001
1010
0001
,
1010
0001
1010
0001
,
1010
0000
0001
0000
1000
0000
0011
0000
0000
1000
0000
0000
,
0011
0000
0011
0000
1001
0000
0001
0100
,
0010
1000
0001
0011
,
0001
0000
0000
0000
0100
0000
0000
0000
1000
0000
0000
0000
1100
0000
0000
0000
0000
0000
0100
0000
0000
0001
0000
0000
,
1001
0000
1000
0000
0010
0000
0001
0000
1000
0000
0110
0000
,
0000
0000
1000
0000
0001
1000
0001
0000
0100
0000
0110
0000
,
0000
0000
0000
0000
1000
0000
0001
0000
1000
0000
0000
0000
0001
0000
0000
0010
0000
0000
0011
0000
0000
0000
0001
0000
,
0100
0000
0010
0000
0000
0000
1000
0000
0000
0001
0000
0000
0010
0000
0000
0001
0000
0000
1000
0000
0000
0000
0100
0000
,
0010
0001
0000
0100
0000
0010
1000
0001
0000
0010
0000
0100
,
1000
0000
0001
0000
0000
0000
0100
0000
0000
0000
0000
0000
0100
0000
0000
0010
0000
0000
2002
0000
0000
0000
0000
0000
,
0000
0000
0000
3003
0000
0000
1000
0000
0000
0000
0000
0000
0011
0000
0000
0000
0000
0000
1000
0000
0000
0000
0100
0000
,
0000
0000
0001
0000
0000
0000
0110
0000
0000
0000
0000
0000
0001
0000
0000
1000
0000
0000
0010
0000
0000
0000
0000
0000
,
0110
0000
0100
0001
1000
0100
0010
0000
,
1000
0000
0000
0010
0000
0000
0001
0000
0000
0000
0000
0000
0110
0000
0000
0000
0000
0000
1000
0000
0000
0000
0001
0000
,
0000
0100
0000
0110
0000
0000
1100
0000
0000
0101
0000
0000
,
1100
0000
0000
0001
0000
1000
0100
0010
0000
0001
0000
1000
,
0000
1001
0000
0001
0000
0100
0010
1000
0000
0100
0000
0010
,
0000
0110
0000
0001
0000
0000
1000
0000
0000
0220
0000
0000
,
0000
0000
0000
0330
0000
0000
0001
0000
0000
0000
0000
0000
1010
0000
0000
0000
0000
0000
0100
0000
0000
0000
1000
0000
,
0000
0000
0010
0000
0000
0000
0110
0000
0000
0000
0000
0000
0100
0000
0000
0001
0000
0000
1000
0000
0000
0000
0000
0000
,
0100
0001
1000
0000
0010
0001
1000
0000
,
0010
0000
0000
0001
0000
0000
1000
0000
0000
0000
0000
0000
0100
0000
0010
0000
0100
0000
0010
0000
0100
0000
0010
0000
,
0100
0000
0000
0000
0010
0000
0000
0000
0100
0000
0000
0000
0020
0000
0000
0030
0000
0000
0000
0000
0000
0000
0000
0000
1002
0000
0000
0000
0000
0000
0000
0000
0000
0203
0000
0000
0000
0000
0000
0000
0000
0000
1300
0000
0000
0001
0000
0000
,
2000
0000
0000
0000
0000
0000
3200
0000
0000
0000
0000
0000
0301
0000
1000
0000
0002
0000
0000
0000
0000
0000
0000
0000
0023
0000
0000
2030
0000
0000
3002
0000
,
0203
0000
1300
0002
1000
0000
0003
0000
1000
0000
0010
1000
0100
0000
0001
0000
,
0100
0000
0010
0001
0000
0100
1000
0000
0100
0010
1000
0001
0010
0000
0100
0000
,
1000
0000
0000
1000
0020
0000
0000
0000
1030
0000
0100
1000
0010
0000
0001
0000
,
0010
0000
0100
0001
0000
0010
1000
0000
0010
0000
0001
0100
0000
1000
0100
0000
,
0020
0000
0000
0000
0030
0000
0000
0000
1000
0000
0001
0010
0000
0010
1000
0000
,
1000
0100
0000
0100
0001
0000
1000
0000
0001
0000
1000
0010
0000
0010
0001
0000
,
0001
0100
0000
0100
1000
1000
0001
0010
0100
1000
0010
0001
0010
1000
0100
0010
,
0001
0100
1000
0100
0001
1000
0200
0000
0000
0000
0000
0000
0000
0000
0000
0000
,
0000
0000
0310
0001
1000
0000
0000
0000
0001
0000
0010
0000
0000
0000
0100
0000
,
0001
0000
1000
0010
0000
0100
1000
0000
,
0001
1000
0001
0000
1000
0010
0000
0100
,
1000
0000
0001
0010
0000
0100
0001
0000
,
1000
0001
1000
0000
0100
0001
0000
0100
,
1000
0010
0001
0000
0010
1000
0100
1000
,
0001
0000
1000
0000
0001
0010
0000
0010
,
1000
0000
0001
0100
0000
0100
1000
0000
,
0001
1000
1001
0000
0001
0010
0100
0010
,
1000
0000
0010
0100
0000
0100
1000
0000
,
0001
1000
0001
0000
1000
0010
0100
0010
,
0001
0000
0010
1000
0100
0000
1001
0000
,
1000
0000
0001
0000
1000
0000
0001
0000
0000
0000
0000
0000
0100
0000
0000
1000
0000
0000
0000
0000
0000
0100
0000
0000
,
0001
0010
1000
0000
0010
0001
0100
0001
,
1000
0000
0000
0000
0000
0000
0001
0000
0000
0100
0000
0000
0010
0000
1000
0000
0010
0000
1000
0000
0000
0100
0000
0000
,
0010
0000
0000
0000
0001
0000
0000
0000
0010
0000
0000
0000
0001
0000
0000
0000
0000
0000
1000
0000
0000
0000
0000
0000
0010
0000
0000
0000
0100
0000
0000
0000
0010
0000
0000
0000
0100
0000
0000
0001
0000
0000
0010
0000
0000
0100
0000
0000
,
1000
0010
0101
0100
,
0001
0000
0000
0010
0000
0000
1100
0000
0000
1000
0001
1000
,
0001
0100
1010
0010
,
1000
0000
0100
0000
0010
1000
0010
0001
,
1000
0001
0011
0100
,
1000
0000
0000
0010
0000
0000
1010
0000
0000
1000
0001
1000
,
0001
0000
0000
0100
0000
0000
0011
0000
1000
0000
0001
0000
,
1100
0000
0000
0000
0000
0000
0001
0000
1000
0000
0001
0000
1000
0000
0001
0000
1000
0000
0001
0000
0000
0100
0000
0000
,
0010
0100
1001
0100
,
0010
0000
0100
0000
0001
0010
0100
1000
,
0101
0000
0000
1000
0000
0000
0001
0000
0100
0000
0010
0000
,
1010
0000
0000
0000
1001
0000
0000
0000
0011
0000
0010
0000
,
0110
0000
0000
0000
0000
0000
0000
0000
0001
0000
0000
0000
0101
0000
0000
0000
0000
0000
0010
0000
0000
1000
0000
0000
,
0001
0000
0000
0000
0000
0000
0000
0000
1000
0000
0000
0000
1100
0000
0000
0000
0000
0000
0010
0000
0000
0001
0000
0000
,
0100
0100
0010
0010
,
1000
0100
0001
0100
1000
0100
0001
0100
1000
0000
0000
0000
0101
0000
1000
0000
,
0001
0000
0010
0000
0011
0000
0001
1000
,
0101
1000
0001
0100
1000
0000
1100
0000
,
0101
1100
0101
1100
,
0101
0000
0000
0000
0001
0000
0000
0000
0010
0000
0000
0000
0001
0000
0000
0000
0000
0000
1100
0000
0000
0001
0000
0000
,
1000
0000
0010
0000
1010
0000
1000
0001
,
1100
0000
0000
0001
0000
0000
1000
0000
0000
0100
0000
0000
0001
0000
0000
0000
1000
0000
0000
0000
0110
0000
0000
0000
,
0000
0000
0001
0000
1000
0001
1000
0000
0010
0000
0110
0000
,
0000
0000
0000
0000
0001
0000
1000
0000
0001
0000
0000
0000
0100
0000
0000
0000
0000
0000
0011
0000
0000
1000
0000
0000
,
0001
0000
0100
0000
0101
0000
0001
1000
,
0011
1000
0001
0010
1000
0010
0001
0100
,
1000
0000
0100
0010
1000
0000
0110
0000
,
0100
0000
0000
0000
0001
0000
0000
0000
0010
0000
0000
0000
0001
0000
0000
0000
0000
0000
1010
0000
0000
0001
0000
0000
,
1000
0000
0100
0000
1100
0000
1000
0001
,
1010
0001
1000
0010
0001
0010
1000
0001
,
0010
0100
1000
0001
0010
1000
0010
0001
,
1000
0000
0001
0000
1000
0000
0001
0000
1000
0000
0001
0000
0200
0000
0000
0300
0000
0000
0000
0000
0000
0000
0000
0000
;
