#TITLE:Shapeshifter;
#SUBTITLE:;
#ARTIST:Avans;
#TITLETRANSLIT:;
#SUBTITLETRANSLIT:;
#ARTISTTRANSLIT:;
#GENRE:;
#CREDIT:;
#BANNER:Shapeshifter.png;
#BACKGROUND:Shapeshifter-bg.png;
#LYRICSPATH:;
#CDTITLE:;
#MUSIC:Shapeshifter.ogg;
#OFFSET:0.000000;
#SAMPLESTART:32.238998;
#SAMPLELENGTH:15.000000;
#SELECTABLE:YES;
#DISPLAYBPM:134.000000;
#BPMS:0.000000=134.000000
,204.000000=268.000000
,207.000000=134.000000
,212.000000=268.000000
,216.000000=134.000000
,228.000000=268.000000
,228.500000=134.000000
,228.833328=268.000000
,229.500000=134.000000
,230.000000=268.000000
,230.500000=134.000000
,230.833328=268.000000
,232.500000=134.000000
,232.833328=268.000000
,233.500000=134.000000
,234.000000=268.000000
,234.500000=134.000000
,234.833328=268.000000
,235.500000=134.000000
,236.000000=268.000000
,236.500000=134.000000
,236.833328=268.000000
,238.500000=134.000000
,238.833328=268.000000
,240.000000=134.000000
;
#STOPS:204.000000=0.111000,
204.500000=0.111000,
205.000000=0.111000,
205.500000=0.111000,
206.000000=0.111000,
206.500000=0.111000,
212.000000=0.112000,
212.500000=0.112000,
213.000000=0.112000,
213.500000=0.112000,
214.000000=0.112000,
214.500000=0.112000,
215.000000=0.112000,
215.500000=0.112000,
228.000000=0.112000,
228.833328=0.149000,
230.000000=0.112000,
230.833328=0.261000,
232.000000=0.112000,
232.833328=0.149000,
234.000000=0.112000,
234.833328=0.149000,
236.000000=0.112000,
236.833328=0.149000,
237.500000=0.112000,
238.000000=0.112000,
238.833328=0.149000,
239.500000=0.112000
;
#BGCHANGES:0.000=Shapeshifter.mp4=1.000=0=0=0=StretchNoLoop====,
99999=-nosongbg-=1.000=0=0=0 // don't automatically add -songbackground-
;
#KEYSOUNDS:;
#ATTACKS:;

//---------------dance-single - Marten----------------
#NOTES:
     dance-single:
     Marten:
     Beginner:
     3:
     0.179988,0.239561,0.177453,0.088726,0.000000,142.000000,122.000000,20.000000,10.000000,0.000000,0.000000,0.179988,0.239561,0.177453,0.088726,0.000000,142.000000,122.000000,20.000000,10.000000,0.000000,0.000000:
// measure 0
0000
0000
0000
0000
,  // measure 1
0000
0000
0000
0000
,  // measure 2
0000
0000
0000
0000
,  // measure 3
0000
0000
0000
0000
,  // measure 4
0000
0000
0000
0000
,  // measure 5
0000
0000
0000
0000
,  // measure 6
1000
0000
1001
0000
,  // measure 7
0001
0000
1001
0000
,  // measure 8
0100
0000
0010
0000
,  // measure 9
0100
0000
0100
0000
,  // measure 10
0002
0000
0000
0003
,  // measure 11
2000
0000
0000
3000
,  // measure 12
0020
0030
0200
0300
,  // measure 13
0010
0010
0020
0030
,  // measure 14
1000
0000
1000
0000
,  // measure 15
0001
0000
0001
0000
,  // measure 16
0010
0000
0100
0000
,  // measure 17
0220
0000
0000
0330
,  // measure 18
0001
0000
0001
0001
,  // measure 19
1000
0000
1000
1000
,  // measure 20
0001
0000
1000
0000
,  // measure 21
0001
1000
1001
0000
,  // measure 22
0010
0000
0010
0010
,  // measure 23
0100
0000
0100
0100
,  // measure 24
0010
0000
0100
0000
,  // measure 25
0010
0100
0110
0000
,  // measure 26
1000
0000
1000
1000
,  // measure 27
0001
0000
0001
0001
,  // measure 28
1000
0000
0001
0000
,  // measure 29
1000
0001
1001
0000
,  // measure 30
0100
0000
0100
0100
,  // measure 31
0010
0000
0010
0010
,  // measure 32
0100
0000
0010
0000
,  // measure 33
0100
0010
0110
0000
,  // measure 34
1001
0000
0001
0000
,  // measure 35
0100
0000
1000
0000
,  // measure 36
0100
0000
0001
0000
,  // measure 37
0010
0000
0100
0000
,  // measure 38
1001
0000
1000
0000
,  // measure 39
0100
0000
0001
0000
,  // measure 40
0100
0000
1000
0000
,  // measure 41
0010
0000
0100
0000
,  // measure 42
1001
0000
0001
0000
,  // measure 43
0010
0000
0100
0000
,  // measure 44
1000
0000
0001
0002
,  // measure 45
0000
0003
1000
0000
,  // measure 46
0100
0000
0110
0000
,  // measure 47
0001
0000
1000
0000
,  // measure 48
2002
0000
0000
3003
,  // measure 49
0100
0100
0100
0000
,  // measure 50
1001
0000
0001
0000
,  // measure 51
0010
0010
0010
0000
,  // measure 52
1001
0000
1000
0000
,  // measure 53
0010
0010
0010
0000
,  // measure 54
1001
0000
0001
0000
,  // measure 55
1000
0000
0001
0000
,  // measure 56
0100
0100
0100
0000
,  // measure 57
0001
0000
1001
0000
,  // measure 58
1000
0000
1001
0000
,  // measure 59
1001
0000
0110
0000
,  // measure 60
1001
0000
0000
0000
;

//---------------dance-single - Marten----------------
#NOTES:
     dance-single:
     Marten:
     Easy:
     8:
     0.330823,0.372651,0.381524,0.257307,0.070981,261.000000,218.000000,43.000000,29.000000,0.000000,0.000000,0.330823,0.372651,0.381524,0.257307,0.070981,261.000000,218.000000,43.000000,29.000000,0.000000,0.000000:
0000
0000
0000
0000
,
0000
0000
0000
0000
,
0000
0000
0000
0000
,
0000
0000
0000
0000
,
0000
0000
0000
0000
,
0000
0000
0000
0000
,
1000
0000
0001
0000
0021
0000
0030
0001
,
0001
0000
1000
0000
1020
0000
0030
1000
,
1000
0100
0010
0001
,
1000
0000
0001
0001
2000
0000
3002
0000
,
0003
0010
0010
0000
0001
0000
1000
0000
,
0000
0010
0010
0000
1000
0000
0001
0000
,
0000
0100
0100
0000
0001
0000
1000
0000
,
0200
0320
0032
0003
,
1000
1010
0010
0100
,
0001
0011
0010
0100
,
1000
0000
0001
0000
1000
1000
0001
0001
,
0020
0000
0000
0030
,
0001
0000
0101
0000
0001
0001
0100
0000
,
0000
0010
1010
1001
,
1000
0100
0020
0001
,
0130
0000
0010
0010
0002
0000
0003
0000
,
1000
0000
1100
0000
1000
1000
0100
0000
,
0000
0010
0011
1001
,
0000
1000
1000
0000
0000
0001
0001
0000
,
0100
0000
0010
0010
2000
0000
3000
0000
,
0001
0000
0011
0000
0001
0001
0010
0000
,
0001
0101
1001
1100
,
0100
1000
0020
0100
,
1030
0000
0100
0100
0020
0000
0130
0000
,
1000
0000
1010
0000
1000
1000
0010
0000
,
1000
1100
1001
0101
,
0000
0001
0001
0000
0000
1000
1000
0000
,
0001
0000
0100
0100
0020
0000
0130
0000
,
0101
0000
0000
0000
0000
0000
0000
0000
0000
0000
0000
0000
0001
0000
0000
0000
0000
0000
0010
0000
0000
0000
0000
0010
,
0000
0000
0000
0000
0000
0000
0100
0000
0000
0000
0000
0000
1100
0000
0000
0000
0000
0000
1000
0000
0000
0000
0000
1000
,
0000
0000
0000
0000
0000
0000
0001
0000
0000
0000
0000
0000
1001
0000
0000
0000
0000
1000
0000
0000
0000
0000
0000
0000
,
0010
0000
0000
0000
0000
0010
0000
0000
0000
0000
0000
0000
0100
0000
0000
0000
0000
0100
0000
0000
0000
0000
0000
0000
,
1001
0001
1000
0100
,
0010
0000
0000
0000
0000
0010
0000
0000
0000
0000
0000
0000
0001
0000
0000
0000
0000
0000
1000
0000
0000
0000
0000
1000
,
0000
0000
0010
0010
0100
0000
0110
0000
,
0010
0000
0000
0000
0000
0000
1000
0000
0000
0000
0000
0000
0001
0000
0000
0000
0000
1001
0000
0000
0000
0000
0000
0000
,
1100
0000
0000
0000
0000
0000
0100
0000
0000
0000
0000
0000
0010
0000
0000
0000
0000
0000
0001
0000
0000
0000
0000
0101
,
0000
0000
0000
0000
0000
0000
0100
0000
0000
0000
0000
0000
0010
0000
0000
0000
0000
0000
1000
0000
0000
0000
0000
1100
,
0000
0000
0000
0000
0000
0000
0100
0000
0000
0000
0000
0000
0010
0000
0000
0000
0000
0000
0011
0000
0000
0000
0000
0110
,
0000
0000
0000
1000
1000
0000
0020
0000
,
0130
0000
0000
0010
0000
0000
0000
0000
0010
0000
0000
0000
0010
0000
0000
0000
0000
0000
1000
0000
0000
0000
0000
0000
,
0001
0000
0000
0000
0000
0010
0000
0000
0000
0010
0000
0000
0000
0000
0000
0000
0000
0000
0110
0000
0000
0000
0000
1001
,
0000
0000
0000
0000
,
0002
2003
3020
0130
,
2001
0000
3002
0000
1003
1000
0001
0000
,
0020
0030
0020
0030
0020
0030
0110
0000
,
1002
0000
2003
0000
3001
0001
1000
0000
,
0020
0030
0020
0030
0200
0300
0200
0300
,
0001
0010
0100
1000
,
0001
1000
0010
0100
,
0001
0001
0001
0000
1000
1000
1000
0000
,
1010
0000
0101
0000
,
0011
0000
1100
0000
,
1001
0000
0000
0000
0000
1001
0000
0000
0000
0000
0000
0000
0110
0000
0000
0000
0000
0110
0000
0000
0000
0000
0000
0000
,
1001
0000
0000
0000
;

//---------------dance-single - Marten----------------
#NOTES:
     dance-single:
     Marten:
     Medium:
     12:
     0.463912,0.479123,0.328288,0.487995,0.155271,366.000000,329.000000,37.000000,55.000000,0.000000,0.000000,0.463912,0.479123,0.328288,0.487995,0.155271,366.000000,329.000000,37.000000,55.000000,0.000000,0.000000:
0000
0000
0000
0000
,
0000
0000
0000
0000
,
0000
0000
0000
0000
,
0000
0000
0000
0000
,
0000
0000
0000
0000
,
0000
0000
0000
0000
,
0001
0010
0100
1000
0020
0000
0030
1000
,
2001
0000
3020
0000
0230
0000
0301
0010
,
0200
0000
1300
0100
0001
0100
1000
0001
,
1000
0000
0010
1000
1020
0000
0230
0000
,
0301
0010
0010
0000
0002
0013
0200
1300
,
0000
0010
0010
0000
2000
3010
0200
0301
,
0000
0010
0010
0000
0002
0103
0020
1030
,
0002
0023
0230
2300
3002
0000
1003
0000
,
1001
1000
0010
0000
1000
0100
0001
0100
,
1000
0010
0100
0000
0001
0100
1000
0100
,
0001
0001
0010
0010
0100
0100
1000
1000
,
2002
0000
0000
3003
,
0001
0010
0010
0002
0203
0010
0310
0000
,
0000
0010
1000
0001
1001
0000
1100
0000
,
0000
1000
1000
0002
2003
0010
3010
0000
,
1000
0100
0001
0100
2000
0000
3001
0000
,
1000
0010
0010
2000
3200
0010
0310
0000
,
0100
0000
1000
0001
1000
0010
0100
0001
,
0200
0001
0301
0000
0002
0010
0013
0000
,
0001
0100
1000
0100
0002
0000
1003
0000
,
1001
0000
0001
0200
0320
0100
0130
0000
,
0010
1000
0100
1000
1001
0000
1010
0000
,
0000
0010
1000
0200
0320
0100
0130
0000
,
1000
0010
0001
0010
2000
0000
3001
0000
,
1001
0000
1000
0200
0320
0100
0130
0000
,
0010
0001
0100
0001
1000
0010
0100
0001
,
0200
0010
0310
0000
2000
0001
3001
0000
,
0001
0010
1000
0010
0002
0000
1003
0000
,
1001
0000
0000
0000
0000
1000
0000
0000
0000
0100
0000
0000
0110
0000
0000
0000
0000
0000
0100
0000
0000
1000
0000
0001
,
0000
0000
0000
0000
0000
0000
0100
0000
0000
0010
0000
0000
1000
0000
0000
0010
0000
0000
0100
0000
0000
0001
0000
1000
,
0000
0000
0000
0000
0000
0000
0100
0000
0000
0010
0000
0000
0011
0000
0000
0000
0000
1001
0000
0000
0000
0000
0000
0000
,
1000
0000
0000
0000
0000
1010
0000
0000
0000
0010
0000
0000
0100
0000
0000
0000
0000
0101
0000
0000
0000
0000
0000
0000
,
1001
0000
0001
0010
0100
0010
0001
0000
,
1000
0000
0000
0010
0000
1000
0000
0000
0000
0001
0000
0000
1000
0000
0000
0100
0000
0000
0010
0000
0001
0000
0000
0011
,
0000
0000
0001
0100
1000
0100
0001
0000
,
1000
0000
0000
0010
0000
0000
0100
0000
0000
0010
0000
0000
1000
0000
0001
0000
0000
1001
0000
0000
0000
0000
0000
0000
,
1100
0000
0000
0000
0000
0000
1000
0000
0000
0001
0000
0000
0010
0000
0000
0001
0000
0000
1000
0000
0000
0001
0000
0100
,
0000
0000
0000
0100
0000
0000
0001
0000
0000
1000
0000
0000
0010
0000
0000
1000
0000
0000
0001
0000
0000
1000
0000
0100
,
0000
0000
0000
0100
0000
0000
0000
0000
0100
0000
0000
0000
0110
0000
0000
0000
0000
0000
0011
0000
0000
0000
0000
2100
,
0000
0000
0000
0000
3010
0100
0010
0000
,
1000
0000
0000
1001
0000
0000
0000
0000
0011
0000
0000
0000
1100
0000
0000
0000
0000
0000
1000
0000
0000
0000
0000
0000
,
0001
0000
0100
0000
0000
0001
0000
0000
0000
1000
0000
0000
0000
0000
0000
0000
0000
0000
1010
0000
0000
0000
0000
0202
,
0000
0000
0000
0303
,
0002
0000
0000
2003
0000
0000
3010
0100
0010
0100
0000
0000
,
1002
0000
0013
0100
0010
0100
1000
0000
,
0002
0013
2000
3010
0002
0013
0100
0000
,
2001
0000
3010
0100
0010
0100
0001
0000
,
2000
3010
0020
0130
0200
0301
0002
1003
,
2000
0000
0000
3001
0010
0001
0010
0000
0000
0100
1000
0100
,
1000
0000
0000
0001
1000
0001
1000
0010
0100
0001
0000
0000
,
1000
0010
0100
0001
0010
0100
1000
0000
,
0001
0000
0000
0000
0000
0011
0000
0000
0000
0000
0000
0000
1000
0000
0000
0000
0000
1010
0000
0000
0000
0000
0000
0000
,
0001
0000
0000
0000
0000
0101
0000
0000
0000
0001
0000
0000
1000
0000
0000
0000
0000
1100
0000
0000
0000
1000
0000
0000
,
0001
0000
0000
0000
0000
0011
0000
0000
0000
0001
0000
0000
1000
0000
0000
0000
0000
1010
0000
0000
0000
1000
0000
0000
,
1001
0000
0000
0000
;

//---------------dance-single - Marten----------------
#NOTES:
     dance-single:
     Marten:
     Hard:
     15:
     0.692066,0.852957,0.576722,0.647703,0.638830,546.000000,481.000000,65.000000,73.000000,0.000000,0.000000,0.692066,0.852957,0.576722,0.647703,0.638830,546.000000,481.000000,65.000000,73.000000,0.000000,0.000000:
0000
0000
0000
0000
,
0000
0000
0000
0000
,
0000
0000
0000
0000
,
0000
0000
0000
0000
,
0000
0000
0000
0000
,
0000
0000
0000
0000
,
1000
0000
0000
0100
0000
0000
0010
0000
0000
0001
0000
0000
0012
0000
0000
0000
0000
0000
0000
0000
0000
0103
0000
0010
,
2000
0000
0000
0000
3010
0000
0000
0000
0210
0000
0000
0000
0301
0000
0010
0100
,
1000
0000
0000
0010
0000
0000
0100
0000
0000
0010
0000
0000
1010
0000
0000
1000
0000
0001
0000
0000
0010
0001
0000
0010
,
0100
0000
1000
0010
0210
0000
0302
0000
,
1003
0000
0000
0100
0000
1000
0100
0000
0000
0000
0000
0000
0020
0000
0000
1030
0000
0000
0020
0000
0000
0031
0000
0000
,
0000
0000
0000
0100
0000
0001
0100
0000
0000
0000
0000
0000
0020
0000
0000
0031
0000
0000
0020
0000
0000
1030
0000
0000
,
0000
0000
0000
0001
0000
0010
0001
0000
0000
0000
0000
0000
2000
0000
0000
3100
0000
0000
0002
0000
0000
0103
0000
0000
,
2000
0000
0000
3020
0000
0000
0032
0000
0000
0203
0000
0000
2300
0000
0000
0000
0000
0000
3010
0000
0010
0100
0000
0000
,
0101
0000
0000
0001
0000
1000
0100
0000
0000
0010
0000
0000
0100
0000
0000
0001
0000
0000
0100
0000
0000
0010
0000
0000
,
0001
0000
0000
1000
0000
0001
0100
0000
0000
0010
0000
0000
0100
0000
0000
1000
0000
0000
0100
0000
0000
0010
0000
0000
,
1000
0000
0100
1000
0000
0100
1000
0000
0001
1000
0000
0001
1000
0000
0001
0010
0000
0001
0010
0000
0100
0010
0000
0100
,
0020
0000
0000
0000
0000
0000
0000
0000
0000
0000
0000
0000
0031
0000
1000
0010
0000
0100
0001
0000
0000
1000
0000
0000
,
1001
0000
0000
0000
0000
0000
0001
0000
0000
0000
0100
0000
0010
0000
0000
0000
0000
0000
2000
0000
0000
0000
0000
0000
3002
0000
0000
0000
0000
0000
0013
0000
0000
0100
0000
0000
2000
0000
0000
0000
0000
0000
3000
0000
0000
0000
0000
0000
,
0001
0100
1000
0100
0102
1003
1001
0000
,
1000
0000
0000
0010
0000
1000
0100
0000
0000
1000
0000
0000
0001
0000
0000
0010
0000
0001
0100
0000
0000
0001
0000
0000
,
2000
0000
0000
0100
0000
0000
3002
0000
0000
0010
0000
0000
1003
0000
0010
0100
0000
0010
1000
0000
0010
0100
0000
0000
,
1001
0000
0000
0000
0000
0000
1000
0000
0000
0000
0100
0000
0010
0000
0000
0000
0000
0000
0002
0000
0000
0000
0000
0000
2003
0000
0000
0000
0000
0000
3010
0000
0000
0100
0000
0000
0002
0000
0000
0000
0000
0000
0003
0000
0000
0000
0000
0000
,
1000
0000
0000
0001
0000
0010
0001
0000
0000
0100
0000
0000
0120
0000
0000
1030
0000
0000
2010
0000
0000
3001
0000
0000
,
0102
0000
0000
0013
0000
0001
0100
0000
0000
0001
0000
0000
1000
0000
0000
0010
0000
1000
0100
0000
0000
1000
0000
0000
,
0002
0000
0000
0100
0000
0000
2003
0000
0000
0010
0000
0000
3001
0000
0010
0100
0000
0010
0001
0000
0010
0100
0000
0000
,
1001
0000
0000
0000
0000
0000
1000
0000
0000
0000
0010
0000
0100
0000
0000
0000
0000
0000
0002
0000
0000
0000
0000
0000
0023
0000
0000
0000
0000
0000
1030
0000
0000
0010
0000
0000
0001
0000
0000
0000
0000
0000
0000
0000
0000
0000
0000
0000
,
0001
0010
0100
0010
0012
1003
1001
0000
,
1000
0000
0000
0100
0000
0010
0100
0000
0000
1000
0000
0000
0001
0000
0000
0100
0000
0010
0100
0000
0000
0001
0000
0000
,
2000
0000
0000
3020
0000
0000
0032
0000
0000
0203
0000
0000
1300
0000
0001
0010
0000
0001
1000
0000
0001
0010
0000
0000
,
1001
0000
0000
0000
0000
0000
0001
0000
0000
0000
0010
0000
0100
0000
0000
0000
0000
0000
2000
0000
0000
0000
0000
0000
3020
0000
0000
0000
0000
0000
0031
0000
0000
0010
0000
0000
1000
0000
0000
0000
0000
0000
0000
0000
0000
0000
0000
0000
,
1000
0000
0000
0010
0000
1000
0100
0000
0000
0010
0000
0000
0021
0000
0000
0130
0000
0000
2100
0000
0000
3001
0000
0000
,
0102
0000
0000
0103
0000
0010
0100
0000
0000
0001
0000
0000
1000
0000
0000
0100
0000
0010
0100
0000
0000
1000
0000
0000
,
0002
0000
0000
0023
0000
0000
2030
0000
0000
3200
0000
0000
0301
0000
0010
0000
0100
0000
1000
0000
0000
0000
0000
0000
,
1100
0000
0000
1000
0000
0010
0000
0000
0100
0010
0000
0000
0101
0000
0000
0100
0000
0001
0100
0000
0010
1000
0000
0100
,
0000
0000
0010
0001
0000
0010
0100
0000
1000
0001
0000
0010
0001
0000
0000
0100
0000
0000
0010
0000
1000
0001
0000
1001
,
0000
0000
0000
0001
0000
0000
1000
0000
0100
0010
0000
0000
0001
0000
1000
0000
0000
1001
0000
0000
0000
0000
0000
0000
,
0011
0000
0001
0000
0000
0101
0000
0000
0000
0010
0000
0000
1010
0000
1000
0000
0000
1100
0000
0000
0000
0000
0000
0000
,
0101
0000
0000
0001
0000
0000
0010
0000
0000
0100
1000
0100
1000
0000
0000
0001
1000
0001
1000
0000
0010
0000
0000
0000
,
1000
0000
0100
0010
0000
0001
0000
0000
0000
1000
0000
0000
0001
0000
0100
0010
0000
0000
1000
0000
0001
0000
0000
1001
,
0000
0000
0000
0000
0000
1000
0010
0000
0000
0100
0000
0000
0001
0000
0100
1000
0000
0100
0001
0000
0000
0000
0000
0000
,
0002
0000
0000
0010
0000
0000
2003
0000
0000
0010
0000
0000
3001
0000
0100
0000
0000
0110
0000
0000
0000
0000
0000
0000
,
1001
0000
0000
0001
0000
1000
0100
0000
0010
0100
0000
1000
0010
0000
0100
0010
0000
1000
0010
0000
0100
0001
0000
0101
,
0000
0000
0000
0100
0000
0001
0010
0000
0100
0010
0000
0100
1000
0000
0001
1000
0000
0100
0010
0000
0100
1000
0000
1100
,
0000
0000
0000
1000
0000
0000
0001
0000
1000
0000
0000
0000
1001
0000
0000
0000
0000
0000
1010
0000
0000
0000
0000
0201
,
0000
0000
0000
0000
0000
0000
0000
0000
0000
0301
0000
0000
0010
0000
0100
1000
0000
0001
2000
0000
0000
0000
3001
0100
,
0001
0000
0000
0101
0000
0000
0000
0000
0011
0000
0000
0000
1100
0000
0000
0000
0000
0000
1001
0000
0000
0000
0000
0000
,
1000
0000
0010
0000
0000
0100
0001
0000
0000
0010
0000
0000
0000
0000
0000
0000
0000
0000
0011
0000
0000
0000
0000
2200
,
0000
0000
0000
3300
,
1000
0100
0001
0100
1000
0001
0100
1000
0100
0001
0000
0000
,
1001
0000
0000
0000
0000
0000
0001
0000
0000
0100
0000
0000
0010
0000
0010
0100
0000
0000
0001
0000
0000
0000
0000
0000
,
0012
0103
2010
3100
0012
0103
1001
0000
,
1000
0000
0000
0100
0000
0000
0010
0000
0000
0001
0000
0100
0001
0000
0010
0100
0000
1000
0000
0000
0010
0000
0000
0000
,
2010
3001
0012
1003
2100
3001
0102
1003
,
1002
0103
0000
0001
0010
0001
1000
0010
1000
0001
0100
0010
,
1000
0100
0001
1000
0010
0001
0100
0010
1000
0001
0000
0000
,
1000
0010
1000
0010
0100
0001
0100
0001
1000
0100
0010
0001
1000
0000
0000
0000
,
2010
0000
0000
3001
0000
0012
0000
0000
0000
0103
0000
0000
0120
0000
0000
1030
0000
1001
0000
0000
0000
0000
0000
0000
,
2010
0000
0000
3001
0000
0012
0000
0000
0000
1003
0000
0000
2100
0000
0000
3001
0000
0102
0000
0000
0000
1003
0000
0000
,
1020
0000
0000
0130
0000
0102
0000
0000
0000
0013
0000
0000
0021
0000
0000
0130
0000
2100
0000
0000
0000
3010
0000
0000
,
2001
3100
0000
0000
0000
0000
0000
0000
0000
0000
0000
0000
;
