#TITLE:生命の焔纏いて;
#SUBTITLE:;
#ARTIST:WALPULG;
#TITLETRANSLIT:Seimei no honoo matoite;
#SUBTITLETRANSLIT:;
#ARTISTTRANSLIT:;
#GENRE:;
#CREDIT:;
#MUSIC:Seimei no honoo matoite.ogg;
#BANNER:Seimei no honoo matoite.png;
#BACKGROUND:Seimei no honoo matoite-bg.png;
#CDTITLE:;
#SAMPLESTART:80.897;
#SAMPLELENGTH:15.000;
#SELECTABLE:YES;
#OFFSET:-0.027;
#BPMS:0.000=122.667
,32.000=184.000
,192.000=92.000
,200.000=184.000
,216.000=92.000
,218.000=184.000
,298.000=92.000
,306.000=184.000
;
#STOPS:;
#BGCHANGES:;
#FGCHANGES:;

//--------------- dance-single - Marten ----------------
#NOTES:
     dance-single:
     Marten:
     Beginner:
     7:
     0,0,0,0,0:
0000
0000
0000
0000
,
0000
0000
0000
0000
,
0000
0000
0000
0000
,
0000
0000
0000
0000
,
2000
0001
0000
0001
,
3002
0000
0000
0013
,
0200
0300
1000
0001
,
2000
0000
3002
0000
,
0103
0100
0001
0001
,
0010
0100
1000
0000
,
0100
0100
1000
1000
,
1001
0000
0110
0000
,
0001
0010
0001
0001
,
1000
0100
0001
0100
,
1000
0010
1000
1000
,
1001
0000
0110
0000
,
0002
0100
0000
0103
,
2000
0100
0000
3100
,
0002
0010
0000
0013
,
2000
3010
0100
0100
,
0002
0010
0000
1003
,
2000
0010
0000
3001
,
0002
0100
0000
1003
,
2000
0100
0000
3001
,
0020
0000
0030
0001
,
2000
3000
0001
0100
,
0002
0000
0023
0000
,
0130
0100
1000
0001
,
2000
0000
3020
0000
,
0030
0100
0010
1000
,
0002
0000
2003
0000
,
3001
0010
0100
1000
,
0100
0000
0100
0000
,
1000
0010
0100
0001
,
0100
0000
0100
0000
,
0001
0010
0100
1000
,
0002
0003
2000
3000
,
0010
0100
0210
0300
,
0002
0003
2000
3000
,
0100
0010
0210
0300
,
1000
1000
1000
1010
,
0001
0001
0001
0011
,
1000
1010
0001
0011
,
0100
0100
0010
0000
,
0001
0001
0001
0101
,
1000
1000
1000
1100
,
2000
3020
0230
0302
,
0013
0010
0100
0110
,
0002
0003
2000
3000
,
0020
0030
0200
0300
,
0001
0000
0010
0000
,
1000
0000
0100
0000
,
1000
0000
0010
0000
,
0001
0000
0100
0000
,
2002
3003
1000
1000
,
0001
0001
1000
0010
,
0001
0000
0001
0010
,
1000
0000
0001
0011
,
1000
1010
0010
0100
,
0010
0100
0001
0010
,
1000
0000
1000
0010
,
0001
0000
1000
1010
,
0001
0011
0010
0100
,
0010
0100
1000
0100
,
0001
0000
0001
0100
,
1000
0000
0001
0101
,
1000
1100
0001
1000
,
0010
1001
0001
0100
,
1000
0000
1000
0100
,
0001
0000
1000
1100
,
0001
0101
1000
0001
,
0010
1001
0002
0000
,
0023
0000
0230
0000
,
2300
0000
3020
0000
,
0230
0000
0302
0000
,
0000
0013
2001
0000
,
0000
3010
0001
0100
,
1000
0100
0001
0010
,
0100
0000
1000
0100
,
0001
0100
1000
0010
,
0100
0000
2002
0000
,
0000
3003
1001
1001
,
0110
0110
2002
0000
,
0000
0000
3003
0000
;

//--------------- dance-single - Marten ----------------
#NOTES:
     dance-single:
     Marten:
     Easy:
     12:
     0,0,0,0,0:
0000
0000
0000
0000
,
0000
0000
0000
0000
,
0000
0000
0000
0000
,
0000
0000
0000
0000
,
1000
0000
0100
0020
0000
0000
0000
0000
0000
0031
0000
0100
,
0020
0000
0000
0000
0000
0000
0000
0000
0000
1030
0000
1000
,
0200
0000
0000
0310
0002
0000
1003
0000
,
1001
0000
0000
0000
0001
0000
0000
0000
0010
0000
0000
0000
0200
0000
0000
0000
0000
0000
0000
0000
0000
1300
0000
0000
,
0001
0001
1000
1000
,
0010
0001
0100
0000
,
1000
1000
0001
0001
,
0020
1030
0020
0031
,
0001
0011
1000
1010
,
1000
0000
0000
0100
0000
0100
0010
0000
0000
0100
0000
0100
,
1000
1010
0001
0011
,
0001
0000
0100
0001
0000
0000
1000
0000
0100
1000
0000
0000
,
0002
0010
1000
0103
,
2000
0010
0001
3100
,
0002
0100
1000
0013
,
2000
0000
0000
0100
0000
0000
3001
1000
0001
1000
0000
0000
,
0002
1000
0010
1000
,
0203
0000
0000
0010
0000
0000
0001
0000
0000
0310
0000
0010
,
2000
0001
0100
0001
,
3100
0000
1000
0001
0000
0000
0100
0000
0001
1000
0000
0000
,
2001
0000
0000
0100
0000
0000
3100
0000
0000
1000
0001
1000
,
0002
0000
0000
0100
0000
0000
1003
0000
1000
0001
0000
0001
,
0200
0010
0302
1003
,
1000
0000
0010
1000
0000
0010
1000
0000
0001
0010
0000
0001
,
0020
0100
0032
1000
,
0013
0000
0000
0100
0000
1000
0100
0000
1000
0100
0000
1000
,
0002
0000
0000
0103
0000
0001
2000
0000
0000
3100
0000
0000
,
1000
0000
0001
0000
1000
0000
0010
0000
0100
0000
0010
0000
,
2000
3200
0320
0032
,
1003
0001
0000
1000
0001
0000
0100
0010
0000
0110
0000
0000
,
0002
0023
0230
2300
,
3001
1000
0000
0001
1000
0000
0100
0010
0000
0110
0000
0000
,
2000
3100
0002
0103
,
0001
0000
0001
0010
0000
0001
0100
0000
0001
1000
0000
0000
,
0002
0013
2000
3010
,
1000
0000
1000
0010
0000
1000
0100
0000
1000
0001
0000
0000
,
2000
0000
0000
0100
0000
0000
3100
0000
0000
1000
0001
1000
,
0002
0000
0000
0100
0000
0000
0103
0000
0000
0001
1000
0001
,
1000
1001
0010
1001
,
0010
0100
1001
0000
,
0002
0000
0000
0010
0000
0000
0013
0000
0000
0001
1000
0001
,
2000
0000
0000
0010
0000
0000
3010
0000
0000
1000
0001
1000
,
0001
1001
0100
1001
,
0100
0010
1001
0110
,
1002
0023
0230
2300
,
3001
0100
0001
1000
0000
0000
0100
0010
0100
1000
0001
1000
,
0002
0000
0000
0000
0000
0000
1003
0000
0010
0000
1000
0000
,
0001
0000
0010
0000
0001
0000
1000
0000
0100
0000
0010
0000
,
0001
0100
1000
0100
,
0001
0000
0000
0010
0000
0000
0100
0000
0000
1000
0001
1000
,
0002
0000
0000
0003
0000
0000
1000
0000
0001
0100
0000
0000
,
0001
0000
1000
0100
0000
0000
1001
0000
0000
1000
0000
0000
,
0001
0000
0010
0000
0100
0000
1000
0000
0000
1001
0000
0000
,
1000
0000
0010
0000
0100
0000
0001
0000
0010
0001
0000
0000
,
1000
0000
0010
1000
0000
0000
0001
0000
0001
0010
0000
0010
,
0100
0000
0100
1000
0000
0000
1001
0000
0000
0001
0000
0000
,
1000
0000
0010
0000
0100
0000
0001
0000
0000
1001
0000
0000
,
0001
0000
0010
0000
0100
0000
1000
0000
0010
1000
0000
0000
,
0001
0000
0010
0001
0000
0000
1000
0000
1000
0010
0000
0010
,
0100
0000
0100
0001
0000
0000
1001
0000
0000
1000
0000
0000
,
0001
0000
0100
0000
0001
0000
1000
0000
0100
0000
1000
0000
,
0001
0000
0010
0000
0100
0000
1000
0000
0100
1000
0000
0000
,
0001
0000
0100
0001
0000
0000
0001
0000
0001
1000
0000
1000
,
0001
1000
0001
1000
0000
0000
1001
0000
0000
0001
0000
0000
,
1000
0000
0100
0000
1000
0000
0001
0000
0100
0000
0001
0000
,
1000
0000
0010
0000
0100
0000
0001
0000
0100
0001
0000
0000
,
1000
0000
0100
1000
0000
0000
1000
0000
1000
0001
0000
0001
,
1000
0001
1000
0001
0000
0000
2000
0000
0000
0000
0000
0000
,
3020
0000
0230
0000
,
0302
0000
0000
0000
0000
0000
1003
0000
0001
0000
0100
0000
,
0010
0000
1000
0000
0001
0000
2000
0000
0000
0100
0000
0000
,
3001
0000
0000
0010
0010
0010
0002
0000
0000
0100
0000
0000
,
1003
1001
1000
1100
,
0001
0101
1000
1010
,
0001
0000
0000
0011
0000
0000
0001
1000
0000
0010
0000
0000
,
1000
0001
0000
0010
0000
0000
0100
0010
0000
0001
0000
0000
,
0100
0010
0000
1000
0000
0000
2002
0000
0000
0000
0000
0000
,
0000
0000
0000
3003
0000
0000
0001
0100
0000
0101
0000
0000
,
1000
0100
0000
1100
0000
0000
2002
0000
0000
0000
0000
0000
,
0000
0000
3003
0000
;

//--------------- dance-single - Marten ----------------
#NOTES:
     dance-single:
     Marten:
     Medium:
     15:
     0,0,0,0,0:
0000
0000
0000
0000
,
0000
0000
0000
0000
,
0000
0000
0000
0000
,
0000
0000
0000
0000
,
0001
0100
0010
2000
0000
0000
0000
0000
0000
3001
0010
0100
,
2000
0000
0000
0000
0000
0000
0000
0000
0000
3001
1000
0001
,
0200
0000
0000
0000
0000
0000
0310
1000
0002
0000
0000
0000
0013
0000
0000
0000
,
0110
0000
0000
0000
0000
0000
0000
0000
0100
0000
0000
0000
0000
0000
0000
0000
1000
0000
0000
0000
0000
0000
0000
0000
2001
0000
0000
0000
0000
0000
0000
0000
0000
0000
0000
0000
0000
0000
0000
0000
0000
0000
3010
0000
0000
0100
0000
0000
,
0001
0010
1000
0100
,
0001
0000
0001
1000
0000
1000
0001
0000
0000
0001
0010
0100
,
1000
0010
0001
0100
,
1000
0100
1000
0001
0000
0010
0001
0100
0001
1000
0000
0000
,
1000
1010
0001
0011
,
0001
0010
0001
1000
0010
1000
0001
0000
0000
0010
0000
0010
,
0001
0101
1000
1100
,
1000
0010
1000
0001
0000
0100
0001
0010
0001
1000
0000
0000
,
1002
0100
1000
0203
,
0320
0000
0000
0001
0000
0000
0100
0000
0000
1030
0000
0001
,
0020
0100
0001
0230
,
0320
0000
0000
0001
0000
0000
0130
1000
0100
1000
0000
0000
,
2000
0010
0001
3020
,
0230
0000
0000
1000
0000
0000
0301
0000
0000
0001
0010
0001
,
0020
0100
0001
0230
,
1300
0000
0001
0100
0000
0001
1000
0000
0000
0010
1000
0001
,
2000
0000
0000
0000
0000
0000
3001
0000
0000
1000
0001
1000
,
0020
0000
0000
0000
0000
0000
1030
0100
1000
0001
1000
0001
,
0200
0000
0320
0000
,
1030
0000
1000
0010
0000
0010
0100
0001
0100
0001
1000
0001
,
0020
0000
0032
0000
,
0103
0000
0010
1000
0000
1000
0001
0010
0001
0010
0100
0010
,
0002
0000
0000
0000
1003
0010
2000
0000
0000
3000
0001
0010
,
0001
0000
1000
0000
0001
0000
0100
0000
0010
0000
1000
0000
,
0002
0203
2300
3200
,
0301
0010
0000
0010
0100
0000
0100
1000
0000
1001
0000
0000
,
2000
3200
0302
0203
,
1300
0010
0000
0010
0100
0000
0100
0001
0000
1001
0000
0000
,
1000
0000
0010
0100
0000
0000
0001
0000
0010
0100
0000
0000
,
1000
0000
0001
0100
0001
0000
0010
0000
0100
1000
0000
0000
,
0001
0000
0100
0010
0000
0000
1000
0000
0100
0010
0000
0000
,
0001
0000
1000
0100
1000
0000
0010
0100
0010
0100
0000
0000
,
0002
0000
0000
0100
0000
0000
1000
0000
0000
0013
0001
0010
,
0002
0000
0000
0100
0000
0000
1000
0000
0000
0013
0001
0010
,
0001
0000
0000
0100
0010
1000
0001
0000
0000
0010
0100
1000
,
0001
0000
0000
0100
0010
0100
0010
0000
1000
0001
0000
0000
,
2000
0000
0000
0100
0000
0000
0001
0000
0000
3010
1000
0010
,
2000
0000
0000
0100
0000
0000
0001
0000
0000
3010
1000
0010
,
1000
1010
0011
1001
,
1000
0100
1000
0001
0100
0001
1000
0001
1000
0010
0000
0000
,
1020
0230
0302
2003
,
3001
0100
0100
1000
0100
0100
0001
0010
0100
1000
0000
0000
,
1001
0000
0000
1000
0000
1000
0010
0000
0100
0000
1000
0000
,
0100
0000
0000
0001
0000
0001
0010
0000
0100
0000
0001
0000
,
0100
0000
0000
1000
0000
1000
0100
0000
0010
0000
1000
0000
,
0010
0000
0000
0001
0000
0001
0100
0010
0100
0001
1000
0001
,
2000
0000
0000
3000
0000
0000
0001
0010
0100
1000
0000
0001
,
1000
0010
0100
0001
0000
0000
1001
0000
0000
0001
0010
0100
,
1000
0000
0010
0000
0001
0000
0010
0000
0000
1010
0000
0000
,
1000
0000
0100
0010
0000
0100
1000
0001
0100
0001
0000
0000
,
0010
0001
0100
0001
0000
0000
1000
0001
0100
0010
1000
0001
,
0100
0010
0100
0001
0000
0000
1001
0000
0000
1000
0010
0100
,
0001
0000
0010
0000
1000
0000
0010
0000
0000
0011
0000
0000
,
0001
0000
0100
0010
0000
0100
0001
1000
0100
1000
0000
0000
,
0010
1000
0100
1000
0000
0000
0001
1000
0100
0010
0001
1000
,
0100
0010
0100
1000
0000
0000
1001
0000
0000
1000
0010
0100
,
0001
0000
0010
0000
1000
0000
0001
0000
0100
0000
1000
0000
,
0001
0100
0001
0100
0010
0100
0001
0010
0001
0100
0000
0001
,
1000
0010
1000
0100
0000
1000
0001
0100
0001
1000
0100
1000
,
0010
0100
0001
0010
0000
0000
1001
0000
0000
0001
0010
0100
,
1000
0000
0010
0000
0001
0000
1000
0000
0100
0000
0001
0000
,
1000
0000
0100
0000
0010
0000
0001
0100
0001
0010
0000
0001
,
1000
0100
1000
0010
0000
0000
1000
0100
1000
0001
0100
0001
,
0010
0100
1000
0010
0100
0001
2000
0000
0000
0000
0000
0000
,
3020
0000
0230
0000
,
0302
0000
0000
0000
0000
0000
1003
0000
0010
0000
0100
0000
,
0001
0000
0010
0000
0100
0000
2001
0000
0001
3002
0000
0100
,
0203
0000
0000
0310
0010
0010
1002
0000
1000
2003
0000
0100
,
3200
0000
0000
0000
0000
0000
1300
0001
1000
0001
1000
0000
0001
0000
0100
0000
0000
0000
0101
0000
0000
0000
0001
0000
,
1000
0100
0000
1100
0000
1000
0001
0010
0000
0011
0000
0001
,
1000
0010
0000
1010
0000
0010
1000
0100
0000
0110
0000
0010
,
0001
0100
0000
0110
0000
0100
0001
0010
0000
0110
0000
0100
,
1000
0010
0100
0001
0010
0100
2000
0000
0000
0000
0000
0000
,
0000
0000
0000
3000
0000
0000
1000
0001
0000
0101
0000
0001
,
1000
0100
0000
1100
0000
1000
0002
0000
0000
0000
0000
0000
,
0000
0000
0003
0000
;

//--------------- dance-single - Marten ----------------
#NOTES:
     dance-single:
     Marten:
     Hard:
     17:
     0,0,0,0,0:
0000
0000
0000
0000
,
0000
0000
0000
0000
,
0000
0000
0000
0000
,
0000
0000
0000
0000
,
1000
0100
0010
0002
0000
0000
0000
0000
0000
0103
0010
1000
,
0002
0000
0000
0000
0000
0000
0000
0000
0000
1003
0010
0100
,
0102
0000
0000
0000
0000
0000
0000
0000
0000
0000
0000
0000
0000
0000
0000
0000
0003
0000
0010
0000
0000
0100
0000
0000
2000
0000
0000
0000
0000
0000
0000
0000
0000
0000
0000
0000
3010
0000
0000
0000
0000
0000
0000
0000
0000
0000
0000
0000
,
1001
0000
0000
0000
0000
0000
0000
0000
0001
0000
0000
0000
0000
0000
0000
0000
0010
0000
0000
0000
0000
0000
0000
0000
0210
0000
0000
0000
0000
0000
0000
0000
0000
0000
0000
0000
0000
0000
0000
0000
0000
0000
1300
0000
0000
0001
0000
0000
,
1000
0100
0010
0001
0000
0001
0100
0000
0100
0010
0000
0010
,
1000
0100
0010
0001
0010
0100
1000
0000
0000
0010
0100
0010
,
0100
0001
1000
0010
0000
0010
1000
0000
1000
0001
0000
0001
,
0010
0100
1000
0100
0000
1000
0010
0100
0001
0100
0000
0000
,
0001
0100
0010
1000
0000
1000
0001
0000
0001
0010
0000
0010
,
0100
1000
0001
1000
0010
0100
0001
0000
0000
0100
0010
0100
,
0001
0010
0100
1000
0000
1000
0001
0000
0001
0100
0000
0100
,
0010
1000
0100
0002
0000
0103
0010
0001
0100
1000
0000
0000
,
0210
0000
0000
0001
0000
0000
1000
0000
0000
0310
0000
1000
,
0002
0000
0000
0010
0000
0000
1000
0000
0000
0103
0000
0010
,
2000
0000
0000
0100
0000
0000
0001
0000
0000
3010
0000
1000
,
0200
0000
0000
0010
0000
0000
1300
0010
0100
0001
0000
1000
,
0020
0000
0000
0001
0000
0000
1000
0000
0000
0130
0000
0001
,
0020
0000
0000
1000
0000
0000
0001
0000
0000
0130
1000
0001
,
2000
0000
0000
0010
0000
0000
0001
0000
0000
3010
0000
1000
,
0001
0010
0100
1000
0001
0100
1000
0100
0001
1000
0100
0010
,
0002
0000
0000
0100
0000
0000
1000
0000
0000
0013
0100
1000
,
0020
0000
0000
0100
0000
0000
0031
0010
0100
0001
0010
0100
,
0020
1000
0230
0001
,
0310
0001
1000
0010
1000
0001
1000
0100
0001
0100
1000
0001
,
0200
1000
0302
0010
,
1003
0000
0000
0000
0001
1000
0001
0000
0010
0000
0100
0000
0010
0000
0001
0000
0100
0000
0010
0000
1000
0000
0100
0000
,
2000
0000
0000
3001
0100
0010
2000
0000
0000
3001
0010
0100
,
1000
0010
0001
0010
0100
1000
0100
0001
0010
0100
1000
0001
,
2000
3020
0032
0203
,
1300
1000
0000
0010
0010
0000
0001
0001
0000
0100
0100
0000
,
0002
0023
2030
3200
,
0301
0001
0000
0010
0010
0000
1000
1000
0000
0100
0100
0000
,
0001
0010
0100
1100
0000
0000
1000
0010
0100
0101
0000
0000
,
0001
0010
0100
1000
0010
0100
0001
0100
0100
1000
0100
0100
,
0001
0100
0010
1010
0000
0000
1000
0100
0010
0011
0000
0000
,
0001
0100
0010
1000
0100
0010
0001
0010
0010
1000
0010
0010
,
0001
0100
0010
1000
0010
0100
0001
0010
0100
1000
0100
0010
,
0001
0100
0010
1000
0010
0100
0001
0010
0100
1000
0100
0010
,
0001
0100
1000
0002
0000
0000
1003
0100
0001
2000
0000
0000
,
3020
0000
0000
0130
0001
0010
0100
1000
0010
1000
0000
0000
,
1000
0100
0010
0001
0010
0100
1000
0010
0100
0001
0100
0010
,
1000
0100
0010
0001
0010
0100
1000
0010
0100
0001
0100
0010
,
1000
0100
0100
0001
0010
0010
1000
0100
0100
0001
0010
0010
,
1000
0100
0001
0100
1000
0001
0100
1000
0100
0001
0000
0000
,
1000
0000
0001
0100
0010
0000
2000
0000
0010
0000
3001
0000
0002
0000
0010
0000
1003
0000
2000
0000
0100
0000
3001
0000
,
0001
0100
0010
0100
0001
0000
0020
0000
0100
0000
0031
0000
0002
0000
0010
0000
0103
0000
0200
0000
1000
0000
0310
0000
,
1000
0100
0010
0100
1000
0000
1010
0000
0011
0000
0001
0000
,
0101
0000
1100
0000
1000
0000
1010
0000
0011
0000
0001
0000
,
1000
0010
0001
0010
1000
0000
0001
0010
1000
0010
0001
0000
,
1000
0100
0010
0001
0100
0010
1000
0100
0001
0100
1000
0001
,
2002
0000
0000
3003
0000
0000
0001
0100
0100
1000
0000
0001
,
1000
0100
0100
0001
0000
0000
1001
0000
0000
0001
0100
1000
,
0001
0000
0011
0000
0110
0000
1010
0000
0000
1000
0100
0001
,
1000
0010
0100
1000
0001
0100
0010
1000
0100
0002
0000
0103
,
0010
0001
0100
2000
0000
0000
3001
0010
0100
1000
0001
0010
,
0100
0001
0010
0100
0001
0100
1000
0000
0000
1000
0100
0001
,
1000
0000
1010
0000
0110
0000
0011
0000
0000
0001
0100
1000
,
0001
0010
0100
0001
1000
0100
0010
0001
0100
2000
0000
3100
,
0010
1000
0100
0002
0000
0000
1003
0010
0100
0001
1000
0010
,
0100
1000
0010
0100
1000
0100
0001
0000
0000
1000
0010
0001
,
1000
0000
1100
0000
0110
0000
0101
0000
0011
0000
0110
0000
,
0100
1000
0010
0001
0010
1000
0001
0010
0100
1100
0000
0000
,
1000
0010
0100
0101
0000
0000
0001
0010
0010
1000
0100
0100
,
0001
1000
0001
1001
0000
0000
0101
0000
0000
0001
0010
1000
,
0001
0000
0101
0000
0110
0000
1100
0000
1010
0000
0110
0000
,
0100
0001
0010
1000
0010
0001
1000
0100
0010
0011
0000
0000
,
0001
0100
0010
1010
0000
0000
1000
0010
0001
1000
0100
0001
,
1000
0100
0100
0001
0010
0010
2000
0000
3020
0000
0230
0000
,
0302
0000
0023
0000
0230
0000
2300
0000
3001
0010
0002
0000
,
0203
0000
0320
0000
2030
0000
3002
0000
0023
0000
2030
0000
,
3002
0000
0203
0000
2300
0000
3001
0100
0001
1000
0100
1000
,
0001
0010
0001
1001
1010
0101
1001
1000
0001
0010
0001
1000
,
0010
0000
0100
0000
0001
0000
0010
0100
0010
0100
0010
0000
0100
0000
1000
0000
0000
0000
1100
0000
0000
0000
1000
0000
,
0001
0100
0000
0101
0000
0001
0010
0100
0000
0110
0000
1000
,
0010
0100
0000
0110
0000
0001
1000
1000
0000
1010
0000
1000
,
0001
0001
0000
0011
0000
0001
1000
1000
0000
1100
0000
1000
,
0001
0001
0010
0100
0100
1000
0020
0000
0000
0000
0000
0000
,
1030
0001
1000
0000
0001
0000
0100
0000
0100
0000
0100
0000
0001
0000
0011
0000
0000
0000
1100
0000
0000
0000
0100
0000
,
1000
1010
0000
0101
0000
0100
2002
0000
0000
0000
0000
0000
,
0000
0000
3003
0000
;
