#TITLE:Quon;
#SUBTITLE:;
#ARTIST:DJ Noriken;
#TITLETRANSLIT:;
#SUBTITLETRANSLIT:;
#ARTISTTRANSLIT:;
#GENRE:;
#CREDIT:;
#MUSIC:Quon.ogg;
#BANNER:Quon.png;
#BACKGROUND:Quon-bg.png;
#CDTITLE:;
#SAMPLESTART:97.492;
#SAMPLELENGTH:15.000;
#SELECTABLE:YES;
#OFFSET:-0.082;
#BPMS:0.000=170.000
,36.000=85.000
,52.000=170.000
,108.000=85.000
,112.000=340.000
,113.000=170.000
,144.000=340.000
,145.000=170.000
,184.000=85.000
,200.000=170.000
,236.000=340.000
,236.500=170.000
,237.000=340.000
,237.500=170.000
,238.000=340.000
,239.000=170.000
,271.000=340.000
,272.000=170.000
;
#STOPS:112.000=0.176
,144.000=0.176
,236.000=0.088
,237.000=0.088
,238.000=0.176
,271.000=0.176
;
#DISPLAYBPM:85.000:170.000;
#BGCHANGES:;
#FGCHANGES:;

//--------------- dance-single - Marten ----------------
#NOTES:
     dance-single:
     Marten:
     Beginner:
     4:
     0,0,0,0,0:
0000
0000
0000
0000
,
0000
0000
0000
0000
,
0000
0000
0000
0000
,
0000
0000
0000
0000
,
0000
0000
0000
0000
,
1001
0000
0001
0000
,
1000
0000
1000
0000
,
0010
0000
0010
0000
,
0010
0010
0010
0000
,
1000
0000
0100
0100
,
0001
0000
0100
0100
,
1000
0000
0010
0010
,
0001
0000
0010
0000
,
1000
0000
0000
0000
,
0001
0000
0000
0000
,
0010
0000
0000
0000
,
0100
0000
0000
0000
,
1000
0000
1000
0000
,
0001
0000
0001
0000
,
0100
0000
0100
0000
,
0020
0000
0030
0000
,
2002
0000
3003
0000
,
0001
0000
1000
0000
,
2002
0000
3003
0000
,
1000
0000
0001
0000
,
0020
0000
0030
0000
,
0100
0100
0100
0000
,
2002
0000
0000
3003
,
0000
0000
0001
0000
,
0100
0000
0010
0000
,
1000
0000
1000
0000
,
0100
0000
0010
0000
,
0001
0000
0001
0000
,
0100
0000
0010
0000
,
1000
0000
0001
0000
,
0010
0010
0010
0000
,
0000
0000
1000
0000
,
0010
0000
0100
0000
,
0001
0000
1000
0000
,
0100
0100
0000
0010
,
0010
0000
0001
0000
,
1000
0000
0001
0000
,
1000
0000
0010
0000
,
0100
0000
0010
0010
,
0020
0000
0030
0000
,
0200
0000
0300
0000
,
0000
1000
0001
0001
,
0010
0001
0100
0000
,
0001
0001
1000
1000
,
0010
1000
0100
0000
,
1000
0000
0100
0000
,
0001
0000
0000
0000
,
0001
0000
0100
0000
,
1000
0000
0000
0000
,
1001
0000
0000
0000
,
0110
0000
0000
0000
,
1001
0000
1001
0000
,
0010
0010
0010
0000
,
2000
0000
0000
3000
,
0010
0010
0010
0000
,
1000
0000
0100
0000
,
1000
1000
1000
0000
,
0001
0000
0100
0000
,
0001
0001
0001
0000
,
0010
0000
0001
0000
,
0100
0100
0100
0000
,
0110
0000
0110
0000
,
1001
0000
1001
0000
,
0000
0000
0001
0000
,
0010
0000
1000
0000
,
0100
0000
0001
0000
,
1000
0000
0001
0000
,
0100
0000
0100
0000
,
0010
0000
0010
0000
,
1001
0000
0110
0000
,
0010
0010
0010
0000
,
1001
0000
0000
0000
;

//--------------- dance-single - Marten ----------------
#NOTES:
     dance-single:
     Marten:
     Easy:
     8:
     0,0,0,0,0:
0000
0000
0000
0000
,
0000
0000
0000
0000
,
0000
0000
0000
0000
,
0000
0000
0000
0000
,
0000
0000
0000
0000
,
1001
1000
0010
0010
,
1001
0001
0010
0010
,
0011
1000
1010
0001
,
0100
0000
0000
0000
0100
0000
0000
0000
0100
0000
0000
0000
0000
0000
0000
0000
0010
0000
0000
0000
0000
0000
0000
0000
0020
0030
0000
0000
0000
0000
0000
0000
,
1001
0001
0200
0300
0001
0200
0301
0010
,
0100
1000
0200
0300
1000
0200
1300
0010
,
0100
0001
0020
0030
0001
0020
0130
1000
,
0001
1000
0020
0030
1000
0020
0030
0100
,
0101
0001
0001
0001
,
1000
1000
1000
1000
,
0010
0010
0010
0010
,
0100
0100
0100
0100
,
0001
0010
0100
1000
,
0001
0100
0010
1000
,
1001
0000
0110
0000
,
1000
0000
0001
0000
1000
0001
1000
0000
,
1010
0000
0010
0000
0100
0000
0000
0100
,
0001
1000
0001
0000
,
0011
0000
0010
0000
0100
0000
0000
0100
,
1000
0001
1000
0001
,
0010
0001
0100
0010
,
1000
0000
0001
0000
1000
0001
1000
0001
,
2000
0000
0000
0000
0000
0000
0000
0000
3000
0000
0000
0000
0000
0000
0000
0000
0100
0000
0000
0000
0100
0000
0000
0000
1000
0000
0000
0000
0020
0030
0000
0000
,
0200
0301
0100
0010
,
1000
0000
0100
0000
1000
0001
1000
0000
,
0002
1003
0100
0010
,
0001
0000
0100
0000
0001
1000
0001
0000
,
0200
0301
0010
0100
,
1000
0000
0010
0000
0100
0010
0100
0000
,
1001
0000
1001
0000
,
0001
0000
0000
0000
0001
0000
0000
0000
0001
0000
0000
0000
0000
0000
0000
0000
1000
0000
0000
0000
0000
0000
0000
0000
0020
0030
0000
0000
0000
0000
0000
0000
,
2000
3100
0010
0100
,
1000
0000
0001
0000
1000
0001
1000
0000
,
0002
0000
0103
0000
0010
0000
0020
0030
,
1010
0000
0101
0000
0000
0001
1000
0000
,
1002
0013
0100
0010
,
0001
0000
1000
0000
0010
0100
0010
0000
,
1000
0100
0010
0001
,
1000
0000
0000
0000
1000
0000
0000
0000
1000
0000
0000
0000
0000
0000
0000
0000
0001
0000
0000
0000
0000
0000
0000
0000
0020
0030
0000
0000
0000
0000
0000
0000
,
0002
0000
0023
0000
,
0230
0000
2300
0000
,
3001
0000
0101
0000
0001
1000
0100
0000
,
1000
0000
1100
0000
1000
0001
0100
0000
,
0001
0000
0011
0000
0001
1000
0010
0000
,
1000
0000
1010
0000
1000
0001
0010
0010
,
0002
0000
0023
0000
,
0130
1000
0001
0000
,
2000
0000
3020
0000
,
0130
0100
0001
1000
,
1001
0000
0001
0010
,
0110
0000
1000
0010
,
0110
0000
1001
0000
,
1100
0101
1001
0010
,
2000
0000
3002
0000
1003
0001
1000
0000
,
1010
0101
1001
0000
,
1010
0010
1000
0100
,
1000
0000
0001
0000
1000
0010
1000
0000
,
0001
0010
0001
0100
,
0001
0000
1000
0000
0001
0010
0001
0000
,
0100
0010
0100
0001
,
0010
0000
0100
0000
1000
0001
1000
0000
,
0100
0000
0100
0000
0100
0100
0100
0000
,
0010
0000
0010
0010
0010
0000
0000
0000
,
0001
0100
1000
0100
,
0001
0000
0010
0000
0100
1000
0100
0000
,
1000
0100
0001
0100
,
1000
0000
0010
0000
0100
0001
0100
0000
,
0001
0000
0010
0000
0100
1000
0100
0000
,
1000
0000
0010
0000
0100
0001
0100
0000
,
1001
0000
0110
0000
,
0001
0000
0000
0000
1000
0000
0000
0000
0001
0000
0000
0000
0000
0000
0000
0000
1001
0000
0000
0000
0000
0000
0000
0000
0020
0030
0000
0000
0000
0000
0000
0000
,
1001
0000
0000
0000
;

//--------------- dance-single - Marten ----------------
#NOTES:
     dance-single:
     Marten:
     Medium:
     13:
     0,0,0,0,0:
0000
0000
0000
0000
,
0000
0000
0000
0000
,
0000
0000
0000
0000
,
0000
0000
0000
0000
,
0000
0000
0000
0000
,
0011
0000
0001
0000
1000
0000
0010
1000
,
1010
0000
1000
0001
0100
0001
0010
0000
,
0001
0010
0100
1000
0001
0100
0010
1000
,
0001
0000
0000
0000
0001
0000
0000
0000
1000
0000
0000
0000
1000
0000
0000
0000
0100
0000
0000
0000
0000
0000
0000
0000
0020
0030
0000
0000
0000
0000
0000
0000
,
1001
0000
0001
0100
0001
0000
0000
0000
1000
0100
1000
0000
0001
0100
0010
1000
,
0000
0000
0001
0010
0001
0000
0000
0000
1000
0010
1000
0001
0100
0001
0010
0100
,
0000
0000
1000
0001
0100
0000
0000
0000
0001
1000
0100
0000
1000
0010
0100
0001
,
0000
0000
1000
0001
0010
0000
0000
0000
0001
1000
0010
1000
0000
0100
0100
0000
,
1100
0000
1000
0100
0001
0000
0100
0000
,
1000
0000
0001
0100
1000
0000
0100
0000
,
0001
0000
1000
0100
0001
0000
0100
0000
,
1000
0010
0100
0000
0001
0010
0100
0000
,
1000
0100
1000
0100
0010
0001
0100
0000
,
0001
0100
0001
0100
0010
1000
0100
0000
,
1000
0001
0001
0010
0001
0001
0100
0001
,
2000
0000
3100
0001
0100
1000
0001
0000
,
1001
0000
0000
0000
0001
0000
0100
0000
0010
0000
0000
0010
0000
0000
0010
0000
,
1000
0100
0010
0000
0100
0000
1000
0001
,
1001
0000
0000
0000
1000
0000
0100
0000
0010
0000
0000
0010
0000
0000
0010
0000
,
0001
0100
0010
0000
1000
0001
1000
0001
,
0010
0010
0100
0100
,
1000
0100
0010
0001
0100
1000
0100
0001
,
1000
0000
0000
0000
0010
0000
0000
0000
0100
0000
0000
0000
0000
0000
0000
0000
0010
0000
0000
0000
0100
0000
0000
0000
0000
0000
0000
0000
0001
0000
0000
0000
0010
0000
0000
0000
0010
0000
0000
0000
0100
0000
0000
0000
1000
0000
0000
0000
0001
0000
0000
0000
0000
0000
0000
0000
0020
0030
0000
0000
0000
0000
0000
0000
,
0002
0000
0103
0001
0010
0001
0100
0100
,
0010
1000
0100
0001
0100
1000
0001
0000
,
2000
0000
3100
1000
0010
1000
0100
0100
,
0010
0001
0100
1000
0100
0001
1000
0000
,
1002
0000
0013
0001
0100
0001
0010
0010
,
0100
1000
0010
0001
0010
1000
0001
0000
,
1000
0100
0010
0001
0100
0010
0000
1000
,
0100
0000
0000
0000
0100
0000
0000
0000
0001
0000
0000
0000
0100
0000
0000
0000
1000
0000
0000
0000
0000
0000
0000
0000
0020
0030
0000
0000
0000
0000
0000
0000
,
2000
0000
3001
0100
0010
0001
0010
0100
,
0001
0010
0100
1000
0001
1000
0010
0000
,
1002
0000
1003
0100
0010
1000
0020
0030
,
0011
0000
1010
0000
1000
0001
0010
0000
,
2001
0000
3001
0100
1000
0100
0001
1000
,
0100
0001
0100
1000
0001
0010
0100
1000
,
0001
0100
0010
1000
0100
0010
0001
1000
,
0001
0000
0000
0000
0001
0000
0000
0000
0100
0000
0000
0000
0010
0000
0000
0000
1000
0000
0000
0000
0000
0000
0000
0000
0020
0030
0000
0000
0000
0000
0000
0000
,
2000
3200
0320
0032
,
1003
0010
0100
0001
0100
0010
0010
0000
,
2000
0000
3001
0000
0011
0000
0001
0000
1000
0100
0010
0001
0010
0000
0100
0000
,
1000
0000
0010
0000
0101
0000
0001
0000
1000
0010
0100
0001
0100
0000
0001
0000
,
1000
0000
0100
0000
0110
0000
0010
0000
0001
1000
0010
0100
0001
0000
0010
0000
,
1000
0000
0010
0000
0001
1000
0001
0010
0001
0100
0010
1000
0200
0010
0310
0000
,
0011
0000
0000
0000
0001
0000
0000
0000
0100
0000
0000
0100
0000
0000
0100
0000
,
0010
1000
0001
0000
0010
0000
0100
1000
,
1010
0000
0000
0000
1000
0000
0000
0000
0100
0000
0000
0100
0000
0000
0100
0000
,
0010
0001
1000
0000
0010
1000
0001
0000
,
1000
0010
1000
0010
0100
0001
1000
0000
,
0001
0010
0001
0010
0100
1000
0001
0000
,
0101
0001
1100
1000
,
0002
0000
0103
1000
0100
0001
1000
0000
,
0020
0000
2030
0000
3001
0010
0010
0000
,
0022
0000
0000
0000
0033
0000
0000
0000
2200
0000
0000
0000
3300
0000
0000
0000
1002
0000
0000
0000
0000
0000
0000
0000
0023
0030
0000
0000
0000
0000
0000
0000
,
0001
0100
0010
1000
0001
1000
0100
1000
,
0001
0100
0010
0100
0001
1000
0001
0100
,
0001
0010
0100
1000
0001
0100
0010
1000
,
0001
0100
1000
0100
0001
0010
0100
0000
,
1000
0100
0010
0001
1000
0001
0100
0001
,
1000
0100
0010
0100
1000
0001
1000
0000
,
1100
0000
0101
0000
1000
0001
1001
0000
,
0011
0000
1010
1000
0001
0010
0020
0000
,
0031
0100
0010
0100
0001
0010
0100
1000
,
0001
0010
1000
0010
0001
1000
0100
0010
,
0100
1000
0010
0001
0010
1000
0100
0010
,
0001
0100
1000
0100
0001
1000
0100
0000
,
1000
0100
0001
0100
1000
0010
0100
0100
,
0001
0100
1000
0100
0001
0010
0100
1000
,
1100
0000
0010
0001
0101
0000
0001
1000
,
0001
0000
0000
0000
0001
0000
0000
0000
1000
0000
0000
0000
1000
0000
0000
0000
1001
0000
0000
0000
0000
0000
0000
0000
0020
0030
0000
0000
0000
0000
0000
0000
,
1001
0000
0000
0000
;

//--------------- dance-single - Marten ----------------
#NOTES:
     dance-single:
     Marten:
     Hard:
     16:
     0.803488,1.056293,0.330848,0.242084,0.601175,697,656,41,30,0,0,0.803488,1.056293,0.330848,0.242084,0.601175,697,656,41,30,0,0:
0000
0000
0000
0000
,
0000
0000
0000
0000
,
0000
0000
0000
0000
,
0000
0000
0000
0000
,
0000
0000
0000
0000
,
1010
0000
1000
0000
0001
0000
0010
0001
,
0011
0000
0001
1000
0100
0000
0010
0100
1000
0000
0010
0000
0001
0000
0010
1000
,
0001
0010
0001
0010
0100
1000
0100
1000
0010
1000
0001
1000
0100
0010
0001
1000
,
0001
0000
0000
0000
0001
0000
0000
0000
0100
0000
0000
0000
0001
0000
0000
0000
1000
0000
0000
0000
0000
0000
0000
0000
0020
0030
0000
0000
0000
0000
0000
0000
,
0101
0000
0001
0010
0200
0000
0300
0000
1000
0010
0200
0000
0301
0100
0010
1000
,
0100
0000
1000
0010
0200
0000
0300
0000
0001
0010
0100
0010
0001
0100
0010
1000
,
1001
0000
0010
0001
0200
0000
0300
0000
0010
1000
0200
0000
1300
0010
0001
0010
,
1000
0000
0100
1000
0002
0000
0103
0001
1000
0010
0001
0010
0000
0100
0100
0000
,
1001
0000
0000
0000
1000
0000
0100
0000
0010
0000
0000
1000
0000
0000
0010
0000
,
0001
0000
0000
0000
0001
0000
0100
0000
0010
0000
0000
0001
0000
0000
0010
0000
,
1000
0000
0000
0000
0001
0000
0010
0000
0100
0000
0000
0001
0000
0000
0100
0000
,
1000
0010
0001
0000
1000
0100
0001
1000
,
1001
0001
0100
1000
0100
0010
1000
0100
,
0001
0100
1000
0001
0010
1000
0010
0001
,
0011
0010
0100
1000
1010
0010
0100
0001
,
1000
0001
1000
0000
0100
0000
1000
0000
0001
0000
0010
0000
0010
0000
0000
0000
,
1100
0000
0000
0000
1000
0000
0010
1000
0100
0000
0000
0100
0000
0000
0100
0000
,
0010
0000
1000
0000
0010
0000
0000
0000
0001
0000
0000
1000
0010
0000
0100
0000
,
0101
0000
0000
0000
0001
0000
0010
0001
0100
0000
0000
0100
0000
0000
0100
0000
,
0010
0000
0001
0000
0010
0000
1000
0001
1000
0000
0100
1000
0000
0001
0010
0100
,
1000
0010
1000
0100
0010
0001
0100
0001
,
1000
0010
0100
0010
1000
0001
1000
0100
0010
0001
0010
0100
0010
0001
1000
0001
,
0100
0000
0000
0000
0001
0000
0000
0000
0010
0000
0000
0000
0000
0000
0000
0000
1000
0000
0000
0000
0010
0000
0000
0000
0000
0000
0000
0000
0001
0000
0000
0000
1000
0000
0000
0000
1000
0000
0000
0000
0001
0000
0000
0000
1000
0000
0000
0000
0100
0000
0000
0000
0000
0000
0000
0000
0020
0030
0000
0000
0010
0000
0000
0000
,
0002
0000
0000
0000
1003
0010
1000
0010
0100
0000
0001
0100
0000
0001
0100
0000
,
0001
0000
0010
0100
0000
0010
0100
0000
1000
0000
0001
1000
0100
0000
0010
0000
,
0001
0000
0100
0000
0001
0010
0001
0010
0100
0000
1000
0100
0000
1000
0100
0000
,
1000
0000
0010
0100
0000
0010
0100
0000
0001
0000
1000
0001
0200
0000
0000
0000
,
0301
0000
0010
0000
0100
1000
0100
1000
0001
0000
0100
0001
0000
1000
0100
0000
,
1000
0000
0001
0010
0000
0100
0010
0000
0001
0000
1000
0010
0100
0000
0001
0000
,
1002
0103
0100
0010
0100
0100
0001
0010
,
0100
0000
0000
0000
0010
0000
0000
0000
0001
0000
0000
0000
1000
0000
0000
0000
0001
0000
0000
0000
0000
0000
0000
0000
0020
0030
0000
0000
0010
0000
0000
0000
,
0200
0000
0000
0000
1300
0010
0100
0010
1000
0000
0001
0100
0000
0010
0100
0001
,
1000
0000
0100
1000
0000
0001
0010
0100
1000
0000
0001
0010
0001
0000
0100
0000
,
0001
0000
1000
0100
1000
0001
1000
0001
0100
0000
0010
1000
0002
0000
0003
0000
,
0011
0010
1010
0010
0001
1000
0020
0000
,
0130
0000
0001
0000
1000
0100
1000
0001
0100
0000
0010
1000
0000
0001
0010
0100
,
0010
0000
0001
0100
0000
0010
1000
0001
1000
0000
0100
1000
0010
0000
0100
0000
,
0001
0100
0010
0100
0001
1000
0100
1000
0010
0100
0010
1000
0001
0010
0001
1000
,
0100
0000
0000
0000
0100
0000
0000
0000
1000
0000
0000
0000
1000
0000
0000
0000
0001
0000
0000
0000
0000
0000
0000
0000
0020
0030
0000
0000
0000
0000
0000
0000
,
0010
0001
1000
0010
0001
0010
1000
0001
,
0010
1000
0010
0001
1000
0010
0010
0000
,
0200
0000
0301
1000
1002
0000
0013
0100
1000
0010
0100
0010
2010
0000
3100
1000
,
1002
0000
0103
0010
0100
0001
0010
1000
0010
0001
0100
0010
2010
0000
3001
0100
,
0102
0000
0013
0100
2100
0000
3100
1000
0001
0010
1000
0010
0012
0000
0103
0010
,
2010
0000
3100
1000
0001
0100
1000
0100
0001
0010
1000
0010
0002
1000
1003
0000
,
0010
0000
0000
0000
1000
0000
0100
0000
0010
0000
0000
0010
0000
0000
0010
0000
,
0100
0000
1000
0000
0001
0000
0000
0000
0100
0000
0000
0001
1000
0000
0001
0000
,
0010
0000
0000
0000
0001
0000
0100
0000
0010
0000
0000
0010
0000
0000
0010
0000
,
1010
0000
1000
0000
1001
0000
0001
0000
0101
0000
0100
0000
0010
0000
1000
0001
,
1000
0100
0001
0100
0010
0001
0100
0010
,
0100
0000
1000
0000
0100
0000
0010
0000
1000
0000
0001
0000
0010
0000
0100
1000
,
0001
0000
0010
0000
0100
0000
1000
0001
0100
0000
1000
0000
0100
0000
0010
0000
,
1000
0001
1000
0000
0001
0000
0100
0000
0001
0000
0010
0000
0010
0000
0000
0000
,
0200
0000
2300
0000
3002
0100
0103
0001
,
0012
0000
0000
0000
0013
0000
0000
0000
0120
0000
0000
0000
0130
0000
0000
0000
2100
0000
0000
0000
0000
0000
0000
0000
3020
0030
0000
0000
0100
0000
0000
0000
,
0101
0100
1000
0100
0010
1000
0100
0001
,
0100
0000
1000
0000
0001
0000
0100
0000
1000
0000
0100
0001
0100
0000
0001
0000
,
0010
0100
0001
0100
0010
0001
0100
0010
,
0001
0000
1000
0000
0100
0000
0010
0000
1000
0000
0100
1000
0001
0000
0010
0000
,
0110
0100
0010
0001
0100
0010
1000
0100
,
0010
1000
0010
0100
1000
0001
0100
0010
,
1010
0000
1001
1001
0101
1100
0101
0000
,
0110
0000
0110
1001
0110
0001
2000
0000
,
3001
0000
0010
0000
0100
0000
0001
0100
1000
0000
0001
0000
0100
0000
0010
0000
,
0001
0000
0010
0000
0100
0000
1000
0100
0001
0000
1000
0000
0100
0000
1000
0000
,
0001
0000
0010
0000
0100
0000
1000
0010
0001
0000
0010
0000
0100
0000
0001
0000
,
0010
0000
0100
0000
0010
0000
0001
0010
1000
0000
0010
0000
0001
0000
1000
0001
,
0100
0000
0001
0000
1000
0000
0010
1000
0100
0000
0010
0000
1000
0000
0010
0001
,
0100
0000
0010
0000
0100
0000
0001
0100
0010
0000
0001
0000
0010
0000
1000
0100
,
0010
0001
1000
0010
1000
0001
0010
0100
0010
0001
0100
0010
0100
0001
1000
0100
,
1000
0000
0000
0000
0001
0000
0000
0000
0101
0000
0000
0000
1100
0000
0000
0000
1001
0000
0000
0000
0000
0000
0000
0000
0020
0030
0000
0000
0000
0000
0000
0000
,
0110
0000
0000
0000
;
