#TITLE:No Tears Left to Cry;
#SUBTITLE:;
#ARTIST:Ariana Grande;
#TITLETRANSLIT:;
#SUBTITLETRANSLIT:;
#ARTISTTRANSLIT:;
#GENRE:;
#CREDIT:;
#MUSIC:No Tears Left to Cry.ogg;
#BANNER:No Tears Left to Cry.png;
#BACKGROUND:No Tears Left to Cry-bg.png;
#CDTITLE:./CDTitles/DDR A20.png;
#SAMPLESTART:63.623;
#SAMPLELENGTH:15.000;
#SELECTABLE:YES;
#OFFSET:0.000;
#BPMS:0.000=103.000
,12.000=96.970
,16.000=100.000
,20.000=98.039
,24.000=100.968
,28.000=127.051
,32.000=125.000
,40.000=122.888
,44.000=122.000
;
#STOPS:;
#DISPLAYBPM:97.000:127.000;
#BGCHANGES:;
#FGCHANGES:;

//--------------- dance-single - Marten ----------------
#NOTES:
     dance-single:
     Marten:
     Challenge:
     18:
     0,0,0,0,0:
0000
0000
0000
0000
,
0000
0000
0000
0000
,
0000
0000
0000
0000
,
0000
0000
0000
0000
,
0000
0000
0000
0000
,
0001
0000
0100
0000
1000
0000
0100
0000
0020
0000
0000
1030
0001
0000
0020
0000
,
0000
0000
0000
0000
0000
0000
0000
0000
0000
0000
0000
0000
0000
0000
0000
0000
0000
0000
0000
0000
0000
0000
0000
0000
0000
0000
0000
0000
0000
0000
0000
0000
0000
0000
0000
0000
0000
0000
1030
0000
0000
0000
0000
0000
0000
0000
0000
0000
0000
0000
0000
0000
0000
0000
0000
0000
0000
0000
0010
0000
0000
0000
0000
0000
0000
0000
0000
0000
0000
0000
0000
0000
0000
0000
0000
0000
0000
0001
0000
0000
0000
0000
0000
0000
0000
0000
0000
0000
0000
0000
0000
0000
0000
0000
0000
0000
0000
0000
0000
0000
0000
0000
0000
0000
0000
0000
0000
0000
0000
0000
0000
0000
0000
0000
0000
0000
0000
0000
0000
0000
0000
0000
0000
0000
0000
0000
0000
0000
0000
0000
0000
0000
0000
0000
0000
0000
0000
0000
0000
0000
0000
0000
0000
0000
1000
0000
0000
0000
0000
0000
0000
0000
0000
0000
0000
0000
0000
0000
0000
0000
0000
0000
0000
0000
0000
0000
0000
0000
0000
0000
0000
0000
0000
0000
0000
0000
0001
0000
0000
0000
0000
0000
0000
0000
0000
0000
0000
0000
0000
0000
0000
0000
,
0100
0000
0000
0000
1000
0000
0000
0000
0100
0000
0000
0000
0020
0030
0000
0000
0000
0000
0000
0000
0000
0000
0000
0000
1000
0000
0000
0000
0100
0000
0000
0000
1000
0000
0000
0000
0020
0030
0000
0000
0000
0000
0000
0000
1000
0000
0000
0000
,
0100
0000
0000
0000
0100
0000
0000
0000
0001
0000
0000
0000
0010
0000
0000
0000
0010
0000
0000
0000
1000
0000
0000
0000
0100
0000
0000
0000
0100
0000
0000
0000
0001
0000
0000
0000
0020
0030
0000
0000
0000
0000
0000
0000
0100
0000
0000
0000
,
1000
0000
0000
0000
0010
0000
0000
0000
0001
0000
0000
0000
0020
0030
0000
0000
0000
0000
0000
0000
0000
0000
0000
0000
0100
0000
0000
0000
1000
0000
0000
0000
0100
0000
0000
0000
0020
0030
0000
0000
0000
0000
0000
0000
1000
0000
0000
0000
,
0010
0000
0000
0000
0010
0000
0000
0000
0001
0000
0000
0000
0100
0000
0000
0000
0100
0000
0000
0000
1000
0000
0000
0000
0010
0000
0000
0000
0010
0000
0000
0000
0001
0000
0000
0000
0020
0030
0000
0000
0000
0000
0000
0000
0001
0000
0000
0000
,
1000
0100
0000
0000
0010
0100
0000
0000
1000
0001
0000
0000
0001
0020
0030
0000
0000
0000
1000
0000
0000
0010
0000
0000
0001
0100
0000
0000
0010
0100
0000
0000
0001
1000
0000
0000
1000
0020
0030
0000
0000
0000
0001
0000
0000
0010
0000
0000
,
1000
0100
0000
0000
0001
0000
0000
0000
0100
0000
0000
0000
1000
0001
0000
0000
0100
0000
0000
0000
1000
0000
0000
0000
0100
0001
0000
0000
0010
0100
0000
0000
1000
0001
0000
0000
0100
0020
0030
0000
0000
0000
0100
0000
0000
0010
0000
0000
,
1001
0000
0000
0000
0000
0000
0001
0000
0000
0000
0000
0000
0011
0000
0000
0000
0000
0000
0010
0000
0000
0100
0000
0000
1001
0000
0000
0000
0000
0000
0000
0000
0001
1000
0000
0000
0010
0100
0000
0000
1000
0100
0000
0000
0001
1000
0000
0000
,
0100
0020
0030
0000
0000
0000
0100
0000
0000
1000
0000
0000
1010
0000
0000
0000
0000
0000
1000
0000
0000
0100
0000
0000
0001
0000
0000
0100
0000
0000
0010
0000
0000
0000
0000
0000
0011
0000
0000
0000
0000
0000
0001
0000
0000
0100
0000
0000
,
0101
0000
0001
1000
0010
0001
0010
0000
0100
0001
0010
1000
0010
0000
0001
0100
,
1000
0000
0001
0010
1000
0000
0100
0010
0001
0010
1000
0000
0010
0001
1000
0000
,
1200
0000
0301
1000
0010
0001
0100
0000
0201
0000
1300
0001
0010
1000
0200
0010
,
0301
0000
1000
0010
0001
0000
0100
0010
1000
0001
0100
1000
0100
0001
1000
0000
,
1010
0000
1000
0001
0100
1000
0100
0000
0010
1000
0100
0001
0100
0000
1000
0010
,
0001
0000
1000
0100
0001
0000
0010
0100
1000
0100
0001
0000
0100
1000
0001
0000
,
0021
0000
1030
0001
0100
1000
0010
0000
1020
0000
0031
1000
0100
0001
0020
0100
,
1030
0000
0001
0100
1000
0000
0010
0100
0001
1000
0010
0001
0010
1000
0001
0000
,
1100
0001
0010
0001
0100
0010
1000
0001
1100
0001
0010
0100
1000
0000
2001
0000
,
0000
0000
0000
0000
0000
0000
0100
0000
0000
0100
0000
0000
0100
0000
0000
0000
0000
0000
0010
0000
0000
0000
0000
0000
0010
0000
0000
0000
0000
0000
0001
0000
0000
0000
0000
0000
3001
0000
0010
0000
0100
0000
1000
0000
0000
0000
0000
0000
,
0101
1000
0010
1000
0100
0010
0001
1000
0101
1000
0010
0100
0001
0000
1002
0000
,
0000
0000
0000
0010
0000
0000
1000
0000
0000
0100
0000
0000
1000
0000
0000
0010
0000
0000
1003
0010
0100
0001
0000
0000
,
1010
0001
0010
0100
1000
0010
0100
0001
1010
0001
0010
0100
1000
0001
1010
0000
,
0000
0000
0110
0110
0110
0000
0011
0000
1100
0000
1010
0000
0101
0000
0110
0000
,
1001
0000
0000
0001
0000
0000
0010
0000
0000
1000
0000
0000
0010
0000
0000
0001
0000
0000
1000
0000
0000
0001
0000
0000
1001
0000
0000
1000
0000
0000
0010
0000
0000
0001
0000
0000
0010
0000
0000
1000
0000
0000
0001
0000
0100
0000
0010
0000
,
1000
0100
0001
0100
1000
0001
0100
1000
0100
0001
0010
0100
1000
0000
0000
0000
,
0001
0010
0100
0010
0001
0000
1000
0000
0010
0100
0001
0100
0010
0000
1000
0000
0001
0010
0001
0000
1000
0010
1000
0000
0001
0100
0001
0000
1000
0100
1000
0000
,
0010
0100
1000
0100
0001
0010
0100
0001
0100
1000
0001
0100
0010
1000
1001
0000
,
1000
0000
0010
0000
0100
0010
0100
0001
0100
0000
0001
0000
0010
0100
1000
0100
0010
0000
0001
0000
1000
0000
0010
0000
0001
0000
0010
0000
1000
0010
0100
0010
,
1000
0000
0001
0000
1000
0000
0100
0000
0001
0000
0100
0000
1000
0000
0001
0000
0100
0000
1000
0000
0100
0000
0001
0000
0010
0100
0010
0001
0010
0000
0000
0000
,
0001
0000
0100
0000
0010
1000
0010
0000
0100
0001
0100
0000
0001
0010
0001
0000
1000
0100
1000
0000
0001
0000
0010
0001
0010
0000
0100
0000
1000
0010
1000
0000
,
0001
0000
0000
0000
0000
0000
0100
0000
0000
0000
0000
0000
0010
0000
0000
0100
0000
0000
0010
0000
0000
0000
0000
0000
1000
0000
0000
0001
0000
0000
1000
0000
0000
0000
0000
0000
0100
0000
0000
0000
0000
0000
0001
0000
0000
0000
0000
0000
1000
0000
0000
0000
0000
0000
0010
0000
0000
0000
0000
0000
0001
0000
0000
0000
0000
0000
0100
0000
0000
0000
0000
0000
0010
0000
0000
0000
0000
0000
0000
0000
0000
0000
0000
0000
0000
0000
0000
0000
1000
0000
0001
0000
0000
0000
0000
0000
,
1000
0010
0000
0000
0100
0010
0000
0000
1000
0001
0000
0000
0001
0020
0030
0000
0000
0000
1000
0000
0000
0010
0000
0000
0001
0010
0000
0000
0100
0010
0000
0000
0001
1000
0000
0000
1000
0020
0030
0000
0000
0000
0001
0000
0000
0010
0000
0000
,
1000
0100
0000
0000
0001
0000
0000
0000
0100
0000
0000
0000
1000
0001
0000
0000
0100
0000
0000
0000
1000
0000
0000
0000
0100
0001
0000
0000
0010
0100
0000
0000
1000
0001
0000
0000
0100
0020
0030
0000
0000
0000
0100
0000
0000
0010
0000
0000
,
1000
0010
0100
0010
1000
0000
0001
0000
0010
0100
1000
0100
0010
0000
0001
0000
1000
0010
1000
0000
0001
0010
0001
0000
1000
0100
1000
0000
0001
0100
0001
0000
,
0010
0100
0001
0100
1000
0010
0100
1000
0100
0001
1000
0100
0010
0001
1001
0000
,
0001
0000
0010
0000
0100
0010
0100
1000
0100
0000
1000
0000
0010
0100
0001
0100
0010
0000
1000
0000
0001
0000
0010
0000
1000
0000
0010
0000
0001
0010
0100
0010
,
0001
0000
1000
0000
0001
0000
0100
0000
1000
0000
0100
0000
0001
0000
1000
0000
0100
0000
0001
0000
0100
0000
1000
0000
0010
0100
0010
1000
0010
0000
0000
0000
,
1000
0000
0100
0000
0010
0001
0010
0000
0100
1000
0100
0000
1000
0010
1000
0000
0001
0100
0001
0000
1000
0000
0010
1000
0010
0000
0100
0000
0001
0010
0001
0000
,
1000
0000
0000
0000
0000
0000
0100
0000
0000
0000
0000
0000
0010
0000
0000
0100
0000
0000
0010
0000
0000
0000
0000
0000
0001
0000
0000
1000
0000
0000
0001
0000
0000
0000
0000
0000
0100
0000
0000
0000
0000
0000
1000
0000
0000
0000
0000
0000
0001
0000
0000
0000
0000
0000
0010
0000
0000
0000
0000
0000
1000
0000
0000
0000
0000
0000
0100
0000
0000
0000
0000
0000
0010
0000
0000
0000
0000
0000
0000
0000
0000
0000
0000
0000
0000
0000
0000
0000
0001
0000
1000
0000
0000
0000
0000
0000
,
0001
0010
0000
0000
0100
0010
0000
0000
0001
1000
0000
0000
1000
0020
0030
0000
0000
0000
0001
0000
0000
0010
0000
0000
1000
0010
0000
0000
0100
0010
0000
0000
1000
0001
0000
0000
0001
0020
0030
0000
0000
0000
1000
0000
0000
0010
0000
0000
,
0001
0100
0000
0000
1000
0000
0000
0000
0100
0000
0000
0000
0001
1000
0000
0000
0100
0000
0000
0000
0001
0000
0000
0000
0100
1000
0000
0000
0010
0100
0000
0000
0001
1000
0000
0000
0100
0020
0030
0000
0000
0000
0000
0000
0000
0000
0000
0000
,
0001
0010
0000
0000
0100
1000
0000
0000
0001
0100
0000
0000
0001
0020
0030
0000
0000
0000
0001
0000
0000
0000
0000
0000
1000
0010
0000
0000
0100
0001
0000
0000
1000
0100
0000
0000
1000
0020
0030
0000
0000
0000
1000
0000
0000
0000
0000
0000
,
0001
0010
0000
0000
1000
0000
0000
0000
0010
0000
0000
0000
0001
1000
0000
0000
0010
0000
0000
0000
0001
0000
0000
0000
0010
1000
0000
0000
0100
0010
0000
0000
0001
0100
0000
0000
0001
0020
0030
0000
0000
0000
0000
0000
0000
0000
0000
0000
,
1100
0000
0000
0000
0000
0000
0000
0000
0000
0000
0000
0000
0001
0000
0000
0000
0000
0000
0000
0000
0000
0000
0000
0000
0101
0000
0000
0000
0000
0000
0000
0000
0001
1000
0000
0000
0100
0010
0000
0000
0001
0100
0000
0000
1000
0100
0000
0000
,
0001
0020
0030
0000
0000
0000
0000
0000
0000
0000
0000
0000
0000
0000
0000
0000
0000
0000
0000
0000
0000
0000
0000
0000
0000
0000
0000
0000
0000
0000
0000
0000
0000
0000
0000
0000
0000
0000
0000
0000
0000
0000
0000
0000
0000
0000
0000
0000
;
