#VERSION:0.83;
#TITLE:Linear Locomotive Love;
#SUBTITLE:;
#ARTIST:seiya-murai feat.ALT;
#TITLETRANSLIT:;
#SUBTITLETRANSLIT:;
#ARTISTTRANSLIT:;
#GENRE:;
#ORIGIN:;
#CREDIT:;
#BANNER:Linear Locomotive Love.png;
#BACKGROUND:Linear Locomotive Love-bg.png;
#PREVIEWVID:;
#JACKET:Linear Locomotive Love-jacket.png;
#CDIMAGE:;
#DISCIMAGE:;
#LYRICSPATH:;
#CDTITLE:;
#MUSIC:Linear Locomotive Love.ogg;
#OFFSET:-1.153620;
#SAMPLESTART:56.011002;
#SAMPLELENGTH:15.000000;
#SELECTABLE:YES;
#BPMS:0.000=140.000;
#STOPS:;
#DELAYS:;
#WARPS:;
#TIMESIGNATURES:0.000=4=4;
#TICKCOUNTS:0.000=4;
#COMBOS:0.000=1;
#SPEEDS:0.000=1.000=0.000=0;
#SCROLLS:0.000=1.000;
#FAKES:;
#LABELS:0.000=Song Start;
#BGCHANGES:;
#KEYSOUNDS:;
#ATTACKS:
;

//---------------dance-single - ----------------
#NOTEDATA:;
#CHARTNAME:;
#STEPSTYPE:dance-single;
#DESCRIPTION:;
#CHARTSTYLE:;
#DIFFICULTY:Hard;
#METER:11;
#RADARVALUES:0.477137,0.495829,0.352934,0.163555,0.017216,388.000000,347.000000,41.000000,19.000000,0.000000,0.000000,0.000000,0.000000,0.000000,0.477137,0.495829,0.352934,0.163555,0.017216,388.000000,347.000000,41.000000,19.000000,0.000000,0.000000,0.000000,0.000000,0.000000;
#CREDIT:Marten;
#NOTES:
// measure 0
0000
0000
0000
0000
,  // measure 1
0000
0000
0000
0000
,  // measure 2
0000
0000
0000
0000
,  // measure 3
0000
0000
0000
0000
,  // measure 4
0001
0000
0101
0000
1000
0100
1000
0001
,  // measure 5
0000
0100
0000
0010
0000
1000
0100
1000
,  // measure 6
0010
0000
0110
0000
0100
0001
0010
0100
,  // measure 7
0000
1000
0000
0100
1000
0001
1000
0001
,  // measure 8
0100
0000
0001
0010
0000
0010
0100
0000
,  // measure 9
1000
0100
0010
0002
0000
0000
0103
0000
,  // measure 10
0010
0000
0010
1000
0000
1000
0100
1000
,  // measure 11
0020
0100
0001
0130
,  // measure 12
0110
0000
1000
0100
0000
1000
0001
1000
,  // measure 13
0010
0100
0001
1000
0000
1001
0000
1010
,  // measure 14
0000
1000
0100
1000
0000
0010
0100
0001
,  // measure 15
1000
0100
0100
0001
0100
0100
0110
0000
,  // measure 16
0011
0000
0010
0100
0000
0100
0010
0000
,  // measure 17
0001
0100
0010
2000
0000
0000
3100
0000
,  // measure 18
1000
0000
0001
0100
0000
0010
1000
0001
,  // measure 19
0200
0010
1000
0310
,  // measure 20
1000
0000
0100
1000
0000
1000
0001
0100
,  // measure 21
0010
1000
0100
1000
0000
0010
1000
0100
,  // measure 22
0000
0010
0001
0100
0000
0010
1000
0001
,  // measure 23
1000
0100
1000
0002
0000
0100
0103
0000
,  // measure 24
2010
0000
3001
0100
0100
0010
1000
0100
,  // measure 25
0000
0210
0000
0000
0010
0000
0310
0000
,  // measure 26
0012
0000
1003
0100
0100
1000
0020
0001
,  // measure 27
0000
0100
1030
1001
,  // measure 28
2000
0000
0000
0100
3100
0010
0001
0101
,  // measure 29
0000
0010
1000
1100
0000
1000
0001
1001
,  // measure 30
0010
0000
0100
0001
0000
0001
0010
0100
,  // measure 31
1000
0010
0100
0101
0000
1001
0000
1000
,  // measure 32
0020
0000
1000
0000
0130
0000
0001
0010
,  // measure 33
0100
0010
0001
1000
0000
0010
0100
0001
,  // measure 34
2000
0000
3100
0010
0001
1000
0010
0200
,  // measure 35
0000
0000
0000
0001
0301
0000
1001
0000
,  // measure 36
1000
0100
1000
0000
0010
0000
0010
0000
,  // measure 37
0100
0001
0100
0000
0010
0000
0010
0000
,  // measure 38
1000
0100
1000
0001
0000
0101
0000
1001
,  // measure 39
0000
0000
1000
0000
0100
0000
0010
0100
0010
0000
0000
0000
0110
0000
0000
0000
,  // measure 40
0020
0000
0001
0000
0130
0000
1000
0100
,  // measure 41
0010
0100
1000
0001
0000
0100
0010
1000
,  // measure 42
0002
0000
1003
0100
1000
0001
0010
0200
,  // measure 43
0000
0000
0000
0010
0310
0000
0010
0000
,  // measure 44
0001
0100
0001
0000
0010
0000
0010
0000
,  // measure 45
0100
1000
0100
0000
0010
0000
0010
0000
,  // measure 46
0001
0100
0001
1000
0000
1100
0000
1001
,  // measure 47
0000
0000
0001
0000
0100
0000
0010
0100
0010
0000
0000
0000
0110
0000
0000
0000
,  // measure 48
1000
0010
1000
0010
0000
0110
0000
0101
,  // measure 49
0000
0001
0010
0100
0000
1001
1001
0000
,  // measure 50
0001
0010
0001
0010
0000
0110
0000
1100
,  // measure 51
0000
0000
1000
0000
0010
0000
0000
0000
1000
0010
1000
0000
0001
0010
0001
0000
,  // measure 52
0100
0010
1000
0001
0000
1010
0000
0102
,  // measure 53
0000
1003
0100
2100
0000
3001
0010
1000
,  // measure 54
0000
1000
0010
0001
0000
1000
0001
1001
,  // measure 55
0000
0010
0100
0001
1000
1000
0002
0000
,  // measure 56
1003
0100
1000
0010
0100
0001
0000
0101
,  // measure 57
0000
0010
1000
0100
0000
0100
1000
0001
,  // measure 58
1000
0100
0010
0001
0010
0100
1000
0001
,  // measure 59
0000
1001
0000
0110
0000
0010
1000
0100
,  // measure 60
1000
0001
0100
0001
1000
0010
0000
1010
,  // measure 61
0000
1000
0100
1000
0000
0001
0100
0010
,  // measure 62
1000
0100
0001
0100
1000
0010
0100
0101
,  // measure 63
0000
1100
0000
1001
0000
0010
0100
0010
,  // measure 64
0110
0000
0000
0000
;

//---------------dance-single - ----------------
#NOTEDATA:;
#CHARTNAME:;
#STEPSTYPE:dance-single;
#DESCRIPTION:;
#CHARTSTYLE:;
#DIFFICULTY:Medium;
#METER:9;
#RADARVALUES:0.379988,0.413191,0.249636,0.094690,0.000000,309.000000,280.000000,29.000000,11.000000,0.000000,0.000000,0.000000,0.000000,0.000000,0.379988,0.413191,0.249636,0.094690,0.000000,309.000000,280.000000,29.000000,11.000000,0.000000,0.000000,0.000000,0.000000,0.000000;
#CREDIT:Marten;
#NOTES:
// measure 0
0000
0000
0000
0000
,  // measure 1
0000
0000
0000
0000
,  // measure 2
0000
0000
0000
0000
,  // measure 3
0000
0000
0000
0000
,  // measure 4
1000
0000
1100
0000
0001
0100
0000
0010
,  // measure 5
0000
1000
0000
0100
0000
0010
0001
0000
,  // measure 6
1000
0000
0101
0000
1000
0100
0000
1000
,  // measure 7
0000
0010
0000
0100
0000
0001
1000
0000
,  // measure 8
1100
0000
0100
0010
0000
0010
0100
0000
,  // measure 9
1000
0100
0000
2000
0000
0000
3001
0000
,  // measure 10
0101
0000
0100
0010
0000
0010
1000
0020
,  // measure 11
0000
0100
0130
0110
,  // measure 12
0001
0000
1000
0010
0000
0010
1000
0000
,  // measure 13
0001
1000
0000
0001
0000
1000
0100
1000
,  // measure 14
0000
0001
0100
0001
0000
0100
0010
0000
,  // measure 15
1001
0000
0010
0100
0000
0100
0010
0000
,  // measure 16
1010
0000
1000
0100
0000
0100
1000
0000
,  // measure 17
0001
0100
0000
0020
0000
0000
0130
0000
,  // measure 18
0101
0000
0001
0100
0000
0100
0010
0200
,  // measure 19
0000
0010
0310
1000
,  // measure 20
1100
0000
1000
0010
0000
0010
1000
0000
,  // measure 21
0001
0100
0000
0010
0000
1000
0010
1000
,  // measure 22
0000
0001
0010
0001
0000
0100
0010
0000
,  // measure 23
1000
0001
0001
0000
0001
1000
1000
0000
,  // measure 24
0020
0000
1030
0100
1000
0000
0100
0010
,  // measure 25
0000
0001
0020
0000
0000
0000
0130
0000
,  // measure 26
0001
0000
1000
0000
0010
0100
0000
0120
,  // measure 27
0000
0100
0130
0001
,  // measure 28
0020
0000
0000
0000
0030
0100
1000
0100
,  // measure 29
0000
0010
0001
0010
0000
0001
1000
0000
,  // measure 30
1010
0000
0100
0001
0000
0001
1000
0000
,  // measure 31
0010
1000
0000
0001
0000
1001
0000
0000
,  // measure 32
1010
1001
1010
0010
,  // measure 33
0100
0001
0100
0001
0000
0000
1000
0000
,  // measure 34
0100
0000
1000
0010
0000
0100
0000
0002
,  // measure 35
0000
0000
0000
1000
1003
0000
0001
0000
,  // measure 36
1000
1000
0001
0001
,  // measure 37
0010
0010
0100
0100
,  // measure 38
1000
0000
0001
0100
0000
0001
0100
0000
,  // measure 39
0010
0000
1000
0001
1000
0000
1001
0000
,  // measure 40
0011
1001
0011
0010
,  // measure 41
0100
1000
0100
1000
0000
0000
0001
0000
,  // measure 42
0100
0000
0001
0010
0000
0100
0000
2000
,  // measure 43
0000
0000
0000
0001
3001
0000
1000
0000
,  // measure 44
0001
0001
0100
0100
,  // measure 45
0010
0010
1000
1000
,  // measure 46
0001
1000
0001
1000
0000
0010
0000
0210
,  // measure 47
0000
0000
0000
0010
0310
0000
1000
0000
,  // measure 48
0001
0100
0001
0000
1000
0100
0000
0110
,  // measure 49
0000
0010
0000
0001
0000
1000
0010
0000
,  // measure 50
0100
0000
0001
0100
0000
0010
0000
1010
,  // measure 51
0000
1000
0000
0100
1000
1000
0001
0001
,  // measure 52
0100
0000
0010
0100
0000
0101
0000
0011
,  // measure 53
0000
0010
0100
1000
0000
0001
1000
0001
,  // measure 54
0000
1000
0001
1000
0000
0000
0001
0010
,  // measure 55
0000
0010
0100
0000
1000
0000
1001
0000
,  // measure 56
0001
0000
0101
0000
0010
1000
0000
0100
,  // measure 57
0000
1000
0000
0001
0000
0100
0010
0000
,  // measure 58
1000
0000
1100
0000
1000
0100
0000
0010
,  // measure 59
0000
0001
0000
0100
0000
0010
0100
0000
,  // measure 60
0001
0000
0011
0000
1000
0010
0000
0100
,  // measure 61
0000
0010
0000
1000
0000
0001
1000
0000
,  // measure 62
0010
0000
1010
0000
0010
1000
0000
0001
,  // measure 63
0000
0010
0000
0100
0000
1000
0001
1000
,  // measure 64
0001
0000
0000
0000
;

//---------------dance-single - ----------------
#NOTEDATA:;
#CHARTNAME:;
#STEPSTYPE:dance-single;
#DESCRIPTION:;
#CHARTSTYLE:;
#DIFFICULTY:Easy;
#METER:5;
#RADARVALUES:0.243488,0.358099,0.086081,0.249636,0.000000,198.000000,188.000000,10.000000,29.000000,0.000000,0.000000,0.000000,0.000000,0.000000,0.243488,0.358099,0.086081,0.249636,0.000000,198.000000,188.000000,10.000000,29.000000,0.000000,0.000000,0.000000,0.000000,0.000000;
#CREDIT:Marten;
#NOTES:
// measure 0
0000
0000
0000
0000
,  // measure 1
0000
0000
0000
0000
,  // measure 2
0000
0000
0000
0000
,  // measure 3
0000
0000
0000
0000
,  // measure 4
1000
1001
1000
0010
,  // measure 5
1000
0001
1000
0000
,  // measure 6
0001
1001
0001
0010
,  // measure 7
0200
0000
0000
0310
,  // measure 8
0001
0100
0010
1000
,  // measure 9
0001
0000
1000
0000
,  // measure 10
0100
0100
1000
1000
,  // measure 11
0002
0000
0003
0000
,  // measure 12
0100
0100
0010
1000
,  // measure 13
0001
1000
0200
0300
,  // measure 14
1000
1000
0001
0001
,  // measure 15
0020
0030
0200
0300
,  // measure 16
1000
1000
0100
0100
,  // measure 17
1000
0010
1010
0000
,  // measure 18
0100
0100
0001
0010
,  // measure 19
0002
0000
2003
0000
,  // measure 20
3010
0010
0100
0100
,  // measure 21
0001
1000
0001
0000
,  // measure 22
1000
0010
1000
0001
,  // measure 23
0010
0010
0200
0300
,  // measure 24
2000
3000
0001
0100
,  // measure 25
0010
0020
0000
0030
,  // measure 26
1000
1000
0001
1000
,  // measure 27
0020
0000
0130
0100
,  // measure 28
0002
0000
1003
1000
,  // measure 29
0100
1000
0001
1000
,  // measure 30
0002
0003
2000
3000
,  // measure 31
0020
0000
0200
0330
,  // measure 32
0001
0001
0001
0000
,  // measure 33
1000
1000
1000
0000
,  // measure 34
0100
1000
0001
1000
,  // measure 35
0020
0000
0130
0000
,  // measure 36
0002
0000
0103
0000
,  // measure 37
2000
0000
3100
0000
,  // measure 38
1000
0010
0100
0001
,  // measure 39
0200
0000
0310
0000
,  // measure 40
1010
1010
1010
0000
,  // measure 41
0011
0011
0011
0000
,  // measure 42
1000
1000
0010
0100
,  // measure 43
0002
0000
0103
0000
,  // measure 44
0020
0000
1030
0000
,  // measure 45
0200
0000
1300
0000
,  // measure 46
0001
0001
1000
1000
,  // measure 47
0020
0000
0200
0330
,  // measure 48
0001
0001
0010
0020
,  // measure 49
0100
0030
0200
0310
,  // measure 50
1000
1000
0001
1000
,  // measure 51
0020
0000
0100
0130
,  // measure 52
0001
0001
0100
0010
,  // measure 53
2000
0000
3100
0000
,  // measure 54
1000
0100
1000
0100
,  // measure 55
0010
0001
0010
0001
,  // measure 56
0100
0100
0001
0000
,  // measure 57
1000
0100
1000
0001
,  // measure 58
0010
0010
0001
0000
,  // measure 59
1000
0010
1000
0001
,  // measure 60
0100
0100
0001
0000
,  // measure 61
1000
0100
1000
0001
,  // measure 62
1000
0010
0100
0000
,  // measure 63
0001
0010
0100
1000
,  // measure 64
1001
0000
0000
0000
;

//---------------dance-single - ----------------
#NOTEDATA:;
#CHARTNAME:;
#STEPSTYPE:dance-single;
#DESCRIPTION:;
#CHARTSTYLE:;
#DIFFICULTY:Beginner;
#METER:2;
#RADARVALUES:0.092230,0.137730,0.008608,0.068865,0.000000,75.000000,74.000000,1.000000,8.000000,0.000000,0.000000,0.000000,0.000000,0.000000,0.092230,0.137730,0.008608,0.068865,0.000000,75.000000,74.000000,1.000000,8.000000,0.000000,0.000000,0.000000,0.000000,0.000000;
#CREDIT:Marten;
#NOTES:
// measure 0
0000
0000
0000
0000
,  // measure 1
0000
0000
0000
0000
,  // measure 2
0000
0000
0000
0000
,  // measure 3
0000
0000
0000
0000
,  // measure 4
0001
0000
0000
0000
,  // measure 5
1000
0000
0000
0000
,  // measure 6
0001
0000
0000
0000
,  // measure 7
1000
0000
0000
0000
,  // measure 8
0100
0000
0100
0000
,  // measure 9
0010
0000
0000
0000
,  // measure 10
0010
0000
0010
0000
,  // measure 11
0100
0000
0000
0000
,  // measure 12
1000
0000
1000
0000
,  // measure 13
0001
0000
0000
0000
,  // measure 14
0001
0000
0001
0000
,  // measure 15
1000
0000
0000
0000
,  // measure 16
0001
0000
0000
0000
,  // measure 17
1000
0000
0000
0000
,  // measure 18
0010
0000
0000
0000
,  // measure 19
0010
0000
0000
0000
,  // measure 20
1000
0000
0000
0000
,  // measure 21
0001
0000
0000
0000
,  // measure 22
0010
0000
0000
0000
,  // measure 23
0010
0000
0000
0000
,  // measure 24
0100
0000
0000
0000
,  // measure 25
0100
0000
0000
0000
,  // measure 26
0010
0000
0000
0000
,  // measure 27
0020
0000
0000
0030
,  // measure 28
0010
0000
0000
0000
,  // measure 29
1000
0000
0000
0000
,  // measure 30
1000
0000
1000
0000
,  // measure 31
1001
0000
0000
0000
,  // measure 32
0002
0000
0000
0003
,  // measure 33
0001
0000
0001
0000
,  // measure 34
2000
0000
3000
0000
,  // measure 35
0020
0000
0000
0030
,  // measure 36
0100
0000
0000
0000
,  // measure 37
0100
0000
0000
0000
,  // measure 38
0001
0000
0000
0000
,  // measure 39
0002
0000
0000
0003
,  // measure 40
2000
0000
0000
3000
,  // measure 41
1000
0000
1000
0000
,  // measure 42
0002
0000
0000
0003
,  // measure 43
0020
0000
0000
0030
,  // measure 44
0100
0000
0000
0000
,  // measure 45
0100
0000
0000
0000
,  // measure 46
1000
0000
1000
0000
,  // measure 47
0001
0000
0001
0000
,  // measure 48
0100
0000
0000
0000
,  // measure 49
0010
0000
0000
0000
,  // measure 50
0100
0000
0000
0000
,  // measure 51
0010
0000
0000
0000
,  // measure 52
1000
0000
0000
0000
,  // measure 53
0001
0000
0000
0000
,  // measure 54
1000
0000
0000
0000
,  // measure 55
0001
0000
0000
0000
,  // measure 56
1000
0000
1000
0000
,  // measure 57
1000
0000
0000
0000
,  // measure 58
0001
0000
0001
0000
,  // measure 59
0001
0000
0000
0000
,  // measure 60
1000
0000
1000
0000
,  // measure 61
1000
0000
0000
0000
,  // measure 62
0001
0000
0001
0000
,  // measure 63
0001
0000
0000
0000
,  // measure 64
0100
0000
0000
0000
;
