#TITLE:Iroha;
#SUBTITLE:;
#ARTIST:Ryunosuke Kudo;
#TITLETRANSLIT:;
#SUBTITLETRANSLIT:;
#ARTISTTRANSLIT:;
#GENRE:;
#CREDIT:;
#MUSIC:Iroha.ogg;
#BANNER:Iroha.png;
#BACKGROUND:Iroha-bg.png;
#CDTITLE:;
#SAMPLESTART:74.545;
#SAMPLELENGTH:15.000;
#SELECTABLE:YES;
#OFFSET:0.000;
#BPMS:0.000=132.000;
#STOPS:;
#BGCHANGES:;
#FGCHANGES:;

//--------------- dance-single - Marten ----------------
#NOTES:
     dance-single:
     Marten:
     Beginner:
     2:
     0,0,0,0,0:
0000
0000
0000
0000
,
0000
0000
0000
0000
,
0000
0000
0000
0000
,
0000
0000
0000
0000
,
0000
0000
0000
0000
,
0001
0000
0000
0000
,
1000
0000
0000
0000
,
0001
0000
1000
0000
,
0002
0000
0000
0003
,
0100
0000
0100
0000
,
0100
0000
0100
0000
,
0010
0000
0010
0000
,
0010
0000
0010
0000
,
1000
0000
1000
0000
,
1000
0000
1000
0000
,
0001
0000
0001
0000
,
1000
0000
1001
0000
,
0001
0000
0010
0000
,
0001
0000
0010
0000
,
0100
0000
1000
0000
,
0100
0000
1000
0000
,
0010
0000
1000
0000
,
0010
0000
1000
0000
,
0001
0000
0100
0000
,
0001
0000
0100
0000
,
0001
0000
0001
0000
,
1000
0000
1000
0000
,
0010
0000
0010
0000
,
0100
0100
0100
0000
,
0002
0000
0000
0003
,
2000
0000
0000
3000
,
0200
0000
0000
0000
,
0000
0300
0020
0030
,
0001
0000
0001
0000
,
1000
0000
0000
0000
,
1000
0000
1000
0000
,
0001
0000
0000
0000
,
0100
0000
0100
0000
,
0100
0000
0100
0000
,
0010
0000
0010
0000
,
0100
0100
0100
0000
,
0001
0000
0100
0000
,
1000
0000
0100
0000
,
0001
0000
0010
0000
,
0100
0000
1000
0000
,
1000
0000
0100
0000
,
0001
0000
0100
0000
,
1000
0000
0010
0000
,
0100
0000
0000
0010
,
0010
0000
1000
1000
,
1000
0000
0001
0001
,
0001
0000
0010
0000
,
0100
0000
1000
0000
,
0001
0001
0001
0000
,
1000
1000
1000
0000
,
0010
0000
0010
0000
,
0100
0100
0100
0000
,
0002
0000
0000
0003
,
2000
0000
0000
3000
,
0200
0000
0000
0000
,
0000
0300
0020
0030
,
0002
0000
0000
0003
,
0020
0000
0000
0030
,
0200
0000
0300
2000
,
0000
0000
0000
0000
,
3000
0000
0000
0000
;

//--------------- dance-single - Marten ----------------
#NOTES:
     dance-single:
     Marten:
     Easy:
     6:
     0,0,0,0,0:
0000
0000
0000
0000
,
0000
0000
0000
0000
,
0000
0000
0000
0000
,
0000
0000
0000
0000
,
0000
0000
0000
0000
,
0001
0100
0001
0001
,
1000
0100
0010
0000
,
1000
0100
1000
1000
,
0001
0000
0100
0000
0000
0210
0000
0000
,
0301
0101
1000
0101
,
1000
0101
1000
0101
,
0002
1003
0001
1100
,
0001
1100
0001
2000
,
3001
0011
1000
0011
,
1000
0011
1000
0011
,
0002
1003
0001
1010
,
0001
1010
0001
0020
,
0031
0100
0010
0010
,
1000
0100
0010
0010
,
0001
1000
0100
0100
,
1000
0001
0100
0100
,
0001
0010
0100
0100
,
1000
0010
0100
0100
,
0001
1000
0010
0010
,
1000
0001
0010
0010
,
0001
0101
1000
1100
,
0001
1000
0001
1001
,
1000
0010
0100
0001
,
0010
1000
0020
0030
,
0002
0000
0000
0000
,
0203
0000
0000
0000
,
0320
0000
0000
0100
0000
0000
1000
0000
,
0000
0100
0000
0000
2030
0000
3002
0000
,
1003
0100
1100
0000
,
0001
0100
0101
0000
,
1000
0010
1010
0000
,
0001
0010
0011
0000
,
0001
0100
0010
0010
,
1000
0100
0010
0010
,
0001
1001
1000
1001
,
0010
0100
2002
3003
,
0002
0010
1000
0010
,
1000
0100
1003
1001
,
2000
0010
0001
0010
,
0001
0100
3001
1001
,
0002
0100
1000
0100
,
1000
0010
1003
1001
,
2000
0100
0001
0100
,
3001
0100
0010
0110
,
1010
1000
0100
1001
,
0011
0001
0100
1001
,
1100
0100
0010
1001
,
0101
0100
0010
1001
,
1000
0010
0100
0101
,
0001
0010
0100
1100
,
1000
1000
0001
0001
,
1000
0001
0110
1001
,
2000
0000
0000
0000
,
3200
0000
0000
0000
,
0320
0000
0000
0100
0000
0000
0001
0000
,
0000
0100
0000
0000
0032
0000
2003
0000
,
3002
0000
0000
0000
,
0203
0000
0000
0000
,
0320
0000
0000
2030
0000
0000
0002
0000
,
0000
0000
0000
0000
,
3003
0000
0000
0000
;

//--------------- dance-single - Marten ----------------
#NOTES:
     dance-single:
     Marten:
     Medium:
     11:
     0,0,0,0,0:
0000
0000
0000
0000
,
0000
0000
0000
0000
,
0000
0000
0000
0000
,
0000
0000
0000
0000
,
0000
0000
0000
0000
,
1000
0001
0100
0000
0010
1000
0100
1000
,
0001
0010
0100
0000
0010
0001
1000
0000
,
0001
1000
0100
0000
0010
0001
0100
0001
,
1000
0010
0100
0000
0001
1002
0000
0000
,
2003
0000
3100
1000
0010
1000
0100
1000
,
0010
1000
0100
1000
0010
1000
0100
0010
,
0002
0000
0103
0001
0010
0001
0100
0001
,
0010
0001
0100
0001
0010
0001
0200
0000
,
0320
0000
1030
0100
0010
0100
1000
0010
,
0100
0010
1000
0100
0010
0100
1000
0010
,
0200
0000
0301
0010
0100
0010
0001
0100
,
0010
0100
0001
0010
0100
0010
0001
0000
,
1000
0010
0100
0100
0010
1000
0001
0000
,
0001
0010
0100
0100
0010
0001
1000
0000
,
1000
0100
0010
0010
0100
1000
0001
0000
,
0001
0100
0010
0010
0100
0000
0110
0000
,
1001
0001
0010
1000
0010
0001
1000
0000
,
0001
1000
0010
0001
0010
1000
0001
0000
,
1000
0001
0100
1000
0100
0001
1000
0000
,
0001
1000
0100
0001
0100
1000
0001
0000
,
1000
0100
0010
0000
0001
0100
0010
0000
,
1000
1000
0001
0001
0100
0100
0010
0010
,
1000
0100
0010
0001
0100
0010
1000
0001
,
0010
1000
0010
0001
1000
0010
0200
0300
,
0002
0000
0000
0000
0000
0000
0000
0000
0000
0000
0010
0000
0000
0010
0000
0000
,
0023
0000
0000
0000
0000
0000
0000
0000
0000
0000
0100
0000
0000
0100
0000
0000
,
0230
0000
0000
2300
0000
0000
3002
0000
,
0000
0203
0000
0000
0320
0000
0230
0000
,
0301
0010
0100
0010
0001
0000
1001
0000
,
1000
0010
0100
0010
1000
0000
1001
0000
,
1000
0100
0010
0100
1000
0000
1001
0000
,
0001
0100
0010
0100
0001
0000
1001
0000
,
0101
0101
1100
1100
,
0110
0110
1001
1001
,
0001
0010
0100
1000
0010
0100
0001
1000
,
0010
0001
0010
1000
0001
0010
0200
0300
,
1100
1000
0100
0001
0100
1000
0010
0100
,
0010
0000
1000
0000
0001
0000
0100
0000
0010
0000
0000
0100
0000
0100
0000
0000
,
0101
0001
0100
1000
0100
0001
0010
0100
,
0010
0000
0001
0000
1000
0000
0100
0000
0010
0000
0000
0100
0000
0100
0000
0000
,
0011
0001
0100
0010
0100
1000
0100
0010
,
0100
0000
0001
0000
0010
0000
0100
0000
1000
0000
0000
0010
0000
0010
0000
0000
,
1010
1000
0100
0010
0100
0001
0100
0010
,
0100
0000
0010
0001
0100
0010
0200
0300
,
0101
0100
0010
0100
0001
0010
0100
0000
,
1100
0100
0010
0100
1000
0010
0100
0000
,
1010
0010
0100
0010
1000
0100
0010
0000
,
0011
0010
0100
0010
0001
0100
0110
0000
,
0001
0100
1000
0100
0001
0010
0100
0100
,
1000
0100
0001
0100
1000
0010
0200
0000
,
0310
1000
0100
0010
0001
0100
0010
1000
,
0001
0010
1000
0010
0001
1000
0020
0030
,
2000
0000
0000
0000
0000
0000
0000
0000
0000
0000
0010
0000
0000
0010
0000
0000
,
3020
0000
0000
0000
0000
0000
0000
0000
0000
0000
0100
0000
0000
0100
0000
0000
,
0230
0000
0000
0302
0000
0000
2003
0000
,
0000
3200
0000
0000
0320
0000
0230
0000
,
2300
0000
0000
0000
0000
0000
0000
0000
0000
0000
0010
0000
0000
0010
0000
0000
,
3020
0000
0000
0000
0000
0000
0000
0000
0000
0000
0100
0000
0000
0100
0000
0000
,
0230
0000
0000
0302
0000
0000
2000
0000
,
0000
0000
0000
0000
,
3003
0000
0000
0000
;

//--------------- dance-single - Marten ----------------
#NOTES:
     dance-single:
     Marten:
     Hard:
     15:
     0,0,0,0,0:
0000
0000
0000
0000
,
0000
0000
0000
0000
,
0000
0000
0000
0000
,
0000
0000
0000
0000
,
0000
0000
0000
0000
,
0001
0000
1000
0000
0010
0000
0000
0100
0001
0100
0001
0000
0010
0000
0000
0100
,
1000
0100
1000
0001
1000
0000
0100
0000
0001
0000
0100
0000
1000
0000
0001
0000
,
0100
0000
0100
0000
0001
0000
0000
0010
0001
0010
0001
0000
0100
0000
0000
0010
,
1000
0010
1000
0001
1000
0000
0010
0000
1000
0000
2100
0000
0000
0000
0000
0000
,
3002
0000
0000
0000
0013
0000
0001
0100
0000
0001
0010
0001
0000
1000
0010
1000
,
0000
0001
0100
0001
0000
1000
0100
1000
0000
0010
0100
0010
0000
1000
0001
1000
,
0002
0000
0000
0000
0013
0000
0100
1000
0000
0001
0100
0001
0000
1000
0010
1000
,
0000
0001
0010
0001
0000
1000
0100
1000
0000
0010
0100
0010
0200
0000
0000
0000
,
0302
0000
0000
0000
0013
0000
0001
1000
0000
0010
1000
0100
0000
0010
0001
0100
,
0000
0001
1000
0010
0000
1000
0001
0010
0000
0100
1000
0001
0000
0100
0001
1000
,
0002
0000
0000
0000
0103
0000
0010
1000
0000
0001
0010
0100
0000
0100
0010
0001
,
0000
1000
0010
0100
0000
0100
0010
1000
0000
0001
0010
0100
2000
0000
3000
0000
,
1001
0000
0001
0000
0010
0100
0010
0000
0001
0000
0100
0000
0110
0000
0000
0000
,
1010
0010
1000
0100
0001
0100
1100
0000
,
0011
0010
0001
0100
1000
0100
0101
0000
,
0110
0000
0010
0000
1000
0000
0100
0010
0001
0010
0100
1000
0001
0000
0001
0000
,
1001
0000
1000
0000
0010
1000
0100
0000
0001
0000
0100
0000
1100
0000
0000
0000
,
1001
0000
0001
0000
0010
0001
0100
0000
1000
0000
0100
0000
0101
0000
0000
0000
,
1001
0000
1000
0000
0100
1000
0010
0000
0001
0000
0010
0000
1010
0000
0000
0000
,
1001
0000
0001
0000
0100
0001
0010
0000
1000
0000
0010
0000
0011
0000
0000
0000
,
0001
0000
0100
0000
0010
0000
0100
0001
1000
0000
0100
0000
0010
0000
0100
1000
,
0001
0000
0100
0010
1000
0000
0100
0010
0001
0000
1000
0010
0100
0000
0001
0010
,
0100
1000
0100
1000
0001
0100
0001
0100
0010
1000
0010
1000
0001
0010
0001
0010
,
0100
1000
0001
0100
0010
1000
0100
0010
0001
0100
0010
1000
0020
0000
0030
0000
,
2000
0000
0000
0000
0000
0000
0000
0000
0000
0000
3020
0000
0000
2030
0000
0000
,
3200
0000
0000
0000
0000
0000
0000
0000
0000
0000
0320
0000
0000
0032
0000
0000
,
2003
0000
0000
3020
0000
0000
0032
0000
,
0000
0023
0000
0000
2030
0000
3002
0000
,
1003
0000
0100
0000
0010
0001
0010
0000
0100
0000
1000
0000
0010
0000
0010
0000
,
0100
0001
0100
1000
0100
0001
0020
0000
,
0130
0010
1000
0010
0001
1000
0010
0010
,
0100
1000
0100
0001
1000
0100
0020
0030
,
0011
1001
1010
1001
,
0101
1100
0110
1001
,
1000
0100
0010
0001
0100
0010
1000
0001
,
1000
0100
1000
0100
0010
0001
0010
0001
1000
0010
0100
0001
0010
0000
0000
0000
,
0011
0000
0001
1000
0010
0000
0010
1000
0100
0000
0100
0010
0001
0000
0001
1000
,
0010
0000
0010
1000
0001
0000
0001
0100
0010
0000
0010
1000
0000
1001
0000
0000
,
1010
0000
1000
0001
0010
0000
0010
0001
0100
0000
0100
0010
1000
0000
1000
0001
,
0010
0000
0010
0001
1000
0000
1000
0100
0010
0000
0010
0001
0000
1001
0000
0000
,
1100
0000
0100
1000
0010
0000
0010
0100
0001
0000
0001
0010
0100
0000
0100
0010
,
0001
0000
0001
0100
1000
0000
1000
0100
0001
0000
0001
1000
0000
1001
0000
0000
,
0101
0000
0100
0001
0010
0000
0010
0100
1000
0000
1000
0010
0100
0000
0100
0010
,
1000
0000
0000
0000
0000
0000
0001
0000
1000
0000
0001
0000
1000
0000
0000
0100
0000
0000
0010
0000
0000
0001
0000
0000
1000
0000
0000
0010
0000
0000
0100
0000
0000
0001
0000
0000
0010
0000
0000
0000
0000
0000
0000
0000
0000
0000
0000
0000
,
1100
0000
0100
0000
0001
0100
1000
0000
0001
0000
0100
0000
0110
0000
0000
0000
,
0101
0000
0100
0000
1000
0100
0001
0000
1000
0000
0100
0000
0110
0000
0000
0000
,
0011
0000
0010
0000
1000
0010
0001
0000
1000
0000
0010
0000
0110
0000
0000
0000
,
1010
0000
0010
0000
0001
0010
1000
0000
0001
0000
0110
0000
1001
0000
0000
0000
,
1010
0000
0010
1000
0001
1000
0100
0000
1100
0000
0010
0000
1001
0000
0000
0000
,
0011
0000
0010
0001
1000
0001
0100
0000
0101
0000
0010
0000
1001
0000
0000
0000
,
1001
0000
0001
1000
0010
0000
1000
0001
0010
0000
0100
1000
0010
0000
0100
0001
,
0010
0000
0000
0000
0000
0000
0100
0000
0010
0000
0100
0000
0010
0000
0000
0001
0000
0000
1000
0000
0000
0010
0000
0000
0100
0000
0000
0001
0000
0000
1000
0000
0000
0100
0000
0000
0020
0000
0000
0000
0000
0000
0030
0000
0000
0000
0000
0000
,
0002
0000
0000
0000
0000
0000
0000
0000
0000
0000
0023
0000
0000
0032
0000
0000
,
0203
0000
0000
0000
0000
0000
0000
0000
0000
0000
0320
0000
0000
2030
0000
0000
,
3002
0000
0000
0023
0000
0000
2030
0000
,
0000
3020
0000
0000
0032
0000
2003
0000
,
3002
0000
0000
0000
0000
0000
0000
0000
0000
0000
0023
0000
0000
0032
0000
0000
,
0203
0000
0000
0000
0000
0000
0000
0000
0000
0000
2300
0000
0000
3002
0000
0000
,
0023
0000
0000
2030
0000
0000
0002
0000
,
0000
0000
0000
0000
,
3003
0000
0000
0000
;
