#TITLE:Insane Techniques;
#SUBTITLE:;
#ARTIST:kors k;
#TITLETRANSLIT:;
#SUBTITLETRANSLIT:;
#ARTISTTRANSLIT:;
#GENRE:;
#CREDIT:;
#BANNER:Insane Techniques.png;
#BACKGROUND:Insane Techniques-bg.png;
#LYRICSPATH:;
#CDTITLE:;
#MUSIC:Insane Techniques.ogg;
#OFFSET:1.086912;
#SAMPLESTART:95.890396;
#SAMPLELENGTH:15.000000;
#LASTBEATHINT:0.162631;
#SELECTABLE:YES;
#BPMS:0.000000=146.000000
,34.000000=73.000000
,35.000000=146.000000
,190.000000=73.000000
,192.000000=146.000000
,211.000000=73.000000
,211.500000=146.000000
,212.750000=73.000000
,213.625000=146.000000
,228.000000=73.000000
,228.500000=146.000000
,258.000000=73.000000
,259.000000=146.000000
,271.000000=73.000000
,273.000000=146.000000
;
#STOPS:61.000000=0.205000,
61.500000=0.205000,
213.625000=0.257000,
228.500000=0.205000,
257.000000=0.103000,
257.250000=0.103000,
257.500000=0.103000,
257.750000=0.103000
;
#BGCHANGES:0.000=Insane Techniques.avi=1.000=0=0=0=StretchNoLoop====,
99999=-nosongbg-=1.000=0=0=0 // don't automatically add -songbackground-
;
#KEYSOUNDS:;
#ATTACKS:;

//---------------dance-single - ----------------
#NOTES:
     dance-single:
     :
     Hard:
     13:
     0.559249,0.756950,0.102812,0.205623,0.466606,495.000000,482.000000,13.000000,26.000000,0.000000,0.000000,0.559249,0.756950,0.102812,0.205623,0.466606,495.000000,482.000000,13.000000,26.000000,0.000000,0.000000:
// measure 0
0000
0000
0000
0000
,  // measure 1
0000
0000
0000
0000
,  // measure 2
0000
0000
0000
0000
,  // measure 3
0000
0000
0000
0000
,  // measure 4
0000
0000
0000
0000
,  // measure 5
0002
0000
0000
0000
,  // measure 6
0000
0000
0000
0000
,  // measure 7
2000
0000
0000
0000
,  // measure 8
0000
0000
0000
0000
3003
0000
0001
1000
,  // measure 9
0010
0000
1000
0000
0100
0000
0000
0010
0000
0000
0100
0000
1000
0000
0100
0000
,  // measure 10
0010
0000
0001
0000
0100
0000
0000
0010
0000
0000
0100
0000
0001
0000
0010
0000
,  // measure 11
1000
0000
0010
0000
0001
0000
0000
0100
0000
0000
0001
0000
1000
0000
0100
0000
,  // measure 12
1000
0000
0010
0000
0100
0000
0000
0001
0000
0000
0010
0000
0000
0000
0100
0000
,  // measure 13
0210
0000
2300
0000
3002
0000
0103
0010
,  // measure 14
1000
0000
0100
1000
0100
0000
0010
0000
0001
0000
0100
0000
0020
0000
0000
0000
,  // measure 15
1030
0001
1001
1001
0001
1000
0002
1003
,  // measure 16
0010
0000
0000
0000
0110
0000
0000
0000
0001
0000
0100
0000
0001
0000
0000
1000
,  // measure 17
0000
0010
0000
0100
0001
0000
0001
0000
1000
0000
0100
0000
1000
0000
0000
0001
,  // measure 18
0000
0010
0000
0100
1000
0000
1000
0000
0001
0000
0010
0000
0001
0000
0000
1000
,  // measure 19
0000
0100
0000
0010
0001
0000
0001
0000
1000
0000
0010
0000
1000
0000
0000
0001
,  // measure 20
0000
0100
0000
0010
1000
0000
1000
0000
0001
0000
0100
0000
0010
0000
1000
0100
,  // measure 21
0000
1000
0000
0001
0100
0000
0010
0000
0100
0000
0001
0000
0010
0000
0100
1000
,  // measure 22
0000
0100
0000
0010
0002
0000
0000
0000
1003
0000
0000
1000
0000
0000
0001
0000
,  // measure 23
0000
0001
0000
0000
0100
0000
0200
0000
0020
0000
0000
0000
0000
0000
0000
0000
,  // measure 24
0330
0000
0000
0000
0110
0000
0000
0000
1000
0000
0100
0000
1000
0010
0000
0100
,  // measure 25
0000
0100
0000
0010
1000
0000
1000
0000
0001
0000
0100
0000
0001
0010
0000
0100
,  // measure 26
0000
0100
0000
0010
0001
0000
0001
0000
1000
0000
0010
0000
0100
0010
0000
1000
,  // measure 27
0000
1000
0000
0100
0010
0000
0010
0000
0001
0000
0010
0000
0100
0010
0000
0001
,  // measure 28
0000
0001
0000
0100
0010
0000
0010
0000
2000
0000
0000
0000
3001
0000
0100
0010
,  // measure 29
0000
1000
0000
0100
0010
0000
0001
0000
1000
0000
0010
0000
0100
0000
0001
0010
,  // measure 30
0000
0100
0000
1000
0002
0000
0000
0000
1003
0000
0000
0000
0010
0000
0000
0000
,  // measure 31
0100
0000
0001
0000
1000
0100
0001
0100
,  // measure 32
1000
0010
0001
0010
2000
0000
0000
0000
,  // measure 33
0000
0000
3020
0000
,  // measure 34
0000
0000
0230
0000
,  // measure 35
0000
0000
0302
0000
,  // measure 36
0000
0000
0000
0000
1003
0100
1000
0100
,  // measure 37
1000
0100
1000
0100
1000
0010
1000
0010
,  // measure 38
1000
0010
1000
0010
0100
0001
0100
0001
,  // measure 39
0100
0001
0100
0001
0010
0001
0010
0001
,  // measure 40
0010
0001
0010
0001
0010
0100
1000
0000
,  // measure 41
0002
0000
1003
0000
0010
0100
0001
0000
,  // measure 42
2000
0000
3001
0000
0010
0100
1000
0100
,  // measure 43
0010
0001
0010
0000
0001
0100
0010
1000
,  // measure 44
0010
0100
0001
0000
0010
0100
1000
0001
,  // measure 45
1000
0010
0100
0000
0010
0100
0001
1000
,  // measure 46
0001
0010
0100
0000
1000
0100
0010
0001
,  // measure 47
0100
0010
0100
0000
0001
1000
0001
0000
0020
0000
0000
0000
0000
0000
0000
0000
,  // measure 48
0130
0000
0000
1000
0000
0000
0001
0000
0100
0010
0100
0000
0010
0000
1000
0000
,  // measure 49
0010
0000
0000
0100
0000
0000
0001
0000
0010
0100
0010
0000
0100
0000
1000
0000
,  // measure 50
0001
0000
0000
1000
0000
0000
0010
0000
0100
0010
0100
0000
0001
0000
1000
0000
,  // measure 51
0100
0000
0000
0010
0000
0000
0001
0000
1000
0010
1000
0000
0100
0000
0100
0000
,  // measure 52
0010
0000
0000
0001
0000
0000
1000
0000
0010
0100
0010
0000
0100
0100
0001
0000
,  // measure 53
0000
0000
1000
0000
0000
0000
0000
0100
0000
0010
0100
0010
0000
0110
0000
0000
0011
0000
0000
0000
0000
0000
0110
0000
0000
0000
0000
0000
1100
0000
0000
0000
,  // measure 54
0000
1001
0000
0000
0101
0000
0100
0000
0010
1000
0010
0000
1000
0100
1000
0000
,  // measure 55
0001
0010
0001
0000
0100
0001
0100
0000
0020
0000
0000
0000
0000
0000
0000
0000
,  // measure 56
0000
0000
0000
0000
,  // measure 57
0130
0000
0110
0000
0100
0000
0001
0010
0000
0001
0010
0000
0100
1000
0100
0000
,  // measure 58
0010
0000
0001
0000
0100
0000
0010
1000
0000
0010
1000
0000
0100
1000
0100
0000
,  // measure 59
0010
0000
0001
0000
0100
0000
0010
0100
0000
0010
0100
0000
0010
1000
0010
0000
,  // measure 60
1000
0000
0100
0000
1000
0000
0001
0010
0000
0100
1000
0000
0001
1000
0001
0000
,  // measure 61
1000
0000
1000
0000
0001
0000
0100
0001
0000
0100
0001
0000
1000
0010
1000
0000
,  // measure 62
0100
0000
0010
0000
0001
0000
1000
0100
0000
1000
0100
0000
0010
0100
0010
0000
,  // measure 63
0001
0000
0100
0000
0010
0000
1000
0001
0000
1000
0001
0000
0100
0010
0100
0000
,  // measure 64
0010
0000
0000
0000
1000
0000
0000
0000
0002
0000
0023
0000
0230
0000
2300
0000
3001
0000
1000
0000
0001
1000
0001
0000
0100
0000
0000
0000
0010
0000
1000
0000
,  // measure 65
0000
1000
0100
0000
0010
0001
0010
0000
0100
0000
1000
0000
0001
0000
0100
0001
,  // measure 66
0000
0001
0010
0000
0100
1000
0100
0000
0010
0000
0001
0000
0100
0000
0010
1000
,  // measure 67
0000
1000
0100
0000
1000
0010
1000
0000
0100
0000
1000
0000
0002
0000
0000
0000
,  // measure 68
1003
0001
1001
0000
0100
0000
0001
0010
0000
0100
1000
0000
0001
0000
0010
0000
,  // measure 69
1000
0000
0010
0000
0001
0000
1000
0010
0000
0100
0001
0000
1000
0000
0100
0000
,  // measure 70
0001
0000
0100
0000
1000
0000
0010
1000
0010
0000
0100
0000
0001
0010
0001
0000
,  // measure 71
0100
0000
0010
0000
1000
0100
1000
0000
0001
0100
0001
0000
0010
0000
0100
0000
,  // measure 72
1000
0001
1000
0001
0020
0000
0000
0000
0000
0000
0000
0000
0000
0000
0000
0000
,  // measure 73
0000
0000
0000
0000
0000
0030
0000
0000
;

//---------------dance-single - ----------------
#NOTES:
     dance-single:
     :
     Challenge:
     16:
     0.711772,0.931630,0.387520,0.268892,0.771086,630.000000,581.000000,49.000000,34.000000,0.000000,0.000000,0.711772,0.931630,0.387520,0.268892,0.771086,630.000000,581.000000,49.000000,34.000000,0.000000,0.000000:
// measure 0
0000
0000
0000
0000
,  // measure 1
0000
0000
0000
0000
,  // measure 2
0000
0000
0000
0000
,  // measure 3
0000
0000
0000
0000
,  // measure 4
0000
0000
0000
0000
,  // measure 5
2000
0000
0000
0000
,  // measure 6
0000
0000
0000
0000
,  // measure 7
0002
0000
0000
0000
,  // measure 8
0000
0000
0000
0000
3003
0000
1000
0010
,  // measure 9
0100
0000
0010
0000
1000
0100
1000
0001
0100
0000
0010
0000
0100
0000
0010
0000
,  // measure 10
1000
0000
0100
0000
1000
0001
0010
0100
1000
0000
0001
0000
0100
0000
0001
0000
,  // measure 11
0010
0000
0001
0000
1000
0010
0100
0001
1000
0000
0100
0000
1000
0000
0010
0000
,  // measure 12
0100
0000
0001
0000
0010
0100
1000
0100
0010
0001
2000
0000
3000
0000
0010
0000
,  // measure 13
2100
0000
3020
0000
0032
0000
0103
1000
,  // measure 14
0001
0000
0010
1000
0010
1000
0010
0001
0100
0000
0010
0000
1000
0000
0100
0000
,  // measure 15
0010
0001
1000
0000
1001
0000
0110
0000
1000
0000
0001
0000
0200
0000
0310
0000
,  // measure 16
1000
0001
0000
1000
0001
0000
0100
0000
0110
0000
0101
0000
0001
1000
0000
0010
,  // measure 17
0000
1000
0100
1000
0001
0010
0100
0000
1100
0000
1001
0000
0001
0100
0000
0010
,  // measure 18
0000
0100
0001
0010
0100
1000
0100
0000
0110
0000
0011
0000
0001
0100
0000
0010
,  // measure 19
0000
1000
0100
1000
0010
0001
0010
0000
1010
0000
1100
0000
1000
0100
0000
0010
,  // measure 20
0100
1000
0001
0100
0010
0000
1000
0000
1002
0000
1003
0000
0010
0100
0001
1000
,  // measure 21
0000
0100
1000
0100
0010
0001
0010
0000
0210
0000
0310
0000
0001
0100
0010
1000
,  // measure 22
0000
0100
0010
0001
0020
0000
0000
0000
0130
0000
0100
1000
0000
1000
0010
0000
,  // measure 23
0010
0001
0000
0001
1000
0100
0001
0000
2002
0000
0000
0000
0000
0000
0000
0000
,  // measure 24
3003
0000
0000
0000
1001
0000
0000
0000
0002
0000
2003
0000
3100
1000
0000
0010
,  // measure 25
0000
0100
0000
0001
0100
0000
0110
0000
0020
0000
0230
0000
0301
0010
0000
0100
,  // measure 26
0000
1000
0000
0001
0010
1000
0010
0000
0002
0000
0203
0000
0310
1000
0000
0001
,  // measure 27
0000
0010
0000
0100
1000
0000
1001
0000
2000
0000
3200
0000
0310
0001
0000
0100
,  // measure 28
0000
0001
0000
1000
0100
0001
0100
0000
2000
0000
0000
0000
3001
0100
0010
0100
,  // measure 29
0000
0010
1000
0100
0001
0000
0100
0000
1000
0000
0010
0000
0100
0001
0000
0100
,  // measure 30
0000
1000
0000
0100
0002
0000
0003
0000
0011
0000
0000
0000
1001
0000
0000
0000
,  // measure 31
1010
0000
0110
0000
0010
1000
0100
0010
,  // measure 32
0001
0100
0010
1000
0100
0010
0001
0100
0020
0000
0000
0000
0000
0000
0000
0000
,  // measure 33
0000
0000
2030
0000
,  // measure 34
0000
0000
3200
0000
,  // measure 35
0000
0000
0302
0000
,  // measure 36
0000
0000
0000
0000
0013
1000
0010
1000
,  // measure 37
0010
1000
0010
1000
0100
1000
0100
1000
,  // measure 38
0100
1000
0100
1000
0100
0001
0100
0001
,  // measure 39
0100
0001
0100
0001
0010
0001
0010
0001
,  // measure 40
0010
0001
0010
1000
0001
0001
0100
0001
,  // measure 41
0001
0100
0001
0001
1000
1000
0100
1000
,  // measure 42
1000
0100
1000
1000
0001
0001
0010
0001
,  // measure 43
0001
0010
0001
0001
1000
1000
0010
1000
,  // measure 44
1000
0010
1000
1000
1001
0000
1100
0000
,  // measure 45
0001
0010
1000
0010
0001
0000
1010
0000
,  // measure 46
0100
0000
0001
0000
0010
0000
0100
0000
1000
0100
0010
0100
1000
0001
0100
0010
,  // measure 47
0100
0001
1000
0010
0001
0010
1000
0100
0002
0000
0000
0000
0000
0000
0000
0000
,  // measure 48
0103
0000
0000
1000
0000
0000
0010
0000
0100
0001
0100
0001
1000
0000
0100
0000
,  // measure 49
1000
0000
0000
0010
0000
0000
0100
0000
0001
0010
0001
0010
0100
0000
1000
0000
,  // measure 50
0001
0000
0000
0100
0000
0000
0001
0000
0010
0100
0010
0100
1000
0000
0001
0000
,  // measure 51
1000
0000
0000
0100
0000
0000
0010
0000
0001
0100
0001
0100
0001
0000
0001
0000
,  // measure 52
1000
0000
0000
0001
0000
0000
0100
0000
0010
1000
0010
1000
0100
0100
0001
0000
,  // measure 53
0000
0000
0100
0000
0000
0000
1000
0100
1000
0001
0100
0010
0000
0110
0000
0000
1100
0000
0000
0000
0000
0000
0101
0000
0000
0000
0000
0000
0110
0000
0000
0000
,  // measure 54
0000
1010
0000
0000
0011
0000
0001
0000
1000
0100
0001
0100
1000
0001
0010
1000
,  // measure 55
0010
0001
1000
0100
0010
0100
1000
0001
0200
0000
0000
0000
0000
0000
0000
0000
,  // measure 56
0000
0000
0000
0000
,  // measure 57
0301
0000
1001
0000
1000
0000
0100
1000
0000
0001
0100
0010
1000
0100
0001
0100
,  // measure 58
1000
0000
0001
0000
0100
0000
0010
1000
0000
0100
0010
0001
0010
1000
0010
0100
,  // measure 59
0001
0000
0100
0000
1000
0000
0001
0100
0000
0010
1000
0100
1000
0010
0100
0001
,  // measure 60
0100
0000
0001
0000
1000
0000
0100
1000
0000
0010
0100
0001
0100
0010
1000
0010
,  // measure 61
0001
0010
1000
0000
1100
0000
0100
1000
0000
1000
0001
0100
0010
0100
0001
0010
,  // measure 62
0100
0000
0010
0000
0011
0000
0001
0100
0000
0010
1000
0100
1000
0001
0010
1000
,  // measure 63
0010
0000
0100
0000
0110
0000
0010
0001
0000
0001
0100
1000
0100
0001
0010
1000
,  // measure 64
0010
0000
0000
0000
0001
0000
0000
0000
2000
0000
3200
0000
0320
0000
0032
0000
0103
0000
0010
0000
1000
0100
1000
0100
0010
0000
0000
0000
0000
0000
0011
0000
,  // measure 65
0000
0000
0101
0000
0001
0100
1000
0100
0001
0000
1000
0000
1010
0000
0000
1001
,  // measure 66
0000
0000
1100
0000
1000
0010
0001
0010
1000
0000
0010
0000
0110
0000
0000
1001
,  // measure 67
0000
0000
0000
0000
0110
0000
0000
0000
0001
0000
0010
0000
1000
0000
0100
0000
0001
0000
0000
0000
0100
0000
0000
0000
1000
0001
1000
0001
0100
0010
0100
0010
,  // measure 68
2000
3001
1001
0000
1100
0000
0000
0101
0000
0000
1100
0000
0001
0100
1000
0100
,  // measure 69
0001
0000
1000
0000
0011
0000
0000
1010
0000
0000
0011
0000
1000
0010
0001
0010
,  // measure 70
1000
0001
1000
0001
1000
0000
0001
0100
0001
0000
0010
0000
0100
1000
0100
0000
,  // measure 71
0010
0000
0001
0000
0100
0010
0100
0010
1000
0001
1000
0001
1000
0010
0001
0010
,  // measure 72
1000
0100
0001
0100
2000
0000
0000
0000
0000
0000
0000
0000
0000
0000
0000
0000
,  // measure 73
0000
0000
0000
0000
0000
3000
0000
0000
;

//---------------dance-single - ----------------
#NOTES:
     dance-single:
     :
     Easy:
     6:
     0.276800,0.378475,0.142354,0.205623,0.011863,245.000000,227.000000,18.000000,26.000000,0.000000,0.000000,0.276800,0.378475,0.142354,0.205623,0.011863,245.000000,227.000000,18.000000,26.000000,0.000000,0.000000:
// measure 0
0000
0000
0000
0000
,  // measure 1
0000
0000
0000
0000
,  // measure 2
0000
0000
0000
0000
,  // measure 3
0000
0000
0000
0000
,  // measure 4
0000
0000
0000
0000
,  // measure 5
0002
0000
0000
0000
,  // measure 6
0000
0000
0000
0000
,  // measure 7
2000
0000
0000
0000
,  // measure 8
0000
0000
3003
0001
,  // measure 9
0101
1000
0100
1000
,  // measure 10
1100
0010
0001
0010
,  // measure 11
0110
1000
0001
0100
,  // measure 12
0110
0010
0200
0000
,  // measure 13
0302
2003
3200
0310
,  // measure 14
0001
1000
0001
0200
,  // measure 15
0000
0000
0310
0010
0100
0000
0002
0000
,  // measure 16
1003
1001
1000
0100
,  // measure 17
1000
0001
0100
0010
,  // measure 18
0100
0001
0010
0100
,  // measure 19
1000
0100
1000
0001
,  // measure 20
0100
0001
1000
0010
,  // measure 21
1000
0010
0100
0010
,  // measure 22
0100
0000
0020
0000
1030
0000
0000
1000
,  // measure 23
0000
1000
0002
0000
,  // measure 24
0003
1001
1000
0100
,  // measure 25
0001
0100
1000
0010
,  // measure 26
0001
0010
1000
0100
,  // measure 27
1000
0010
0100
0001
,  // measure 28
0010
0002
0003
1001
,  // measure 29
1000
0100
0010
0001
,  // measure 30
1000
0020
0130
0100
,  // measure 31
0010
0010
1000
0001
,  // measure 32
1000
0001
0200
0000
,  // measure 33
0000
0000
0320
0000
,  // measure 34
0000
0000
2030
0000
,  // measure 35
0000
0000
3002
0000
,  // measure 36
0000
0000
1003
0000
,  // measure 37
1000
0000
0001
0000
,  // measure 38
0001
0000
0100
0000
,  // measure 39
0100
0000
0010
0000
,  // measure 40
0010
0000
1000
0100
,  // measure 41
1000
0001
1000
0010
,  // measure 42
2000
0000
3001
0100
,  // measure 43
0001
1000
0001
0010
,  // measure 44
0002
0000
1003
0010
,  // measure 45
1000
0010
0100
0001
,  // measure 46
0100
0001
1000
0100
,  // measure 47
0010
0001
2000
0000
,  // measure 48
3001
0101
1000
0001
,  // measure 49
1000
1100
0001
1000
,  // measure 50
0001
0011
1000
0001
,  // measure 51
1000
1010
0001
2000
,  // measure 52
3100
0000
0100
0000
0100
0000
0100
0010
,  // measure 53
0000
0000
0000
0000
0010
0000
0000
0000
0000
0110
0000
0000
0000
0000
0000
0000
0001
0000
0000
0000
0000
0000
0001
0000
0000
0000
0000
0000
1000
0000
0000
0000
,  // measure 54
0000
1000
0000
0000
0001
0000
0000
0000
1000
0000
0000
0000
1000
0000
0000
0000
,  // measure 55
0001
1000
0020
0000
,  // measure 56
0000
0000
0000
0000
,  // measure 57
0130
0001
0100
0001
,  // measure 58
1000
0100
1000
0100
,  // measure 59
0010
0100
1000
0001
,  // measure 60
0100
0010
0100
0001
,  // measure 61
1001
1000
0100
0010
,  // measure 62
0001
1000
0001
0100
,  // measure 63
0010
1000
0010
0100
,  // measure 64
0001
0000
2000
3002
0013
0000
0100
0000
,  // measure 65
1000
0001
0101
0010
,  // measure 66
1000
0100
1100
0010
,  // measure 67
0001
0010
0110
0020
,  // measure 68
0130
0110
0100
0000
1000
0000
0001
0000
,  // measure 69
0101
0010
1000
0002
,  // measure 70
0000
1003
0100
1000
,  // measure 71
0100
0010
0001
0010
,  // measure 72
0001
0200
0000
0000
,  // measure 73
0000
0000
0000
0000
0000
0300
0000
0000
;

//---------------dance-single - ----------------
#NOTES:
     dance-single:
     :
     Medium:
     11:
     0.431582,0.582269,0.134446,0.181897,0.154217,382.000000,365.000000,17.000000,23.000000,0.000000,0.000000,0.431582,0.582269,0.134446,0.181897,0.154217,382.000000,365.000000,17.000000,23.000000,0.000000,0.000000:
// measure 0
0000
0000
0000
0000
,  // measure 1
0000
0000
0000
0000
,  // measure 2
0000
0000
0000
0000
,  // measure 3
0000
0000
0000
0000
,  // measure 4
0000
0000
0000
0000
,  // measure 5
2000
0000
0000
0000
,  // measure 6
0000
0000
0000
0000
,  // measure 7
0002
0000
0000
0000
,  // measure 8
0000
0000
0000
0000
3003
0000
1000
0100
,  // measure 9
1000
0001
0100
0000
0010
0000
0100
0001
,  // measure 10
0010
0001
1000
0000
0100
0000
1000
0010
,  // measure 11
0100
0010
1000
0000
0100
0000
0010
0001
,  // measure 12
0010
0100
1000
0000
0100
0000
0000
1000
,  // measure 13
0002
0000
2003
0000
3020
0000
1030
0001
,  // measure 14
1000
0100
1000
0000
0001
0000
0010
0100
,  // measure 15
0010
0000
0110
0110
0100
1000
0002
0000
,  // measure 16
1003
0000
0000
0000
0110
0000
0000
0000
0001
0000
0100
0000
0001
0000
0000
1000
,  // measure 17
0000
1000
0000
0000
0010
0000
0100
0000
0001
0000
0100
0000
0010
0000
0000
0100
,  // measure 18
0000
0100
0000
0000
0010
0000
1000
0000
0001
0000
1000
0000
0100
0000
0000
0010
,  // measure 19
0000
0010
0000
0000
0001
0000
0100
0000
0010
0000
1000
0000
0100
0000
0000
0001
,  // measure 20
0000
0001
0000
0000
0100
0000
1000
0000
0001
0000
1000
0000
0010
0000
0000
0100
,  // measure 21
0000
0001
0000
0000
1000
0000
0100
0000
1000
0000
0001
0000
0100
0000
0000
0010
,  // measure 22
0000
1000
0000
0000
0002
0000
0000
0000
1003
0000
0000
1000
0000
0000
0001
0000
,  // measure 23
0000
0001
0000
0000
0100
0000
0010
0000
2000
0000
0000
0000
0000
0000
0000
0000
,  // measure 24
3000
0000
1001
0000
0001
0100
0001
1000
,  // measure 25
0100
1000
0001
0000
1000
0010
1000
0001
,  // measure 26
0010
0001
1000
0000
0010
0100
0010
1000
,  // measure 27
0100
0010
0001
0000
1000
0001
0100
0001
,  // measure 28
0010
0100
1000
0002
0000
0000
1003
0000
,  // measure 29
0100
1000
0001
0000
1000
0010
0100
0001
,  // measure 30
1000
0100
0020
0000
0031
0000
0001
0000
,  // measure 31
1000
0000
1000
0000
0001
1000
0001
1000
,  // measure 32
0010
0100
0010
0100
0002
0000
0000
0000
,  // measure 33
0000
0000
0203
0000
,  // measure 34
0000
0000
0320
0000
,  // measure 35
0000
0000
2030
0000
,  // measure 36
0000
0000
3001
0001
,  // measure 37
0001
0001
0010
0010
,  // measure 38
0010
0010
0100
0100
,  // measure 39
0100
0100
1000
1000
,  // measure 40
1000
0000
1000
0000
0001
0100
0001
0000
,  // measure 41
1001
0000
1000
0000
0100
0010
0100
0000
,  // measure 42
0110
0000
0010
0000
0001
0010
0001
0000
,  // measure 43
0011
0000
0001
0000
1000
0010
1000
0000
,  // measure 44
1100
0000
1000
0000
0001
0100
0001
0000
,  // measure 45
1000
0100
1000
0000
0001
0010
0001
0000
,  // measure 46
1000
0010
1000
0000
0001
0010
0100
1000
,  // measure 47
0001
0100
0010
1000
0002
0000
0000
0000
,  // measure 48
1003
0000
0000
1000
0000
0000
1000
0000
0001
0000
0010
0000
0001
0000
0000
0000
,  // measure 49
0100
0000
0000
0100
0000
0000
0100
0000
0010
0000
0100
0000
0010
0000
0000
0000
,  // measure 50
1000
0000
0000
1000
0000
0000
1000
0000
0100
0000
1000
0000
0001
0000
0000
0000
,  // measure 51
0010
0000
0000
0010
0000
0000
0010
0000
0100
0000
1000
0000
0002
0000
0000
0000
,  // measure 52
0103
0000
0000
0100
0000
0000
0100
0000
0010
0000
1000
0000
0002
0000
1003
0000
,  // measure 53
0000
0000
1000
0000
0000
0000
0000
1000
0000
0001
0000
0000
0000
1001
0000
0000
1100
0000
0000
0000
0000
0000
1100
0000
0000
0000
0000
0000
0101
0000
0000
0000
,  // measure 54
0000
0101
0000
0000
0100
0000
0001
0000
1000
0000
0010
0000
0100
0000
0001
0000
,  // measure 55
1000
0100
0010
0001
2000
0000
0000
0000
,  // measure 56
0000
0000
0000
0000
,  // measure 57
3001
0000
1001
0000
0001
0000
0000
0001
0000
0000
0001
0000
1000
0000
0100
0000
,  // measure 58
1000
0000
0100
0000
1000
0000
0000
1000
0000
0000
1000
0000
0001
0000
0010
0000
,  // measure 59
0001
0000
0010
0000
0100
0000
0000
0100
0000
0000
0100
0000
1000
0000
0010
0000
,  // measure 60
1000
0000
0010
0000
0100
0000
0000
0100
0000
0000
0100
0000
0001
0000
1000
0000
,  // measure 61
1001
0000
0000
0000
0001
0000
0000
0001
0000
0000
0001
0000
1000
0000
0100
0000
,  // measure 62
1000
0000
0100
0000
0010
0000
0000
0010
0000
0000
0010
0000
0001
0000
1000
0000
,  // measure 63
0001
0000
1000
0000
0001
0000
0000
0001
0000
0000
0001
0000
0100
0000
0010
0000
,  // measure 64
0100
0000
0010
0000
2000
0000
3002
0000
1003
0001
1001
0000
1000
0000
0000
0100
,  // measure 65
0000
0000
1000
0000
0001
0000
0100
0000
0010
0000
0100
0000
0001
0000
0000
0010
,  // measure 66
0000
0000
0100
0000
1000
0000
0100
0000
0010
0000
0001
0000
1000
0000
0000
0010
,  // measure 67
0000
0100
0001
1000
0100
1000
0002
0000
,  // measure 68
1003
0000
1001
0000
0100
0000
0000
0010
0000
0000
1000
0000
0100
0000
1000
0000
,  // measure 69
0001
0000
0100
0000
0010
0000
0000
0100
0000
0000
0010
0000
0100
0000
0001
0000
,  // measure 70
0020
0000
0031
0100
0001
1000
0100
1000
,  // measure 71
0010
0000
0100
0001
1000
0100
0010
0100
,  // measure 72
0000
0100
0000
0000
0020
0000
0000
0000
0000
0000
0000
0000
0000
0000
0000
0000
,  // measure 73
0000
0000
0000
0000
0000
0030
0000
0000
;

//---------------dance-single - ----------------
#NOTES:
     dance-single:
     :
     Beginner:
     3:
     0.082475,0.145567,0.023726,0.110720,0.000000,73.000000,70.000000,3.000000,14.000000,0.000000,0.000000,0.082475,0.145567,0.023726,0.110720,0.000000,73.000000,70.000000,3.000000,14.000000,0.000000,0.000000:
// measure 0
0000
0000
0000
0000
,  // measure 1
0000
0000
0000
0000
,  // measure 2
0000
0000
0000
0000
,  // measure 3
0000
0000
0000
0000
,  // measure 4
0000
0000
0000
0000
,  // measure 5
2000
0000
0000
0000
,  // measure 6
0000
0000
0000
0000
,  // measure 7
0000
0000
0000
0000
,  // measure 8
0000
0000
3000
0001
,  // measure 9
0000
0000
0000
0001
,  // measure 10
0000
0000
0000
1000
,  // measure 11
0000
0000
0000
1000
,  // measure 12
0000
0000
0000
0000
,  // measure 13
1001
0000
0000
0010
,  // measure 14
0000
0000
0000
0100
,  // measure 15
0000
0010
0100
0000
,  // measure 16
0010
0000
0100
0000
,  // measure 17
0000
0000
0100
0000
,  // measure 18
0000
0000
0001
0000
,  // measure 19
0000
0000
0001
0000
,  // measure 20
0000
0000
1000
0000
,  // measure 21
0000
0000
1000
0000
,  // measure 22
0000
0000
0010
0000
,  // measure 23
0000
0000
0010
0000
,  // measure 24
0000
0000
1000
0000
,  // measure 25
0000
0000
1000
0000
,  // measure 26
0000
0000
0001
0000
,  // measure 27
0000
0000
0001
0000
,  // measure 28
0000
0000
1000
0000
,  // measure 29
0000
0000
0001
0000
,  // measure 30
0000
0000
0100
0000
,  // measure 31
0100
0000
0010
0000
,  // measure 32
0010
0000
2000
0000
,  // measure 33
0000
0000
0000
0000
,  // measure 34
3000
0000
0002
0000
,  // measure 35
0000
0000
0000
0000
,  // measure 36
0003
0000
0200
0000
,  // measure 37
0000
0000
0000
0000
,  // measure 38
0300
0000
0020
0000
,  // measure 39
0000
0000
0000
0000
,  // measure 40
0030
0000
1000
0000
,  // measure 41
0000
0000
0001
0000
,  // measure 42
0000
0000
1000
0000
,  // measure 43
0000
0000
0001
0000
,  // measure 44
0000
0000
1000
0000
,  // measure 45
0000
0000
0001
0000
,  // measure 46
0000
0000
1000
0000
,  // measure 47
1000
0000
0002
0000
,  // measure 48
1003
0000
0000
0000
,  // measure 49
0001
0000
0000
0000
,  // measure 50
0100
0000
0000
0000
,  // measure 51
0010
0000
0000
0000
,  // measure 52
0100
0000
0000
0000
0000
0000
0000
0010
,  // measure 53
0000
0000
1000
0000
,  // measure 54
0000
0000
0001
0000
,  // measure 55
1000
0000
2002
0000
,  // measure 56
0000
0000
0000
0000
,  // measure 57
3003
0001
0000
0000
,  // measure 58
0000
1000
0000
0000
,  // measure 59
0000
0010
0000
0000
,  // measure 60
0000
0100
0000
0000
,  // measure 61
0000
0001
0000
0000
,  // measure 62
0000
1000
0000
0000
,  // measure 63
0000
0100
0000
0000
,  // measure 64
0000
0020
0030
0001
,  // measure 65
0000
0000
0000
1000
,  // measure 66
0000
0000
0000
0001
,  // measure 67
0000
0000
0000
2000
,  // measure 68
3000
0010
0000
0000
,  // measure 69
0000
0010
0000
0010
,  // measure 70
0000
0020
0000
0030
,  // measure 71
0000
0200
0000
0300
,  // measure 72
0000
2002
0000
0000
,  // measure 73
0000
0000
0000
0000
0000
3003
0000
0000
;
