#TITLE:In Your EyEs;
#SUBTITLE:;
#ARTIST:kors k;
#TITLETRANSLIT:;
#SUBTITLETRANSLIT:;
#ARTISTTRANSLIT:;
#GENRE:;
#CREDIT:;
#BANNER:In Your EyEs.png;
#BACKGROUND:In Your EyEs-bg.png;
#LYRICSPATH:;
#CDTITLE:;
#MUSIC:In Your EyEs.ogg;
#OFFSET:0.050671;
#SAMPLESTART:1.289000;
#SAMPLELENGTH:15.000000;
#SELECTABLE:YES;
#BPMS:0.000000=180.000000
;
#STOPS:96.000000=0.167000,
96.500000=0.167000,
97.000000=0.333000
;
#BGCHANGES:;
#KEYSOUNDS:;
#ATTACKS:;

//---------------dance-single - ----------------
#NOTES:
     dance-single:
     :
     Hard:
     15:
     0.755363,0.965946,0.242548,0.379991,0.602327,654.000000,624.000000,30.000000,47.000000,0.000000,0.000000,0.755363,0.965946,0.242548,0.379991,0.602327,654.000000,624.000000,30.000000,47.000000,0.000000,0.000000:
// measure 0
0000
0000
0000
0000
,  // measure 1
0000
0000
0000
0000
,  // measure 2
0000
0000
0000
0000
,  // measure 3
0000
0000
0000
0000
,  // measure 4
0000
0000
0000
0000
,  // measure 5
0001
0000
0000
1000
0200
0000
0310
1000
,  // measure 6
0010
0002
0000
1003
0000
0010
0100
0000
,  // measure 7
0001
0100
0001
0000
0010
0000
0000
1000
,  // measure 8
0010
0100
0000
0000
1000
0010
0100
0000
,  // measure 9
0001
0100
1000
0100
0002
0000
1003
0010
,  // measure 10
0000
0000
2010
0000
0000
0000
3001
0000
0010
0000
0100
0000
0010
0001
0010
0000
,  // measure 11
0100
0010
0001
0010
0010
0001
1000
1000
,  // measure 12
0010
2000
0000
3001
0000
1000
0100
1000
,  // measure 13
0001
0000
0010
0100
0020
0000
0031
1000
,  // measure 14
0010
0010
0100
0010
0000
1000
0100
0000
,  // measure 15
1000
0100
1000
0000
0010
0000
0000
0001
,  // measure 16
0010
0100
0000
0000
0001
0010
0100
0000
,  // measure 17
1001
0000
0000
0000
0001
0000
0000
0010
0000
0010
0001
0000
1000
0000
0010
0000
,  // measure 18
0100
0000
0000
0000
0001
0000
0000
1000
0000
1000
0100
0000
0010
0000
0100
0000
,  // measure 19
1000
0000
0000
0000
0010
0000
0000
0100
0000
0100
0010
0000
0100
0000
0001
0000
,  // measure 20
0100
0000
0000
0000
0001
0000
0000
0010
0000
0010
0001
0000
1000
0000
0010
0000
,  // measure 21
0100
0000
0001
0000
1000
0000
0100
1000
0000
0010
1000
0000
0001
0000
0100
0000
,  // measure 22
0010
0000
0100
0000
0001
0000
0010
0100
0000
1000
0001
0000
0100
0000
0001
0000
,  // measure 23
1000
0100
1000
0100
0010
0100
0010
0001
1000
0001
1000
0010
0100
0010
0100
0001
,  // measure 24
2000
0000
0000
0000
3002
0000
0000
0000
0023
0030
0000
0000
0000
0000
0000
0000
0011
0000
0000
0000
0000
0000
0000
0000
1100
0000
0000
0000
0000
0000
1000
0000
,  // measure 25
0000
1000
0010
0000
0100
0000
0010
0000
1000
0000
0001
0000
0010
0000
0100
0010
,  // measure 26
0000
0010
0100
0000
1000
0000
0001
0000
0101
0000
0000
0000
1010
0000
0000
0010
,  // measure 27
0000
0010
0100
0000
0001
0000
1000
0000
0002
0000
0010
0000
0013
0000
2000
0000
,  // measure 28
0010
0000
3010
0000
0110
0000
0000
0000
0011
0000
0000
0000
0101
0000
0000
0001
,  // measure 29
0000
0001
0010
0000
0100
0000
0100
0000
1000
0000
0001
0000
1000
0000
0010
1000
,  // measure 30
0000
1000
0001
0000
1000
0000
0010
0000
1010
0000
0000
0000
1100
0000
0000
0100
,  // measure 31
0000
0100
0010
0000
0100
0000
1000
0000
0001
0000
1000
0100
0000
0000
0100
0010
,  // measure 32
0000
0000
0010
0001
0000
0000
0001
1000
0010
0000
0100
0000
0001
0000
1000
0100
,  // measure 33
0000
0100
1000
0000
0001
0000
0001
0000
2000
0000
0010
0000
3010
0000
0002
0000
,  // measure 34
0010
0000
0013
0000
0110
0000
0000
0000
0101
0000
0000
0000
0011
0000
0001
0010
,  // measure 35
0000
0010
0100
0000
1000
0000
1000
0000
0010
0000
0100
0000
1000
0000
0100
0010
,  // measure 36
0000
0010
1000
0000
0100
0000
0100
0000
1100
0000
0000
0000
1010
0000
1000
0001
,  // measure 37
0000
0001
0010
0000
0100
0000
0100
0000
0001
0000
0100
0000
1000
0000
0010
0100
,  // measure 38
0000
0100
0010
0000
1000
0000
1000
0000
2001
0000
0000
0000
3010
0000
0000
0000
,  // measure 39
1002
0000
0000
0000
0013
0000
0000
0000
0001
0000
0100
0010
0000
0001
0010
0000
,  // measure 40
1000
0010
0000
0100
0010
0000
1000
0000
2001
0000
0000
3020
0000
0000
0130
0000
,  // measure 41
0001
0000
0100
0000
1000
0000
0100
0000
0020
0000
0000
2030
0000
0000
3001
0000
,  // measure 42
0010
0000
0100
0000
0001
0000
0100
0000
2000
0000
0000
3002
0000
0000
0103
0000
,  // measure 43
0010
0000
0001
0000
0010
0000
1000
0000
0002
0000
0000
0023
0000
0000
0130
0000
,  // measure 44
0001
0000
0100
0000
1000
0000
0001
0000
2000
0000
0000
3200
0000
0000
0301
0000
,  // measure 45
0100
0000
1000
0000
0001
0000
0100
0000
0020
0000
0000
0230
0000
0000
0301
0000
,  // measure 46
0010
0000
0100
0000
0010
0000
1000
0000
0020
0000
0000
0032
0000
0000
1003
0000
,  // measure 47
0010
0000
0001
0000
1000
0000
0100
0000
0020
0000
0000
2030
0000
0000
3001
0000
,  // measure 48
0010
0000
0100
0000
1000
0001
1000
0001
0010
0000
0001
0000
0100
0000
0001
0000
,  // measure 49
0010
0001
0100
0001
1000
0010
1000
0100
,  // measure 50
1000
0010
1000
0100
0010
0001
1000
0001
,  // measure 51
0010
0001
1000
0001
0100
0010
1000
0010
,  // measure 52
0100
0010
1000
0001
0022
0000
0033
0000
,  // measure 53
2200
3300
2020
3030
,  // measure 54
0202
0000
0000
0000
0303
0000
0000
0000
0001
0000
1000
0100
1000
0000
0001
0100
,  // measure 55
0001
0000
1000
0010
1000
0000
0001
0010
0002
0000
0000
0000
2003
0000
0000
0000
,  // measure 56
3020
0000
0130
0000
0001
0000
1000
0100
,  // measure 57
0000
1000
0001
0000
0100
0000
0001
0010
,  // measure 58
0000
0100
1000
0100
0010
0000
0001
1000
,  // measure 59
0000
0010
1000
0000
0100
0000
1000
0010
,  // measure 60
0000
0100
0001
0100
0010
0000
1000
0100
,  // measure 61
0000
0001
0100
0000
1000
0000
0001
0100
,  // measure 62
0000
1000
0100
0001
1000
0000
0001
0010
,  // measure 63
0000
1000
0010
1000
0010
0100
0000
0000
,  // measure 64
1000
0010
0100
0000
0001
0100
0010
0001
,  // measure 65
0010
0100
1000
0100
0010
1000
0100
0010
,  // measure 66
1000
0000
0010
0000
0001
0000
1000
0000
0001
0000
1000
0100
1000
0000
0010
1000
,  // measure 67
0010
0000
0100
0001
0100
0000
0001
0010
0001
0000
1000
0001
1000
0000
0010
0100
,  // measure 68
0010
0000
1000
0001
0100
0000
0001
1000
0020
0000
0000
0000
0000
0000
0000
0000
,  // measure 69
0000
0000
0230
0000
,  // measure 70
0302
0000
0000
0000
0000
0000
0000
0000
1003
0100
1000
0100
1000
0001
1000
0001
,  // measure 71
0100
0001
0100
0001
0100
0010
0100
0010
2000
0000
0000
0000
0000
0000
0000
0000
,  // measure 72
0000
0000
0000
0000
3001
0000
0000
0000
1000
0001
0000
0100
0000
0001
0000
1000
,  // measure 73
0000
1000
0000
0100
1000
0000
0001
0000
0000
0000
0010
0000
0001
0000
0100
0010
,  // measure 74
0000
0010
0000
0100
0010
0000
1000
0000
0001
1000
0000
0100
0000
1000
0000
0001
,  // measure 75
0000
0001
0000
0100
0001
0000
1000
0000
0000
0000
0010
0000
1000
0000
0100
0010
,  // measure 76
0000
0010
0000
0100
0010
0000
0001
0000
1000
0010
0000
0100
0000
0010
0000
0001
,  // measure 77
0000
0010
0000
1000
0010
0000
0010
0000
0000
0000
0100
0000
0001
0000
0010
0001
,  // measure 78
0000
1000
0000
0100
0010
0000
0010
0000
0001
0010
0000
0100
0000
0010
0000
1000
,  // measure 79
0000
0010
0000
0001
0010
0000
0010
0000
0011
0000
0000
0110
0000
0000
1100
0000
,  // measure 80
0000
2001
0000
0000
3001
0100
0001
0100
0010
1000
0000
0001
0000
0010
0000
0100
,  // measure 81
0000
0100
0000
0010
0001
0000
1000
0000
0010
1000
0010
0000
0100
0000
0001
1000
,  // measure 82
0000
0100
0000
0100
0010
0000
0100
0000
1000
0010
0000
0100
0000
0001
0000
1000
,  // measure 83
0000
1000
0000
0001
0010
0000
0010
0000
0100
0010
0100
0000
0010
0000
0001
1000
,  // measure 84
0000
0010
0000
0010
0100
0000
0010
0000
1010
0000
1000
0000
0100
0000
0001
0000
,  // measure 85
0100
1000
0001
0001
0011
0001
0100
1000
,  // measure 86
0100
0000
0001
0000
1000
0000
1000
0000
0001
0010
0001
0010
0100
0010
0100
0010
,  // measure 87
0100
1000
0100
1000
0001
1000
0001
1000
0010
0000
1000
0000
0001
0000
0010
0100
,  // measure 88
0000
0100
0000
0010
0001
0000
1000
0000
1001
0000
0000
0000
0000
0000
0000
0000
;

//---------------dance-single - ----------------
#NOTES:
     dance-single:
     :
     Medium:
     12:
     0.628314,0.679740,0.242548,0.323397,0.278930,544.000000,514.000000,30.000000,40.000000,0.000000,0.000000,0.628314,0.679740,0.242548,0.323397,0.278930,544.000000,514.000000,30.000000,40.000000,0.000000,0.000000:
// measure 0
0000
0000
0000
0000
,  // measure 1
0000
0000
0000
0000
,  // measure 2
0000
0000
0000
0000
,  // measure 3
0000
0000
0000
0000
,  // measure 4
0000
0000
0000
0000
,  // measure 5
1000
0000
0000
0001
0020
0000
0031
1000
,  // measure 6
0100
1000
0001
0100
0000
0100
0001
0000
,  // measure 7
0010
0001
0010
0000
0100
0000
0000
1000
,  // measure 8
0010
1000
0000
0000
1000
0010
1000
0000
,  // measure 9
0001
0000
1000
0010
1000
0100
0010
0001
,  // measure 10
0000
2000
0000
0000
3010
0000
0100
0100
,  // measure 11
0000
0100
0000
0100
0100
0000
0001
0010
,  // measure 12
0001
0010
0000
0100
0000
1000
0000
0001
,  // measure 13
1000
0000
0010
1000
0020
0000
0130
0001
,  // measure 14
1000
0001
1000
0100
0000
0010
0100
0000
,  // measure 15
1000
0010
1000
0000
0001
0000
0000
0010
,  // measure 16
0001
0010
0000
0000
0010
0001
0010
0000
,  // measure 17
0011
0000
0000
0000
1001
0000
0000
1000
0000
0000
0001
0000
0010
0000
0010
0000
,  // measure 18
0100
0000
0000
0000
0100
0000
0000
1000
0000
0000
0010
0000
1000
0000
0010
0000
,  // measure 19
1010
0000
0000
0000
1001
0000
0000
0001
0000
0000
1000
0000
0010
0000
0010
0000
,  // measure 20
0100
0000
0000
0000
0100
0000
0000
0001
0000
0000
0010
0000
0001
0000
0010
0000
,  // measure 21
0001
0000
1000
0000
0100
0000
0000
0010
0000
0000
0010
0000
0010
0000
0100
0000
,  // measure 22
1000
0000
0001
0000
0100
0000
0000
0010
0000
0000
0010
0000
0010
0000
1000
0000
,  // measure 23
0001
0010
0100
1000
0001
0100
0010
1000
,  // measure 24
0002
0000
0000
0000
2003
0000
0000
0000
3020
0030
0000
0000
0000
0000
0000
0000
1010
0000
0000
0000
0000
0000
0000
0000
0101
0000
0000
0000
0000
0000
0001
0000
,  // measure 25
0000
0000
0001
0000
0010
0000
0100
0000
1000
0000
0001
0000
1000
0000
0000
0100
,  // measure 26
0000
0000
0100
0000
0010
0000
0001
0000
0011
0000
0000
0000
1100
0000
0000
1000
,  // measure 27
0000
1000
0010
0100
0002
0000
0013
0002
,  // measure 28
0000
0000
1003
0000
0010
0000
0000
0000
1010
0000
0000
0000
1100
0000
0000
1000
,  // measure 29
0000
0000
0010
0000
0100
0000
0100
0000
0001
0000
1000
0000
0100
0000
0000
0010
,  // measure 30
0000
0000
0010
0000
0001
0000
0000
0000
0011
0000
0000
0000
0101
0000
0000
0001
,  // measure 31
0000
0000
0010
0000
0100
0000
0100
0000
1000
0000
0001
0100
0000
0000
0100
0010
,  // measure 32
0000
0000
0010
1000
0000
0000
1000
0000
0001
0000
1000
0000
0010
0000
0000
0100
,  // measure 33
0000
0100
0010
0010
2000
0000
3010
2000
,  // measure 34
0000
0000
3100
0000
1000
0000
0100
0000
1100
0000
0000
0000
1010
0000
0000
0010
,  // measure 35
0000
0000
0100
0000
0001
0000
0001
0000
0010
0000
0001
0000
0100
0000
0010
0100
,  // measure 36
0000
0100
0001
0100
0101
0000
0011
0000
,  // measure 37
0001
1000
0100
1000
1001
0000
0110
0000
,  // measure 38
0010
1000
0001
0010
0001
1000
0001
0100
,  // measure 39
0010
0000
0100
0000
0001
0000
1000
0000
1010
0000
0000
0110
0000
0000
0101
0000
,  // measure 40
0000
1001
0000
0000
0001
0000
0010
0000
0001
0000
0000
1000
0000
0000
0010
0000
,  // measure 41
0000
0100
0000
0000
0001
0000
1000
0000
0001
0000
0000
0010
0000
0000
0100
0000
,  // measure 42
0000
1000
0000
0000
0010
0000
1000
0000
0010
0000
0000
0100
0000
0000
0001
0000
,  // measure 43
0000
0010
0000
0000
0001
0000
0100
0000
0001
0000
0000
0100
0000
0000
0010
0000
,  // measure 44
0000
1000
0000
0000
0100
0000
1000
0000
0200
0000
0000
0320
0000
0000
0032
0000
,  // measure 45
0000
2003
0000
0000
3010
0000
0100
0000
0020
0000
0000
2030
0000
0000
3002
0000
,  // measure 46
0000
0023
0000
0000
0130
0000
0010
0000
0200
0000
0000
2300
0000
0000
3002
0000
,  // measure 47
0000
2003
0000
0000
3010
0000
0100
0000
0020
0000
0000
0230
0000
0000
0302
0000
,  // measure 48
0000
2003
0000
0000
3001
0000
0010
0000
0100
0000
1000
0000
0001
0000
1000
0000
,  // measure 49
0010
1000
0001
0100
0010
0100
0001
1000
,  // measure 50
0100
1000
0001
0000
0010
0001
0010
0100
,  // measure 51
0010
0001
1000
0010
1000
0001
0010
0100
,  // measure 52
1000
0001
1000
0000
2010
0000
3001
0000
,  // measure 53
0012
1003
2100
3001
,  // measure 54
0102
0000
1003
0000
1000
0100
0010
0001
,  // measure 55
0100
0010
1000
0001
2000
0000
3002
0000
,  // measure 56
0023
0000
0130
0000
1000
0000
0001
0100
,  // measure 57
0000
0001
0000
1000
0100
0000
1000
0001
,  // measure 58
0000
0010
0000
0100
0010
0000
0001
1000
,  // measure 59
0000
0010
0000
0100
0010
0000
1000
0001
,  // measure 60
0000
0010
0000
0100
1000
0000
0001
0100
,  // measure 61
0000
0001
0000
1000
0100
0000
1000
0100
,  // measure 62
0000
1000
0000
0001
0100
0000
0010
0100
,  // measure 63
0000
0001
0010
0100
1000
0100
0000
0000
,  // measure 64
0100
1000
0100
0000
1000
0100
0010
0100
,  // measure 65
1000
0001
1000
0100
1000
0010
0100
0010
,  // measure 66
1000
0001
0100
0010
0100
0001
1000
0100
,  // measure 67
0010
0001
0010
0100
1000
0001
0100
0010
,  // measure 68
1000
0001
0010
0100
2000
0000
0000
0000
,  // measure 69
0000
0000
3002
0000
,  // measure 70
0203
0000
0000
0000
0310
1000
0001
1000
,  // measure 71
0100
0010
0001
1000
0020
0000
0000
0000
,  // measure 72
0000
0000
0000
0000
0130
0000
0000
0000
0001
0000
0100
0000
0001
0000
0000
0010
,  // measure 73
0000
0100
0000
0000
1000
0000
0001
0000
0000
0000
0100
0000
0001
0000
0000
1000
,  // measure 74
0000
0010
0000
0000
0100
0000
0010
0000
1000
0000
0100
0000
1000
0000
0000
0010
,  // measure 75
0000
0100
0000
0000
0001
0000
1000
0000
0000
0000
0100
0000
1000
0000
0000
0001
,  // measure 76
0000
0010
0000
0000
0100
0000
0010
0000
0001
0000
1000
0000
0010
0000
0000
0100
,  // measure 77
0000
0100
0000
0000
0010
0000
0010
0000
0000
0000
1000
0000
0010
0000
0000
0100
,  // measure 78
0000
0001
0000
0000
1000
0000
0001
0000
1000
0000
0001
0000
0010
0000
0000
0100
,  // measure 79
0000
0100
0000
0000
0010
0000
0010
0000
0011
0000
0000
0110
0000
0000
2100
0000
,  // measure 80
0000
0000
0001
0000
3001
0000
1000
0000
0001
0100
0000
0010
0000
1000
0000
0001
,  // measure 81
0000
1000
0000
0001
0010
0000
0100
0000
0000
0000
1000
0000
0100
0000
1000
0001
,  // measure 82
0000
0100
0000
0001
1000
0000
0010
0000
1000
0100
0000
0010
0000
0001
0000
1000
,  // measure 83
0000
0001
0000
1000
0010
0000
0100
0000
0000
0000
0001
0000
0100
0000
0001
1000
,  // measure 84
0000
0100
0000
1000
0001
0000
0010
0000
0001
0000
0100
0000
0001
0000
0100
0000
,  // measure 85
0010
1000
0010
1000
0100
1000
0100
1000
,  // measure 86
0001
0010
0001
0010
0100
0010
0001
1000
,  // measure 87
0010
0100
0001
1000
0002
0000
0000
0000
,  // measure 88
2003
3001
1001
0000
;

//---------------dance-single - ----------------
#NOTES:
     dance-single:
     :
     Easy:
     7:
     0.400781,0.465085,0.299142,0.250633,0.000000,347.000000,310.000000,37.000000,31.000000,0.000000,0.000000,0.400781,0.465085,0.299142,0.250633,0.000000,347.000000,310.000000,37.000000,31.000000,0.000000,0.000000:
// measure 0
0000
0000
0000
0000
,  // measure 1
0000
0000
0000
0000
,  // measure 2
0000
0000
0000
0000
,  // measure 3
0000
0000
0000
0000
,  // measure 4
0000
0000
0000
0000
,  // measure 5
0001
0000
2000
3001
,  // measure 6
1000
0100
0000
0100
0000
0000
1000
0000
,  // measure 7
0010
0000
0010
0000
0100
0000
0000
0001
,  // measure 8
0000
0001
0000
0000
0001
0000
0001
0000
,  // measure 9
1000
0000
0100
0000
1000
0000
1000
0001
,  // measure 10
0000
0002
0000
0000
0103
0000
0010
0000
,  // measure 11
0100
0000
0010
0000
0010
0000
0000
1000
,  // measure 12
0000
2000
0000
0000
3100
0000
0010
0000
,  // measure 13
0001
1000
0001
0001
,  // measure 14
0100
0001
0001
0010
,  // measure 15
0100
0000
0100
0000
1000
0000
0000
1000
,  // measure 16
0000
1000
0000
0000
1000
0000
1000
0000
,  // measure 17
1001
1001
0001
0100
,  // measure 18
0010
0010
1000
0001
,  // measure 19
1001
1001
1000
0100
,  // measure 20
0010
0010
0001
1000
,  // measure 21
1001
1010
0100
0001
,  // measure 22
1001
0011
0100
1000
,  // measure 23
0001
0100
1000
0100
,  // measure 24
0002
0000
0000
0000
2003
0000
0000
0000
3020
0030
0000
0000
0000
0000
0000
0000
1010
0000
0000
0000
0000
0000
0000
0000
0101
0000
0000
0000
0000
0000
0000
0000
,  // measure 25
0001
1000
0100
0100
,  // measure 26
1000
0001
0011
1100
,  // measure 27
1000
0000
0001
0000
0200
0000
0300
0020
,  // measure 28
0000
0030
1000
0000
1010
0000
1100
0000
,  // measure 29
1000
0001
0100
0100
,  // measure 30
0001
0010
0011
0101
,  // measure 31
0001
0000
1000
0000
0200
0010
0000
0010
,  // measure 32
0000
0010
0300
0010
0100
0000
0100
0000
,  // measure 33
1000
0000
0010
0000
0200
0000
0300
0020
,  // measure 34
0000
0030
1000
0000
1100
0000
1010
0000
,  // measure 35
1000
0010
0100
0100
,  // measure 36
0001
0100
0101
0011
,  // measure 37
0001
1000
0100
0010
,  // measure 38
0001
1000
0120
0100
,  // measure 39
0100
0000
0130
0000
1010
0000
0000
0101
,  // measure 40
0000
1001
0010
1000
,  // measure 41
0100
0100
0010
0001
,  // measure 42
0100
0100
0001
1000
,  // measure 43
0100
0100
1000
0001
,  // measure 44
0100
0100
0010
1000
,  // measure 45
0001
0001
0010
0001
,  // measure 46
1000
1000
0010
0100
,  // measure 47
0001
0001
0010
0100
,  // measure 48
1000
1000
0001
0100
,  // measure 49
1000
0100
0001
0010
,  // measure 50
0100
0100
1000
0100
,  // measure 51
0001
0100
1000
0010
,  // measure 52
0100
0100
0202
0303
,  // measure 53
0022
0033
2200
3300
,  // measure 54
2020
3030
1000
0010
,  // measure 55
0001
0010
2000
3002
,  // measure 56
0023
0000
0130
0000
1000
0000
0000
1000
,  // measure 57
0000
0000
0001
0000
0100
0000
0000
0100
,  // measure 58
0000
0000
0010
0000
0100
0000
0000
0100
,  // measure 59
0000
0000
0001
0000
0010
0000
0000
0010
,  // measure 60
0000
0000
0100
0000
1000
0000
0000
1000
,  // measure 61
0000
0000
0001
0000
0100
0000
0000
0100
,  // measure 62
0000
0000
0010
0000
1000
0000
0000
1000
,  // measure 63
0000
0000
0001
1000
0000
1000
0000
0000
,  // measure 64
1000
1000
0002
0010
,  // measure 65
0100
0100
0010
0010
,  // measure 66
0100
0103
2000
0010
,  // measure 67
0100
0100
0010
0010
,  // measure 68
0100
3100
0002
0000
,  // measure 69
0000
0000
2003
0000
,  // measure 70
3020
0000
1030
0001
,  // measure 71
1000
0010
0200
0000
,  // measure 72
0000
0301
1000
0100
,  // measure 73
0001
0100
1000
1000
,  // measure 74
0001
0001
0100
0001
,  // measure 75
1000
0100
0010
0010
,  // measure 76
0100
0100
1000
0010
,  // measure 77
0001
0010
1000
1000
,  // measure 78
0001
0001
0100
0001
,  // measure 79
0010
0000
0100
0000
1100
0000
0000
0110
,  // measure 80
0000
0011
0001
0100
,  // measure 81
0010
0100
0001
1000
,  // measure 82
0100
0010
0100
1000
,  // measure 83
0001
1000
0010
0100
,  // measure 84
0001
1000
1001
0100
,  // measure 85
0010
0001
1001
0100
,  // measure 86
0010
1000
1001
0010
,  // measure 87
1001
0100
2001
0000
,  // measure 88
3002
1003
1001
0000
;

//---------------dance-single - ----------------
#NOTES:
     dance-single:
     :
     Beginner:
     4:
     0.210208,0.357758,0.113189,0.137444,0.000000,182.000000,168.000000,14.000000,17.000000,0.000000,0.000000,0.210208,0.357758,0.113189,0.137444,0.000000,182.000000,168.000000,14.000000,17.000000,0.000000,0.000000:
// measure 0
0000
0000
0000
0000
,  // measure 1
0000
0000
0000
0000
,  // measure 2
0000
0000
0000
0000
,  // measure 3
0000
0000
0000
0000
,  // measure 4
0000
0000
0000
0000
,  // measure 5
1000
0000
0001
0000
,  // measure 6
0100
0000
0100
0000
,  // measure 7
0010
0010
0010
0000
,  // measure 8
0010
0000
0010
0000
,  // measure 9
0100
0000
0001
0000
,  // measure 10
1000
0000
1000
0000
,  // measure 11
0100
0100
0100
0000
,  // measure 12
0010
0000
0000
0000
,  // measure 13
0100
0000
1000
0000
,  // measure 14
0001
0000
0001
0000
,  // measure 15
0100
0100
0100
0000
,  // measure 16
0100
0000
0100
0000
,  // measure 17
0001
0001
0000
0000
,  // measure 18
1000
0000
0000
0000
,  // measure 19
1000
1000
0000
0000
,  // measure 20
0001
0000
0000
0000
,  // measure 21
0100
0100
0000
0000
,  // measure 22
0010
0010
0000
0000
,  // measure 23
1000
0000
0001
0000
,  // measure 24
2002
0000
0000
0000
0000
0000
0000
0000
0000
3003
0000
0000
0000
0000
0000
0000
0001
0000
0000
0000
0000
0000
0000
0000
0001
0000
0000
0000
0000
0000
0000
0000
,  // measure 25
1000
0000
0010
0000
,  // measure 26
1000
0000
0100
0100
,  // measure 27
0010
0000
0002
0000
,  // measure 28
0003
0000
0100
0100
,  // measure 29
0010
0000
1000
0000
,  // measure 30
0010
0000
0100
0100
,  // measure 31
0001
0000
2000
0000
,  // measure 32
0000
3000
0001
0001
,  // measure 33
0010
0000
0200
0000
,  // measure 34
0300
0000
1000
1000
,  // measure 35
0010
0000
0100
0000
,  // measure 36
0010
0000
1000
1000
,  // measure 37
0100
0000
0001
0001
,  // measure 38
0100
0000
2000
3000
,  // measure 39
0002
0003
2002
0000
,  // measure 40
0000
3003
0001
0000
,  // measure 41
0100
0000
1000
0000
,  // measure 42
0100
0000
0001
0000
,  // measure 43
0100
0000
1000
0000
,  // measure 44
0100
0000
0001
0000
,  // measure 45
0010
0000
1000
0000
,  // measure 46
0010
0000
0001
0000
,  // measure 47
0010
0000
1000
0000
,  // measure 48
0010
0000
0001
0000
,  // measure 49
0001
0000
1000
0000
,  // measure 50
1000
0000
0010
0000
,  // measure 51
0010
0000
0100
0000
,  // measure 52
0100
0000
1001
0000
,  // measure 53
1001
0000
0110
0000
,  // measure 54
0110
0000
0001
0000
,  // measure 55
1000
0000
2002
0000
,  // measure 56
0000
3003
0001
0000
,  // measure 57
0000
0000
0010
0000
,  // measure 58
0000
0000
0100
0000
,  // measure 59
0000
0000
1000
0000
,  // measure 60
0000
0000
0001
0000
,  // measure 61
0000
0000
0100
0000
,  // measure 62
0000
0000
0010
0000
,  // measure 63
0000
0000
1000
0000
,  // measure 64
1000
0000
0001
0000
,  // measure 65
0001
0000
0010
0000
,  // measure 66
0010
0000
0100
0000
,  // measure 67
0100
0000
1000
0000
,  // measure 68
1000
0000
0002
0000
,  // measure 69
0000
0003
2000
3000
,  // measure 70
0020
0030
1000
1000
,  // measure 71
0001
0001
0200
0000
,  // measure 72
0000
0300
0001
0000
,  // measure 73
1000
0000
0100
0000
,  // measure 74
0100
0000
1000
0000
,  // measure 75
0001
0000
0100
0000
,  // measure 76
0100
0000
0001
0000
,  // measure 77
1000
0000
0010
0000
,  // measure 78
0010
0000
1000
0000
,  // measure 79
0001
0000
2002
0000
,  // measure 80
0000
3003
0001
0001
,  // measure 81
0010
0000
0100
0000
,  // measure 82
1000
0000
1000
1000
,  // measure 83
0010
0000
0100
0000
,  // measure 84
0001
0000
1001
0000
,  // measure 85
0010
0100
0110
0000
,  // measure 86
1000
0001
1001
0000
,  // measure 87
0110
0000
1001
0000
,  // measure 88
0001
1000
1001
0000
;
