#TITLE:HONEY♡SUNRiSE;
#SUBTITLE:;
#ARTIST:jun with Aimee;
#TITLETRANSLIT:;
#SUBTITLETRANSLIT:;
#ARTISTTRANSLIT:;
#GENRE:;
#CREDIT:;
#MUSIC:HONEY SUNRiSE.ogg;
#BANNER:HONEY SUNRiSE.png;
#BACKGROUND:HONEY SUNRiSE-bg.png;
#CDTITLE:;
#SAMPLESTART:41.619;
#SAMPLELENGTH:15.000;
#SELECTABLE:YES;
#OFFSET:-0.883;
#BPMS:0.000=190.000
,193.000=95.000
,211.000=190.000
;
#STOPS:32.000=0.947
,207.000=0.947
,209.250=0.158
,209.500=0.158
,217.000=0.158
,217.500=0.158
;
#BGCHANGES:;
#FGCHANGES:;

//--------------- dance-single - Marten ----------------
#NOTES:
     dance-single:
     Marten:
     Beginner:
     5:
     0.298623,0.38667,0.215598,0.281215,0.004687,223,200,23,30,0,0,0.298623,0.38667,0.215598,0.281215,0.004687,223,200,23,30,0,0:
0000
0000
0000
0000
,
0000
0000
0000
0000
,
0000
0000
0000
0000
,
0000
0000
0000
0000
,
0000
0000
0000
0000
,
1002
0000
0000
0000
,
0023
0000
0100
0000
,
0230
0000
2300
0000
,
3001
1000
1000
1000
,
0000
0001
0001
0001
,
0000
0100
0100
0100
,
0000
0010
0010
0010
,
0000
1000
0000
0001
,
0000
0010
0010
0010
,
0000
0100
0000
0010
,
0000
0001
0000
1000
,
1000
0100
0000
0100
,
0000
1000
0000
1000
,
0000
0001
0001
1000
,
1000
0010
0100
0010
,
0000
0100
0000
0100
,
0000
0010
0000
0010
,
0000
1000
0000
0001
,
0000
0010
0000
0010
,
0010
0200
0000
2300
,
0000
3002
0000
0203
,
0000
0310
0010
1000
,
1000
0001
1000
1001
,
0000
0002
0000
0023
,
0000
0230
0000
2300
,
0000
3002
0000
1003
,
0001
2001
0000
0010
,
3010
1010
0000
1000
,
1000
0010
0010
0100
,
0000
0001
1000
0001
,
1000
0200
0000
0310
,
0010
0110
0000
0010
,
0000
0001
0010
0001
,
0001
1000
0000
1000
,
0000
0010
0000
0100
,
0010
0110
0000
0002
,
0000
1003
1000
0100
,
0100
0010
0100
1000
,
0000
0001
1000
0001
,
0001
0101
0000
0010
,
0000
1010
0000
1000
,
0001
1001
0000
1001
,
0000
0110
0000
0010
,
1000
0002
0000
1003
,
1000
2000
0000
3200
,
0000
0010
0320
0000
0000
0000
0031
0000
,
0001
0000
0002
0000
2003
0000
3001
1001
,
0000
0000
0010
0000
0000
0220
0000
0000
0330
0000
0000
0000
0001
0000
0000
0000
,
0001
1000
1000
0020
,
0000
0230
0301
0000
,
0101
0000
0001
0001
,
1000
1000
0100
1000
,
0001
0001
0020
0000
,
0001
0031
0011
0000
,
0001
0001
1000
0001
,
1000
0000
0010
1000
,
0010
0000
0100
0100
,
0200
0301
1001
0000
,
1000
0000
1010
0000
,
0010
1000
1001
0000
,
1001
0000
0110
0000
,
1000
0001
0010
0010
,
0010
0000
0100
0010
,
0100
0100
1000
0001
,
1000
0000
0010
1000
,
0001
0001
0100
0001
,
1000
0000
0100
1000
,
0001
0000
1001
0000
,
0110
0000
0001
0010
,
0100
1000
2002
0000
,
3003
0000
0000
0000
;

//--------------- dance-single - Marten ----------------
#NOTES:
     dance-single:
     Marten:
     Easy:
     9:
     0.496813,0.703037,0.693663,0.412448,0.009374,371,297,74,44,0,0,0.496813,0.703037,0.693663,0.412448,0.009374,371,297,74,44,0,0:
0000
0000
0000
0000
,
0000
0000
0000
0000
,
0000
0000
0000
0000
,
0000
0000
0000
0000
,
0000
0000
0000
1000
,
2001
0000
0001
0000
,
3020
0000
0130
0001
,
0021
0000
0000
0000
0230
0000
0000
1000
,
1300
0010
1010
1000
,
0001
0010
0011
0001
,
1000
0100
1000
0000
1100
0000
1000
0000
,
0010
0100
0101
0001
,
1000
0001
1000
0000
1001
0000
0001
0000
,
0010
0100
0110
0010
,
0100
1000
0100
0000
1000
0000
0001
0000
,
0001
1000
0010
0100
,
0001
2000
0100
0001
,
3100
0020
0100
1000
,
0130
0200
0001
0010
,
0301
0002
0010
1000
,
1003
0001
0100
0001
,
1000
0100
0000
1000
0100
0000
0010
0000
,
0001
0012
0000
1003
,
0010
1010
1000
0001
,
0011
2001
3010
0020
,
0130
0200
0301
0002
,
0013
0000
0012
0000
1003
0100
0000
1000
,
0000
1000
0000
0001
0100
0000
0001
0000
,
1001
1020
1030
2000
,
3001
0002
0013
0020
,
0130
0000
2100
0000
3001
0001
0000
1001
,
0000
1001
0000
0000
0000
0100
0100
0000
,
0010
0000
1001
0000
1000
0000
0001
0001
,
0000
2000
0000
3002
0000
2003
0000
3010
,
0010
0110
0100
0001
,
1000
1002
0000
0013
,
0100
0110
0000
0100
,
1000
0010
0010
1000
,
0010
0000
0100
0000
0100
0001
0000
1000
,
0000
1002
0000
0000
0000
1003
0000
1000
,
0010
1000
0010
0000
0110
0000
1000
0100
,
0000
0020
0000
0230
0000
0320
0000
0130
,
1000
0000
0001
0000
0100
0010
0000
0010
,
0000
0110
0000
1001
0000
0110
0000
0000
,
0001
1001
1000
0100
,
0010
0110
0010
0001
,
1000
1001
0010
0110
,
1000
1010
0101
0011
,
1100
0000
1002
0000
1003
0000
1010
0010
,
0110
0100
0102
0000
0013
0000
2100
0000
,
3001
0100
0120
0000
0130
0000
1010
1000
,
1001
0001
0011
0000
0110
0000
1100
1001
,
0000
0000
0001
1000
0000
0020
0000
0000
0000
0000
0130
0000
0110
0000
0000
0000
,
0010
2000
0000
3002
0000
2003
0000
0000
,
3100
0000
1001
1001
1002
0000
0103
0000
,
0010
1000
0000
0020
0000
0230
0000
0320
,
0000
1030
0001
0000
0011
0000
0010
0100
,
0000
1100
0000
0101
0000
0001
0000
1000
,
0000
0001
0100
0001
0100
0000
0110
0000
,
0100
0001
0000
0020
0000
0230
0000
0320
,
0000
0031
0100
0000
0110
0000
0010
1000
,
0000
0001
0000
1001
0000
0110
0000
1001
,
0000
1000
1010
0010
,
0100
0001
1001
0010
,
0100
1000
1100
0010
,
0011
0000
1000
0000
1001
0000
0001
0001
,
0000
1000
1000
0000
0010
0000
1010
0000
,
1000
0001
0010
0011
,
0001
0100
0001
0000
0100
0000
0110
0000
,
0010
1000
0001
1001
,
1000
0001
1000
0000
0100
0000
0110
0000
,
0010
0001
1000
1100
,
0100
0010
0011
1000
,
1010
0001
0100
0110
,
0010
0100
0010
0000
2002
0000
0000
0000
,
3003
0000
0000
0000
;

//--------------- dance-single - Marten ----------------
#NOTES:
     dance-single:
     Marten:
     Medium:
     12:
     0.601264,0.808493,0.524934,0.684289,0.074991,449,393,56,73,0,0,0.601264,0.808493,0.524934,0.684289,0.074991,449,393,56,73,0,0:
0000
0000
0000
0000
,
0000
0000
0000
0000
,
0000
0000
0000
0000
,
0000
0000
0000
0000
,
0000
0000
0000
1000
,
0012
0000
0000
1000
0000
1000
0000
0023
,
0000
0100
0000
0130
1000
0000
0001
1000
,
0002
0000
0000
0100
0203
0000
0000
0000
,
0320
0030
0000
0000
0000
0000
0000
0000
0000
0000
0000
0000
0000
0000
0000
0000
1000
0000
0000
0000
0000
0000
0000
0000
0100
0000
0000
0000
0000
0000
0000
0000
0010
0000
0000
0000
0000
0000
0000
0000
0200
0000
0000
0000
0000
0000
0000
0000
0000
0000
0000
0000
0000
0000
0000
0000
1300
0000
0000
0000
0000
0000
0000
0000
,
0010
0200
0000
0301
0100
0010
1000
1000
,
0001
0001
0010
0001
1000
0020
0000
0130
,
0001
0020
0000
0130
0010
0001
0100
0100
,
0010
0010
1000
0100
1000
0002
0000
0103
,
0001
2000
0000
3100
1000
0010
0100
0100
,
0010
0010
1000
0010
0100
0002
0000
0013
,
0100
2000
0000
3001
1000
1000
0001
0100
,
0010
0010
2000
0000
0001
0000
0010
0000
,
3001
0200
1000
0010
,
1300
0002
0010
1000
,
0013
0020
1000
0001
,
0031
0000
1000
0000
0100
1000
0001
1000
,
0010
0200
0000
0301
0010
0200
0000
1300
,
0001
0001
1000
0000
1001
0000
0001
0100
,
0010
0200
0000
0010
0310
0000
1000
0000
,
1010
1002
0013
0021
,
0130
1200
1300
2001
,
3010
0000
0110
0000
0010
1000
0000
1001
,
0000
0110
0000
0010
1000
0001
1000
0000
,
0100
2100
3010
1020
,
0130
0201
0301
0012
,
1003
0000
1001
0000
0001
0001
0000
0110
,
0000
1001
0000
0000
0000
1000
0010
0000
,
0100
0010
0110
0000
0101
0000
0001
1000
,
0100
2000
0000
3020
0000
0230
0000
0301
,
0100
0010
0100
0000
0001
0010
0000
1100
,
0000
0012
0000
1000
0000
2003
0000
3010
,
1000
0100
2000
0000
3100
0000
0010
0001
,
0010
0002
0000
2003
0000
3020
0000
0130
,
0001
0100
0010
0000
1000
0010
0000
1010
,
0000
0101
0000
0000
1000
0100
0000
1000
,
0010
1000
1001
0000
1100
0000
1000
0100
,
0010
0200
0000
2300
0000
3002
0000
0103
,
0001
1000
0010
0000
0010
2000
0000
3001
,
0000
0011
0000
1001
0000
0021
0000
0000
,
0130
0000
2100
0000
3001
0100
0000
0100
,
0000
0001
0010
0001
0000
1000
0020
0000
,
0130
0001
1001
0000
1000
0000
1100
0000
,
0010
0001
1001
0000
0001
0100
0010
0100
,
0001
0000
1000
0000
0200
0000
1300
0010
0000
0100
0000
0001
0000
0010
0000
0100
,
1000
0000
1001
0000
0201
0000
0301
0010
0000
0100
0000
1000
0000
0010
0000
0100
,
0001
0001
0021
0000
0000
0000
0230
0000
,
2300
0000
0000
0000
0000
0000
0000
0000
0000
0000
0000
0000
0000
0000
0000
0000
3002
0000
0000
0000
0000
0000
0000
0000
0000
0000
0000
0000
0000
0000
0000
0000
0000
0000
0000
0000
0000
0000
0000
0000
0013
0000
0000
0000
0100
0000
0000
0000
0020
0030
0000
0000
0000
0000
0000
0000
1001
0000
0000
0000
0000
0000
0000
0000
,
0000
0000
1000
0010
0000
1010
1001
1010
0000
0010
1000
0001
0020
0000
0000
0000
,
0130
1000
0000
1100
0000
0012
0000
1000
,
0000
1003
1100
1001
0102
0000
0103
0000
,
0010
1000
0010
2000
0000
3002
0000
0023
,
0000
0130
1000
0100
0010
0000
0001
0010
,
0000
0011
0000
1100
0000
1000
0001
0100
,
0100
0001
0010
0001
1001
0000
0101
0000
,
0001
0100
0010
0200
0000
0302
0000
2003
,
0000
3100
1000
0001
0010
0000
0010
0002
,
0000
1003
0000
1010
0000
1001
0000
1020
,
0000
0000
0130
0000
0102
0000
1003
0100
,
0000
0100
0000
1000
0010
1000
0000
0001
,
0020
0000
0130
1000
1001
0000
0001
0000
,
0101
0000
0010
1000
1001
0000
1000
0100
,
0010
0100
1000
1000
0001
0100
0010
0200
,
0000
0301
0010
0200
0000
1300
0100
0010
,
0001
0001
1000
1000
0010
1000
0001
0020
,
0000
0130
1000
0020
0000
0130
0010
1000
,
0100
0100
0010
0010
0001
0100
0001
2000
,
0000
3100
1000
0002
0000
0103
0001
0010
,
0100
0100
0010
0010
0001
0010
0100
2000
,
0000
3010
0100
0002
0000
1003
0001
0001
,
1000
0100
0010
0010
0220
0000
0000
0000
,
0330
0000
0000
0000
;

//--------------- dance-single - Marten ----------------
#NOTES:
     dance-single:
     Marten:
     Hard:
     15:
     0.815523,1.054556,0.721785,0.384327,0.342145,609,532,77,41,0,0,0.815523,1.054556,0.721785,0.384327,0.342145,609,532,77,41,0,0:
0000
0000
0000
0000
,
0000
0000
0000
0000
,
0000
0000
0000
0000
,
0000
0000
0000
0000
,
0000
0000
0000
0001
,
2010
0000
0000
0010
0000
0001
0000
3010
,
0200
1000
0000
0301
0020
0000
0130
1000
,
1002
0000
0000
0000
0000
0000
0100
0000
0203
0000
0301
0000
1000
0000
0001
0100
,
0020
0030
0000
0000
0000
0000
0000
0000
0000
0000
0000
0000
0000
0000
0000
0000
1000
0000
0000
0000
0000
0000
0000
0000
0100
0000
0000
0000
0000
0000
0000
0000
0010
0000
0000
0000
0000
0000
0000
0000
2010
0000
0000
0000
0000
0000
0000
0000
0000
0000
0000
0000
0000
0000
0000
0000
3001
0000
0000
0000
0000
0000
0000
0000
,
0100
2100
0000
3001
0100
1000
0100
0010
,
1000
1000
0001
0100
0010
0012
0000
1003
,
0100
0102
0000
1003
0100
0001
0100
0010
,
0001
0001
0100
1000
0001
0021
0000
1030
,
0100
0102
0000
1003
0010
0001
1000
0001
,
0010
0010
0100
0001
1000
1020
0000
0031
,
0100
2100
0000
3001
0010
1000
0001
1000
,
0010
0010
0100
0001
0010
0001
0021
0000
,
0130
1200
0000
1300
1001
0000
0001
0100
,
1000
0100
0001
0010
0001
0001
1000
1000
,
0010
1010
0000
0101
0000
1001
1001
0000
,
0110
0000
0010
1000
0100
0010
0001
0001
,
0100
2000
0000
3001
0010
2000
0000
3001
,
0010
0010
0100
0001
0100
1000
0100
0100
,
1000
0000
1020
0000
0000
0000
0100
0000
0130
0000
0000
0000
1001
0000
0000
0001
,
0010
0100
2100
0000
0010
3010
0200
0000
,
1000
1300
0002
0000
0010
0013
2000
0000
,
0001
3001
0200
0000
0310
0110
0000
0011
,
0000
1100
0000
1000
0010
0001
0010
0000
,
0110
0000
0102
0000
0010
0013
0200
0000
,
0001
0301
2000
0000
0010
3010
0002
0000
,
1000
0000
1003
0000
1001
0000
0000
0000
1010
0000
0000
1000
0100
0000
0100
0000
,
0010
0000
0001
1000
0001
0000
0000
0000
1000
0000
1010
0000
1010
0000
0000
0000
,
0100
0001
0100
0001
0010
0000
0000
0000
0101
0000
0001
0000
0010
0000
1000
0000
,
0001
0000
1000
0000
0010
0000
0001
0000
1000
0000
0010
1000
0010
0000
0100
0001
,
0100
0001
1001
0000
0011
0011
0000
1100
,
0000
0000
1001
0000
0000
0000
1000
0000
0100
0000
0001
0000
1000
0000
0010
0001
,
1000
0001
1001
0000
0001
0100
1000
0001
,
0010
0100
0000
1100
0000
0101
0000
0011
,
0010
0100
1100
0000
1000
1001
0000
0101
,
0001
0000
0011
0000
0000
0000
0100
0000
1000
0000
0010
1000
0010
0000
1000
0100
,
1000
0000
0001
0010
0001
0000
0000
0000
1000
0000
0100
0000
0001
0000
1000
0000
,
0001
0000
0100
0000
1000
0000
0010
0000
1000
0000
0001
0100
0001
0000
1000
0010
,
1000
0100
0110
0000
0001
1001
0000
1100
,
1000
0000
1010
0000
0000
0000
1001
0000
0000
0000
0011
0000
0000
0000
0001
0100
,
0001
1000
1100
0000
1000
0100
0001
0100
,
1000
0000
0010
0100
0010
0000
0000
0000
1000
0000
0010
0000
0001
0000
0010
0000
,
1000
0000
0001
0010
0001
0000
0100
0000
0010
0000
1000
0001
1000
0000
0100
0000
,
0010
0000
0001
0010
0001
0000
1000
0100
1000
0000
0001
0000
0100
0000
0010
0000
,
1000
0001
1000
0001
1000
0100
0010
0100
0000
0100
0010
0100
0000
0100
1000
0100
,
0010
0001
0100
0100
0001
0100
0010
0100
0000
0100
0010
0100
0000
0100
0010
1000
,
0001
0000
0001
0000
1000
0000
0100
0010
0200
0000
0000
0000
0000
0000
0000
0000
0000
0000
0000
0000
0000
0000
1300
0000
2100
0000
0000
0000
0000
0000
0000
0000
,
3020
0000
0000
0000
0000
0000
0000
0000
0000
0000
0000
0000
0000
0000
0000
0000
0230
0000
0000
0000
0000
0000
0000
0000
0000
0000
0000
0000
0000
0000
0000
0000
0301
0000
0000
0000
0000
0000
0000
0000
1000
0000
0000
0000
0001
0000
0100
0000
0002
0003
0000
0000
0000
0000
0000
0000
0110
0000
0000
0000
0000
0000
0000
0000
,
0000
0000
1000
1000
0000
1001
1010
0101
0000
0001
0010
0100
1000
0000
0100
0000
,
1000
0000
0010
0000
0001
0000
0010
0000
1000
0000
0001
0000
0010
0000
0100
0010
,
0100
1000
1001
0011
1100
0000
1000
0100
,
0001
1000
0010
0100
0000
0101
0000
1100
,
0000
1010
0010
0100
0101
0000
0001
1001
,
0000
0000
1100
0000
1000
0000
1010
0000
0000
0000
0100
0000
0001
0000
0010
0001
,
0010
0000
0001
0100
0001
0010
0100
1000
0001
0000
0000
0000
0001
0000
0100
0000
,
1000
0000
0001
0000
1000
0000
0100
0000
0001
0000
0010
0000
0001
0000
1000
0100
,
1000
0000
0001
0010
0001
0000
0100
0000
0110
0000
0000
0000
1000
0000
1001
0000
,
0000
0101
0001
0011
0000
1001
0000
1010
,
0000
0000
1000
0100
1000
0000
0001
0000
0101
0000
0000
0000
0001
0000
0100
0000
,
1000
0000
0100
0000
0001
0000
0010
0100
0010
0000
0000
0000
0001
0000
0010
0000
,
1000
0000
0010
0000
0001
0000
1000
0010
1000
0000
0100
0000
0010
0000
0001
1000
,
0001
0000
0100
0000
0010
0000
1000
0010
1000
0000
0001
0100
0001
0000
1000
0000
,
0100
0000
0010
0000
0001
1000
0001
1000
0001
0000
0100
0000
0010
0000
0012
0000
,
0000
1003
0100
0102
0000
1003
0100
0001
,
0100
0010
0001
0001
1000
0100
0010
2010
,
0000
3001
0100
2100
0000
3001
0100
1000
,
0100
0000
0010
0000
1000
0000
1000
0001
0100
0000
0010
0000
0001
0000
2000
0000
,
3100
0000
0010
1000
0100
0000
0002
0000
0103
0000
1000
0001
0100
0000
0020
0000
,
0130
0000
0001
0000
1000
0000
1000
0000
0010
1000
0010
0100
0001
0000
1000
0000
,
0100
0010
0100
1000
0001
0000
0100
0000
0010
0000
1000
0001
1000
0000
0100
0000
,
0010
0001
1000
0010
0100
0000
0100
0002
2000
0000
0000
0000
0000
0000
0000
0000
,
3003
0000
0000
0000
;

//--------------- dance-single - Marten ----------------
#NOTES:
     dance-single:
     Marten:
     Challenge:
     18:
     0,0,0,0,0:
0000
0000
0000
0000
,
0000
0000
0000
0000
,
0000
0000
0000
0000
,
0000
0000
0000
0000
,
0000
0000
0000
0000
0000
0000
0000
0000
0000
0000
0000
0000
0001
0000
1000
0001
,
0020
0000
0000
1000
0000
0001
0000
0130
,
2100
0010
0000
0001
0001
0000
3100
0010
,
0012
0000
0000
0000
0103
0000
0000
0000
2010
0000
0000
0000
3100
0000
0010
0001
,
0200
0300
0000
0000
0000
0000
0000
0000
0000
0000
0000
0000
0000
0000
0000
0000
1100
0000
0000
0000
0000
0000
0000
0000
0100
0000
0000
0000
0010
0000
0000
0000
1000
0000
0000
0000
0000
0000
0000
0000
0020
0000
0000
0000
0000
0000
0000
0000
0001
0000
0000
0000
0000
0000
0000
0000
0130
0000
0000
0000
1000
0000
0000
0000
,
0010
0000
0002
0000
1000
0000
0013
1000
0001
0000
0010
0000
0100
0010
0001
0100
,
0010
0000
0110
0000
0101
0000
0100
0010
0001
0000
0020
0000
1000
0000
0130
0001
,
0010
0000
2000
0000
0001
0000
3010
0001
1000
0000
0010
0000
0100
0010
1000
0100
,
0010
0000
0110
0000
0011
0000
0100
1000
0010
0000
0200
0000
1000
0000
0301
1000
,
0100
0000
0002
0000
1000
0000
0103
1000
0010
0000
0100
0000
0010
1000
0100
0010
,
0001
0000
1001
0000
1010
0000
0100
0001
0010
0000
0200
0000
0001
0000
1300
0001
,
0100
0000
2000
0000
0001
0000
3100
0001
0010
0000
0100
0000
0010
0001
0100
0010
,
1000
1001
1000
0100
0010
0100
1000
0010
,
0100
0000
1000
0000
0100
0000
0010
0000
1000
0000
0001
0000
0010
0000
0001
1000
,
0011
0100
0010
0100
0001
0010
0100
0001
,
0100
0000
0010
0000
0001
0000
1000
0000
0010
0000
1000
0001
1010
0000
0101
0000
,
1001
0000
1000
0100
0010
0001
0100
0001
,
1000
0100
1000
0001
0010
0100
1000
0010
,
0001
0000
0010
0000
0100
0010
1000
0000
0100
0010
0001
0000
0010
0100
1000
0000
,
0010
0100
0001
0000
1000
0001
0100
0001
0010
0100
0010
0001
0100
1000
0100
0001
,
1000
0010
1020
0100
1030
0001
0021
0100
,
0031
1000
1200
0010
1300
0001
0201
0010
,
0301
0000
1000
0000
0001
0000
1000
0010
0100
0000
0001
0010
0100
0000
1000
0001
,
0010
0000
0001
1000
0010
0000
0100
0001
0010
0000
0200
0000
0010
0000
0010
0000
,
0010
0310
0012
0100
1003
0001
2010
0100
,
3001
1000
0102
0010
1003
0001
2100
0010
,
3001
1000
1001
0000
1000
0100
0010
0001
,
0100
0010
0110
0000
0000
0100
0100
0000
,
0001
0010
0100
1000
0011
0000
0000
0000
0110
0000
0010
0000
1000
0000
0100
0000
,
0001
0000
0100
0000
0010
0000
0001
1000
0011
0000
1000
0001
1100
0000
0001
1000
,
0011
0000
1000
0001
1100
0000
0001
0000
1001
0000
2020
0000
3030
0000
0202
0000
,
0303
0000
2002
0000
3003
0000
1000
0000
0010
0000
0100
0000
0001
0000
0010
0001
,
0010
0100
1000
0010
1100
0000
0000
0000
1001
0000
0000
0000
0001
0000
0010
0000
,
0100
0000
1000
0020
0001
0000
1030
0200
0001
0000
1300
0020
0001
0000
1030
0200
,
0001
1300
1001
0001
0010
0100
1000
0010
,
0001
0000
0010
0000
1000
0100
0010
0001
0100
0001
0010
0100
1000
0100
0001
0100
,
1000
0001
0010
0100
1010
0000
0000
0000
0110
0000
0010
0000
0001
0000
0100
0000
,
1000
0000
0100
0000
0010
0000
1000
0001
1010
0000
0001
1000
0101
0000
1000
0001
,
1010
0000
0001
1000
0101
0000
1000
0000
1001
0000
0022
0000
0033
0000
2200
0000
,
3300
0000
2002
0000
3003
0000
0022
0000
0033
0000
2020
0000
3030
0000
1000
0010
,
0100
0000
0001
0010
0101
0000
0000
0000
1000
0000
0100
0000
0010
0000
0001
0000
,
0100
0000
0010
0100
0011
0000
0000
0000
1000
0000
0001
0000
0010
0000
0100
0000
,
1000
0000
0001
1000
0011
0000
0100
0000
0001
0000
1000
0001
1010
0000
0100
0000
,
1000
0000
0010
1000
0101
0000
0010
0001
1100
0000
0010
1000
0101
0000
0010
0001
,
1100
0001
2001
0000
0000
0000
3020
0000
,
0230
0302
0000
0023
,
0000
0000
0130
0000
1000
0000
0001
1000
0002
0000
0000
0000
0000
0000
0000
0000
0000
0000
0000
0000
0000
0000
0000
0000
0203
0000
0000
0000
0000
0000
0000
0000
,
0320
0000
0000
0000
0000
0000
0000
0000
0000
0000
0000
0000
0000
0000
0000
0000
2030
0000
0000
0000
0000
0000
0000
0000
0000
0000
0000
0000
0000
0000
0000
0000
3200
0000
0000
0000
0000
0000
0000
0000
0000
0000
0000
0000
0310
0000
0001
0000
2000
3000
0000
0000
0000
0000
0000
0000
1001
0000
0000
0000
0000
0000
0000
0000
,
0000
0000
1000
0001
0000
0011
0110
1100
0000
1000
0001
1000
1010
0000
0010
1000
,
0100
0000
0001
0000
0100
0000
0010
0001
0100
0000
1000
0000
0100
0000
0010
1000
,
0001
0010
0100
1000
0011
0000
1100
0000
1001
0000
0000
0000
0001
0000
0000
0000
,
1000
0000
0010
0000
0100
0000
0001
0020
1000
0000
0031
0200
1000
0000
0301
0020
,
1000
0000
0031
0200
1000
0000
0301
0000
1001
0000
1000
0000
0010
0000
0100
0000
,
0001
0000
0010
0000
1000
0000
0010
0000
0001
0100
0010
1000
0100
1000
0010
0100
,
0001
0100
1000
0100
0001
1000
0010
0100
0011
0000
0000
0000
0110
0000
0010
0000
,
0100
0000
0001
0000
1000
0000
0100
0000
0010
0000
0100
0010
0101
0000
0010
0100
,
1010
0000
0100
0010
0101
0000
0010
0100
1010
0000
0001
0000
1001
0000
2020
0000
,
3030
0202
0303
2002
3003
2020
3030
0022
,
0033
0000
0001
0100
0010
0000
1000
0100
1010
0000
0000
0000
0001
0000
0010
0000
,
0100
0000
1000
0000
0010
0000
0100
0010
1100
0000
0000
0000
0001
0000
1000
0000
,
0100
0000
0010
0000
0001
0000
1000
0001
1100
0000
0010
0000
1000
0000
0001
1000
,
0101
0000
0010
0000
0001
0000
0100
0001
1010
0000
0100
1000
0011
0000
0100
0001
,
1010
0000
0100
1000
0011
0000
1000
0000
1010
0000
1000
0010
0100
0000
0020
0000
,
0001
0000
1030
0001
0010
0000
0200
0000
0001
0000
0310
0001
1000
0000
0010
0100
,
0010
1000
0100
0010
1000
0000
0110
0000
0011
0000
0001
0010
0100
0000
0020
0000
,
1000
0000
0031
1000
0010
0000
0200
0000
1000
0000
0310
1000
0001
0000
0010
0100
,
0010
0001
0100
0010
0001
0000
0110
0000
0101
0000
0001
0010
0100
0000
0020
0000
,
1000
0000
0031
0100
0010
0000
0002
0000
1000
0000
0013
1000
0001
0000
0010
0000
,
0100
1000
0010
0100
0001
1000
0001
0000
1100
0001
0010
0100
1000
0000
0010
1000
,
0101
1000
0010
0100
0001
0000
0010
0100
1000
0000
1010
0000
0000
0000
0011
0000
,
0001
0010
0100
1000
0010
0000
0100
0010
2002
0000
0000
0000
0000
0000
0000
0000
,
3003
0000
0000
0000
;
