#TITLE:Good Sound United;
#SUBTITLE:;
#ARTIST:Hommarju;
#TITLETRANSLIT:;
#SUBTITLETRANSLIT:;
#ARTISTTRANSLIT:;
#GENRE:;
#CREDIT:;
#MUSIC:Good Sound United.ogg;
#BANNER:Good Sound United.png;
#BACKGROUND:Good Sound United-bg.png;
#CDTITLE:./CDTitles/DDR A3.png;
#SAMPLESTART:84.000;
#SAMPLELENGTH:15.000;
#SELECTABLE:YES;
#OFFSET:0.000;
#BPMS:0.000=200.000
,40.000=100.000
,42.000=200.000
,57.000=400.000
,58.000=200.000
,89.000=400.000
,90.000=200.000
,106.000=100.000
,114.000=200.000
,126.000=100.000
,128.000=200.000
,176.000=100.000
,180.000=105.000
,184.000=110.000
,186.000=120.000
,188.000=125.000
,190.000=135.000
,192.000=145.000
,194.000=150.000
,196.000=155.000
,198.000=165.000
,200.000=175.000
,202.000=185.000
,204.000=190.000
,206.000=195.000
,208.000=200.000
,240.000=100.000
,248.000=200.000
,263.000=400.000
,264.000=200.000
,295.000=400.000
,296.000=200.000
;
#STOPS:57.000=0.150
,89.000=0.150
,263.000=0.150
,295.000=0.150
;
#DISPLAYBPM:100.000:200.000;
#STAGE:29;
#BGCHANGES:;
#FGCHANGES:;

//--------------- dance-single - Marten ----------------
#NOTES:
     dance-single:
     Marten:
     Challenge:
     18:
     0,0,0,0,0:
0000
0000
0000
0000
,
0000
0000
0000
0000
,
0000
0000
0000
0000
,
0000
0000
0000
0000
,
0000
0000
0000
0000
,
0000
0000
0000
0000
,
0000
0000
0000
0000
,
1000
0100
0010
0100
1000
0001
0100
0010
,
0100
0001
0010
0100
1000
0010
0100
0001
,
1000
0010
1000
0010
0100
0001
0100
0001
1000
0100
0010
0001
0100
0010
1000
0001
,
0020
0000
0000
0000
0031
0100
0010
1000
0001
0000
0010
0000
1000
0000
0010
0000
0001
0000
0000
0000
0100
0000
0000
0000
0010
0000
0000
0000
0100
0000
0000
0000
,
0001
0000
0010
0000
0100
1000
0010
0100
0002
0000
0100
0000
2003
0000
0100
0000
,
3002
0100
2003
0100
3001
1000
0100
0010
,
0100
0000
1000
0000
0001
0100
0010
1000
0002
0000
0010
0000
2003
0000
0010
0000
,
3001
1000
0110
0000
1000
0100
0010
1000
,
0010
0000
0001
0000
0100
0010
1000
0100
0020
0000
0001
0000
0230
0000
1000
0000
,
0320
0001
0230
1300
1001
0001
0101
1100
,
1000
0000
0001
0000
1000
0100
0010
0001
0100
0000
0001
0010
0100
0000
0100
0010
,
0001
0010
0100
1000
0010
1000
0100
0001
,
0100
0000
1000
0000
0001
0010
0100
1000
0002
0000
0010
0000
0203
0000
1000
0000
,
0302
0010
0203
1000
0301
0100
1000
0100
,
0001
0000
0010
0000
0100
1000
0010
0100
0001
0000
1000
0000
MMMM
0000
0010
0000
,
0100
0100
1001
0000
0010
0001
0100
1000
,
0100
0000
0001
0000
1000
0010
0100
0001
1000
0000
1010
0000
0101
0000
0001
0000
,
0011
0000
1100
0000
1000
0100
0010
0001
0010
0000
0010
0000
0100
0000
0100
0000
,
1000
0010
0100
0010
0001
0010
1000
0001
0020
0000
0000
0000
0100
0000
0000
0000
,
0130
0000
0000
0000
0000
0000
0000
0000
0001
0010
1000
0010
0001
0100
0001
0010
,
0001
0010
1000
0010
0001
0100
1001
0000
1000
0010
0001
0010
1000
0100
0001
0100
,
1000
0010
0001
0010
1000
0100
1001
0000
1000
0000
0100
0000
0100
0000
0001
0000
,
0100
0100
1000
0001
1000
0010
0010
0001
,
0010
0000
0010
0000
1000
0000
0001
0000
1000
0010
0100
0010
1000
0001
0010
0100
,
0010
0000
0001
0000
1000
0000
0100
0000
0001
0000
0100
0000
1000
0000
0001
0000
0200
0000
0000
0000
0301
1000
0010
0100
0001
0000
0010
0000
1000
0000
0010
0000
,
0011
0000
0100
0000
1000
0000
0011
0000
0100
0000
1000
0001
0100
0000
1000
0000
,
0101
0010
1000
0101
0010
1000
1001
0000
,
1010
0000
0100
0000
0001
0000
1010
0000
0100
0000
0001
1000
0100
0000
0001
0000
,
1100
0010
0001
1100
0010
0001
1001
0000
,
1010
0000
0001
0000
0010
0000
1010
0000
0001
0000
0010
0100
0001
0000
0100
0000
,
1100
0001
0100
1100
0001
0100
1001
0000
,
0011
0000
1000
0000
0010
0000
0011
0000
1000
0000
0010
0100
1000
0000
0100
0000
,
0101
1000
0100
0101
1000
0100
1001
0000
,
1000
0000
0000
0000
0000
0000
0100
0000
0000
0001
0000
0000
0000
0000
0000
0100
0000
0000
1000
0000
0000
0000
0000
0000
0100
0000
0000
0001
0000
0000
0000
0000
0000
0100
0000
0000
1000
0000
0000
0000
0000
0000
0001
0000
1000
0000
0001
0000
,
1000
0000
0010
0001
0000
0010
1000
0000
0010
0001
0000
0010
1000
0000
0000
0000
,
0001
0000
0010
1000
0000
0010
0001
0000
0100
1000
0000
0100
0001
0000
1000
0100
,
0000
0000
MMMM
0000
0001
0000
1000
1000
0000
0010
0010
0000
0100
0100
0000
0000
,
0001
0010
1000
0010
0011
MMMM
1100
MMMM
,
1010
MMMM
0101
MMMM
0011
MMMM
1100
MMMM
,
1000
0010
0001
0010
1010
MMMM
0101
MMMM
,
0001
0000
1000
1000
0000
0010
0010
0000
0100
0100
0000
0001
0001
0000
MMMM
0000
,
0001
0100
0001
0100
1000
0100
1000
0100
,
0001
0010
0001
0010
1000
0010
1000
0010
,
0001
0100
1000
0100
0001
0010
1000
0010
,
0002
0003
0000
0000
0000
0000
0000
0000
0000
0000
0000
0000
0000
0000
0000
0000
2002
3003
0000
0000
0000
0000
0000
0000
0000
0000
0000
0000
0200
0300
0000
0000
0020
0030
0000
0000
0200
0300
0000
0000
0000
0000
0000
0000
0000
0000
0000
0000
0000
0000
0000
0000
0000
0000
0000
0000
0000
0000
0000
0000
0000
0000
0000
0000
,
1000
0100
0010
0001
1001
0001
0011
0000
,
0101
0100
0110
0000
1001
0000
1010
0000
,
0001
0100
0010
1000
1001
1000
1010
0000
,
1000
0000
0010
0000
0010
0000
0100
0001
0010
0000
1000
0000
0010
0000
0001
0000
,
1000
0100
0100
0001
0100
0100
1000
0001
,
1000
0010
0010
0001
0010
0010
1000
0001
,
1000
0010
0100
0001
0010
0100
1000
0001
0100
1000
0100
0001
0010
0100
1000
0010
,
0200
0000
0000
0300
,
0002
0000
0000
0000
0023
0000
0000
0000
2030
0000
0000
0000
3010
0000
0001
0000
2000
0000
0000
0000
3020
0000
0000
0000
0032
0000
0000
0010
0103
0000
0100
0000
,
0001
0000
0010
0000
1000
0000
0010
0000
0001
0000
0100
0000
1000
0000
0100
0000
0002
0000
0000
0000
1003
0010
0100
0001
0010
0000
1000
0000
0010
0000
0010
0000
,
0001
0000
0100
0000
1000
0000
0100
0000
0010
0000
1000
0000
0001
0010
0100
1000
,
0001
0000
0001
0100
1000
0000
1000
0100
0001
0000
0001
0100
1000
0000
0100
0001
,
1000
0000
0100
0000
0001
0000
0100
0000
0010
0000
0001
0000
1000
0010
0100
0001
,
0010
0000
0010
1000
0100
0000
0100
0001
0010
0000
0100
0000
1001
0000
0000
0000
,
0001
0000
0010
0000
1000
0000
0010
0000
0100
0000
1000
0000
0001
0100
0010
1000
,
0001
0000
0001
0010
1000
0000
1000
0010
0001
0000
0001
0010
1000
0000
0010
0001
,
1000
0000
0100
0000
0001
0000
1000
0000
0010
0000
0001
0000
1000
0010
0100
0010
,
1000
0000
1000
0100
0010
0000
0010
0100
1000
0000
0010
0000
0100
0000
0001
0000
,
0010
0000
0001
0000
0100
0000
1000
0000
0100
0000
0001
0000
0010
0100
1000
0100
,
0001
0000
0001
0100
1000
0000
1000
0100
0001
0000
0001
0100
1000
0000
0001
0100
,
0010
0000
1000
0000
0100
0000
0001
0000
0100
0000
1000
0000
0010
0100
0010
1000
,
0001
1000
MMMM
0010
0100
0100
1001
0000
,
0010
0000
1000
0000
0100
0000
0001
0000
0100
0000
1000
0000
0001
0010
0100
1000
,
0001
0000
0011
0000
1100
0000
1000
0000
1010
0000
0101
0000
0001
0100
0010
1000
,
0010
0000
0010
0000
0100
0000
0100
0000
0001
0010
0100
0010
1000
0010
0001
1000
,
0020
0100
0130
0000
,
1010
0000
0000
0000
0000
0000
0010
0000
0000
0001
0000
0000
0000
0000
0000
0010
0000
0000
1000
0000
0000
0000
0000
0000
0010
0000
0000
0001
0000
0000
0000
0000
0000
0010
0000
0000
1000
0000
0000
0000
0000
0000
0001
0000
1000
0000
0001
0000
,
1000
0000
0100
0001
0000
0100
1000
0000
0100
0001
0000
0100
1000
0000
0000
0000
,
0001
0000
0000
0000
0000
0000
0010
0000
0000
1000
0000
0000
0000
0000
0000
0010
0000
0000
0001
0000
0000
0000
0000
0000
0010
0000
0000
1000
0000
0000
0000
0000
0000
0010
0000
0000
0001
0000
0000
0000
0000
0000
1000
0000
0001
0000
1000
0000
,
0001
0000
0100
0000
0100
0000
0010
1000
0100
0000
0001
0000
0100
0000
1000
0000
,
0010
0000
1000
1000
0000
0001
0001
0000
0010
0010
0000
0100
0100
0000
1000
1000
,
0000
0000
MMMM
0000
0010
0000
0001
0001
0000
0100
0100
0000
0010
0010
0000
0000
,
1000
0100
1000
0001
0100
0001
1000
0010
1000
0001
0010
0001
1000
0010
0100
0001
,
1000
0000
0000
0100
0000
0000
0001
0000
0000
0100
0000
0000
0010
0000
0000
0001
0000
0000
0100
0000
0000
1000
0000
0000
0100
0000
0000
0010
0000
0000
1000
0000
0000
0001
0000
0000
1000
0000
0001
0000
1000
0000
0001
0000
1000
0000
0001
0000
,
0010
0000
0000
0000
;
