#TITLE:Dallas EVOLVED;
#SUBTITLE:;
#ARTIST:TBD SoundTeam;
#TITLETRANSLIT:;
#SUBTITLETRANSLIT:;
#ARTISTTRANSLIT:;
#GENRE:;
#CREDIT:;
#MUSIC:Dallas EVOLVED.ogg;
#BANNER:Dallas EVOLVED.png;
#BACKGROUND:Dallas EVOLVED-bg.png;
#CDTITLE:;
#SAMPLESTART:19.332;
#SAMPLELENGTH:15.000;
#SELECTABLE:YES;
#OFFSET:-0.132;
#BPMS:0.000=200.000
,32.000=400.000
,332.000=200.000
,396.000=100.000
,428.000=400.000
;
#STOPS:96.000=0.150
,98.000=0.150
,100.000=0.150
,102.000=0.150
,104.000=0.150
,105.000=0.150
,106.000=0.150
,108.000=0.150
,110.000=0.150
,112.000=0.150
,114.000=0.150
,115.000=0.150
,116.000=0.150
,118.000=0.150
,120.000=0.150
,122.000=0.150
,128.000=0.150
,130.000=0.150
,134.000=0.150
,136.000=0.150
,428.000=0.150
,430.000=0.150
,432.000=0.150
,434.000=0.150
,436.000=0.150
,437.000=0.150
,438.000=0.150
,440.000=0.150
,442.000=0.150
,444.000=0.150
;
#BGCHANGES:;
#FGCHANGES:;

//--------------- dance-single - Marten ----------------
#NOTES:
     dance-single:
     Marten:
     Beginner:
     5:
     0,0,0,0,0:
0000
0000
0000
0000
,
0000
0000
0000
0000
,
0000
0000
0000
0000
,
0000
0000
0000
0000
,
0000
0000
0000
0000
,
0000
0000
0000
0000
,
0000
0000
0000
0000
,
0000
0000
0000
0000
,
0001
0000
0000
0000
,
0001
0000
0000
0000
,
1000
0000
0000
0000
,
1000
0000
0000
0000
,
0001
0000
0000
0000
,
0001
0000
0000
0000
,
1000
0000
0000
0000
,
1000
0000
0000
0000
,
0010
0000
0010
0000
,
0010
0000
0000
0000
,
0100
0000
0100
0000
,
0100
0000
0000
0000
,
0010
0000
0010
0000
,
0010
0000
0000
0000
,
0100
0000
0100
0000
,
0100
0000
0000
0000
,
2002
3003
0000
0000
0000
0000
0000
0000
0000
0000
0000
0000
0000
0000
0000
0000
0000
0000
0000
0000
0000
0000
0000
0000
0000
0000
0000
0000
0000
0000
0000
0000
,
2002
3003
0000
0000
0000
0000
0000
0000
0000
0000
0000
0000
0000
0000
0000
0000
0000
0000
0000
0000
0000
0000
0000
0000
0000
0000
0000
0000
0000
0000
0000
0000
,
0220
0330
0000
0000
0000
0000
0000
0000
0000
0000
0000
0000
0000
0000
0000
0000
2002
3003
0000
0000
0000
0000
0000
0000
0000
0000
0000
0000
0000
0000
0000
0000
,
0000
0000
0000
0000
0000
0000
0000
0000
0000
0000
0000
0000
0000
0000
0000
0000
2002
3003
0000
0000
0000
0000
0000
0000
0000
0000
0000
0000
0000
0000
0000
0000
,
0000
0000
0000
0000
0000
0000
0000
0000
0000
0000
0000
0000
0000
0000
0000
0000
0220
0330
0000
0000
0000
0000
0000
0000
0000
0000
0000
0000
0000
0000
0000
0000
,
2002
3003
0000
0000
0000
0000
0000
0000
0000
0000
0000
0000
0000
0000
0000
0000
0000
0000
0000
0000
0000
0000
0000
0000
0000
0000
0000
0000
0000
0000
0000
0000
,
2002
3003
0000
0000
0000
0000
0000
0000
0000
0000
0000
0000
0000
0000
0000
0000
0000
0000
0000
0000
0000
0000
0000
0000
0000
0000
0000
0000
0000
0000
0000
0000
,
0110
0000
0010
0000
,
2002
3003
0000
0000
0000
0000
0000
0000
0000
0000
0000
0000
0000
0000
0000
0000
0000
0000
0000
0000
0000
0000
0000
0000
0000
0000
0000
0000
0000
0000
0000
0000
,
0001
0000
0000
0000
0000
0000
0000
0000
0000
0000
0000
0000
0000
0000
0000
0000
2002
3003
0000
0000
0000
0000
0000
0000
0000
0000
0000
0000
0000
0000
0000
0000
,
0000
0000
1000
0000
,
1001
0000
0001
0000
,
0001
0000
0001
0000
,
1000
0000
1000
0000
,
1000
0000
1000
0000
,
0001
0000
0001
0000
,
1000
0000
1000
0000
,
0001
0000
1000
0000
,
0001
0000
0000
0000
,
0010
0000
0010
0000
,
0010
0000
0010
0000
,
0100
0000
0100
0000
,
0100
0000
0100
0000
,
0010
0000
0010
0000
,
0100
0000
0100
0000
,
0010
0000
0100
0000
,
0010
0000
0000
0000
,
0001
0000
0100
0000
,
1000
0000
0000
0000
,
1000
0000
0100
0000
,
0001
0000
0000
0000
,
1000
0000
0100
0000
,
0010
0000
0000
0000
,
0110
0000
0000
0000
,
1001
0000
0000
0000
,
1000
0000
0010
0000
,
0001
0000
0000
0000
,
0001
0000
0010
0000
,
1000
0000
0000
0000
,
0001
0000
0100
0000
,
0010
0000
0000
0000
,
0110
0000
0000
0000
,
1001
0000
0000
0000
,
1000
0000
0100
0000
,
1000
0000
0010
0000
,
0100
0000
0100
0000
,
0001
0000
0000
0000
,
0001
0000
0100
0000
,
0001
0000
0010
0000
,
0100
0000
0100
0000
,
1000
0000
0000
0000
,
0001
0000
0010
0000
,
0100
0000
0000
0000
,
1000
0000
0010
0000
,
0100
0000
0000
0000
,
1001
0000
0000
0000
,
0110
0000
1001
0000
,
0000
0000
1000
0000
,
0001
0000
0001
0000
,
0020
0000
0032
0000
,
0203
0000
0310
0000
,
0020
0000
2030
0000
,
3200
0000
0310
0000
,
0001
0001
0100
0000
,
1000
1000
0100
0000
,
0001
0001
0100
0000
,
1000
1000
0100
0000
,
0002
0000
0023
0000
,
0230
0000
1300
0000
,
2000
0000
3020
0000
,
0230
0000
0301
0000
,
1000
1000
0010
0000
,
0001
0001
0010
0000
,
1000
1000
0010
0000
,
0001
0001
0010
0000
,
2001
3000
0200
0300
,
1002
0003
0200
0300
,
2002
3003
0220
0330
,
2001
0000
0000
0002
0000
0000
3003
0000
,
1002
0003
0020
0030
,
2001
3000
0020
0030
,
2002
3003
0220
0330
,
1002
0000
0000
2000
0000
0000
3003
0000
,
2002
3003
0000
0000
0000
0000
0000
0000
0000
0000
0000
0000
0000
0000
0000
0000
0000
0000
0000
0000
0000
0000
0000
0000
0000
0000
0000
0000
0000
0000
0000
0000
,
2002
3003
0000
0000
0000
0000
0000
0000
0000
0000
0000
0000
0000
0000
0000
0000
0000
0000
0000
0000
0000
0000
0000
0000
0000
0000
0000
0000
0000
0000
0000
0000
,
0220
0330
0000
0000
0000
0000
0000
0000
0000
0000
0000
0000
0000
0000
0000
0000
2002
3003
0000
0000
0000
0000
0000
0000
0000
0000
0000
0000
0000
0000
0000
0000
,
0000
0000
0000
0000
0000
0000
0000
0000
0000
0000
0000
0000
0000
0000
0000
0000
2002
3003
0000
0000
0000
0000
0000
0000
0000
0000
0000
0000
0000
0000
0000
0000
,
0000
0000
0110
0000
,
0000
0000
1001
0000
,
0000
0010
0000
0000
,
1001
0000
0000
0100
,
0000
0000
1001
0000
,
1000
0000
0001
0000
,
0000
1001
0000
0000
,
0001
0000
1000
0000
,
0000
1001
0000
0000
,
0010
0000
0110
0000
;

//--------------- dance-single - Marten ----------------
#NOTES:
     dance-single:
     Marten:
     Easy:
     10:
     0,0,0,0,0:
0000
0000
0000
0000
,
0000
0000
0000
0000
,
0000
0000
0000
0000
,
0000
0000
0000
0000
,
0000
0000
0000
0000
,
0000
0000
0000
0000
,
0001
1000
0001
1000
,
0100
0000
0100
0000
0100
0000
0100
1000
,
0001
0000
1000
0100
,
0000
1000
0001
0000
,
1000
0100
0000
1000
,
0010
0000
0010
0000
,
1000
0000
0001
0100
,
0000
0001
1000
0000
,
0001
0100
0000
0001
,
0010
0000
0010
0000
,
0100
0000
1000
0010
,
0000
0100
0010
0000
,
1000
0010
0000
0100
,
0001
0000
0001
0000
,
0100
0000
0001
0010
,
0000
0100
0010
0000
,
0001
0010
0000
0100
,
0010
0000
0001
0000
,
0022
0033
0000
0000
0000
0000
0000
0000
0000
0000
0000
0000
0000
0000
0000
0000
0022
0033
0000
0000
0000
0000
0000
0000
0000
0000
0000
0000
0000
0000
0000
0000
,
2200
3300
0000
0000
0000
0000
0000
0000
0000
0000
0000
0000
0000
0000
0000
0000
2200
3300
0000
0000
0000
0000
0000
0000
0000
0000
0000
0000
0000
0000
0000
0000
,
2000
3000
0000
0000
0000
0000
0000
0000
0020
0030
0000
0000
0000
0000
0000
0000
2020
3030
0000
0000
0000
0000
0000
0000
0000
0000
0000
0000
0000
0000
0000
0000
,
2020
3030
0000
0000
0000
0000
0000
0000
0000
0000
0000
0000
0000
0000
0000
0000
0202
0303
0000
0000
0000
0000
0000
0000
0000
0000
0000
0000
0000
0000
0000
0000
,
0202
0303
0000
0000
0000
0000
0000
0000
0000
0000
0000
0000
0000
0000
0000
0000
0002
0003
0000
0000
0000
0000
0000
0000
0020
0030
0000
0000
0000
0000
0000
0000
,
0220
0330
0000
0000
0000
0000
0000
0000
0000
0000
0000
0000
0000
0000
0000
0000
0220
0330
0000
0000
0000
0000
0000
0000
0000
0000
0000
0000
0000
0000
0000
0000
,
2002
3003
0000
0000
0000
0000
0000
0000
0000
0000
0000
0000
0000
0000
0000
0000
2002
3003
0000
0000
0000
0000
0000
0000
0000
0000
0000
0000
0000
0000
0000
0000
,
0001
0000
0010
0000
,
2200
3300
0000
0000
0000
0000
0000
0000
0000
0000
0000
0000
0000
0000
0000
0000
2002
3003
0000
0000
0000
0000
0000
0000
0000
0000
0000
0000
0000
0000
0000
0000
,
0001
0000
0000
0000
0000
0000
0000
0000
0000
0000
0000
0000
0000
0000
0000
0000
0202
0303
0000
0000
0000
0000
0000
0000
0000
0000
0000
0000
0000
0000
0000
0000
,
2002
3003
0000
0000
0000
0000
0000
0000
0000
0000
0000
0000
0000
0000
0000
0000
1000
0000
0000
0000
0000
0000
0000
0000
0000
0000
0000
0000
0000
0000
0000
0000
,
0001
0000
0100
0000
,
1000
0000
0100
0000
,
0001
0000
1000
0000
,
0010
0100
0010
0000
,
1000
0000
0100
0000
,
0001
0000
0100
0000
,
1000
0000
0001
0000
,
0010
0100
0010
0000
,
0001
0000
0010
0000
,
1000
0000
0010
0000
,
0001
0000
1000
0000
,
0010
0100
0010
0000
,
1000
0000
0010
0000
,
0001
0000
0010
0000
,
1000
0000
0001
0000
,
0010
0100
0010
0000
,
0002
0000
0100
0000
,
1000
0000
0013
0000
,
2000
0000
0100
0000
,
0001
0000
3010
0000
,
0001
0000
0010
0000
,
0100
0000
1000
0000
,
1001
0000
0010
0000
,
0110
0000
0010
0000
,
2000
0000
0010
0000
,
0001
0000
3100
0000
,
0002
0000
0010
0000
,
1000
0000
0103
0000
,
1000
0000
0010
0000
,
0100
0000
0001
0000
,
1001
0000
0010
0000
,
0110
0000
0100
0000
,
0001
0000
0010
0000
,
0100
0000
0010
0000
,
0001
0010
0001
0000
,
0001
0100
0001
0000
,
1000
0000
0010
0000
,
0100
0000
0010
0000
,
1000
0010
1000
0000
,
1000
0100
1000
0000
,
0001
0000
0100
0000
,
0010
0000
1000
0000
,
0001
1000
0001
0000
,
0010
0100
0010
0000
,
0001
1000
0000
1001
,
0000
1000
0001
0000
,
0100
0000
0010
0000
,
1000
0000
0001
1000
,
0002
0000
0000
0023
0000
0000
0130
0000
,
2100
0000
0000
0000
3010
0000
1000
0001
,
2000
0000
3000
0020
0000
0000
1030
0000
,
1002
0000
0000
0023
0000
0000
0130
0000
,
1000
0000
0100
0010
0000
0000
0001
0000
,
0100
0010
0000
0010
0100
0000
0100
0000
,
0001
0000
0010
0100
0000
0000
1000
0000
,
0010
0100
0000
0100
0010
0000
0010
0000
,
2000
0000
0000
3200
0000
0000
0310
0000
,
0012
0000
0000
0000
1003
0000
0001
1000
,
0002
0000
0000
0203
0000
0000
0310
0000
,
2001
0000
0000
3020
0000
0000
0130
0000
,
0001
0000
0010
0001
0000
0100
0001
0000
,
0010
0001
0000
0100
0001
0000
0001
0000
,
1000
0000
0010
1000
0000
0100
1000
0000
,
0010
1000
0000
0100
1000
0000
1000
0000
,
1020
0000
0000
2030
3200
0000
0300
0000
,
0021
0000
0000
0032
0203
0000
0300
0000
,
2100
0000
0000
3001
0000
0000
0000
0000
0102
0000
0000
1003
0000
0000
0000
0000
,
1010
0000
0000
0011
0000
0000
2002
0000
0000
0000
0000
0000
3003
0000
0000
0000
,
0102
0000
0000
0023
0230
0000
0300
0000
,
2100
0000
0000
3020
0230
0000
0300
0000
,
0012
0000
0000
1003
0000
0000
0000
0000
2010
0000
0000
3001
0000
0000
0000
0000
,
0101
0000
0000
1100
0000
0000
1002
0000
0000
0000
0100
0000
0103
0000
0100
0001
,
2000
3000
0000
0000
0000
0000
0000
0000
0000
0000
0000
0000
0000
0000
0000
0000
2020
3030
0000
0000
0000
0000
0000
0000
0000
0000
0000
0000
0000
0000
0000
0000
,
0202
0303
0000
0000
0000
0000
0000
0000
0000
0000
0000
0000
0000
0000
0000
0000
0202
0303
0000
0000
0000
0000
0000
0000
0000
0000
0000
0000
0000
0000
0000
0000
,
0002
0003
0000
0000
0000
0000
0000
0000
0020
0030
0000
0000
0000
0000
0000
0000
0022
0033
0000
0000
0000
0000
0000
0000
0000
0000
0000
0000
0000
0000
0000
0000
,
0022
0033
0000
0000
0000
0000
0000
0000
0000
0000
0000
0000
0000
0000
0000
0000
2200
3300
0000
0000
0000
0000
0000
0000
0000
0000
0000
0000
0000
0000
0000
0000
,
2200
3300
0000
0000
0000
0000
0000
0000
0000
0000
0000
0000
0000
0000
0000
0000
1000
0000
0000
0000
0000
0000
0000
0000
0000
0000
0000
0000
0000
0000
0000
0000
,
0001
0000
1001
0000
,
0001
0001
0000
0010
,
0010
0000
0100
0100
,
0000
1000
1000
0000
,
0001
0000
1000
0000
,
0010
0100
0000
0010
,
1000
0000
0001
0000
,
0010
0100
0000
0010
,
0001
0000
1001
0000
;

//--------------- dance-single - Marten ----------------
#NOTES:
     dance-single:
     Marten:
     Medium:
     14:
     0,0,0,0,0:
0000
0000
0000
0000
,
0000
0000
0000
0000
,
0000
0000
0000
0000
,
0000
0000
0000
0000
,
0000
0000
0000
0000
,
0000
0000
0000
0000
,
1000
0000
0100
0001
0000
0100
1000
0000
,
0010
0000
0000
0000
0010
0000
0000
0000
0010
0000
0000
0100
0010
0000
0010
0000
,
1000
0100
1000
0001
,
0100
0001
1000
0100
,
1000
0001
0100
0001
,
1000
0010
0100
0100
,
0001
0010
0001
1000
,
0010
1000
0001
0010
,
0001
1000
0010
1000
,
0001
0100
0010
0010
,
1000
0100
1000
0001
,
0010
0001
1000
0100
,
1000
0001
0010
0001
,
1000
0100
0010
0010
,
0001
0100
0001
1000
,
0010
1000
0001
0100
,
0001
1000
0010
1000
,
0001
0010
0100
0100
,
2200
3300
0000
0000
0000
0000
0000
0000
0000
0000
0000
0000
0000
0000
0000
0000
2200
3300
0000
0000
0000
0000
0000
0000
0000
0000
0000
0000
0000
0000
0000
0000
,
0202
0303
0000
0000
0000
0000
0000
0000
0000
0000
0000
0000
0000
0000
0000
0000
0202
0303
0000
0000
0000
0000
0000
0000
0000
0000
0000
0000
0000
0000
0000
0000
,
2002
3003
0000
0000
0000
0000
0000
0000
0220
0330
0000
0000
0000
0000
0000
0000
2020
3030
0000
0000
0000
0000
0000
0000
0000
0000
0000
0000
0000
0000
0000
0000
,
2020
3030
0000
0000
0000
0000
0000
0000
0000
0000
0000
0000
0000
0000
0000
0000
0022
0033
0000
0000
0000
0000
0000
0000
0000
0000
0000
0000
0000
0000
0000
0000
,
0022
0033
0000
0000
0000
0000
0000
0000
0000
0000
0000
0000
0000
0000
0000
0000
2002
3003
0000
0000
0000
0000
0000
0000
0220
0330
0000
0000
0000
0000
0000
0000
,
0002
0003
0000
0000
0000
0000
0000
0000
0010
0000
0000
0000
0000
0000
0000
0000
0020
0030
0000
0000
0000
0000
0000
0000
1000
0000
0000
0000
0000
0000
0000
0000
,
2000
3000
0000
0000
0000
0000
0000
0000
0010
0000
0000
0000
0000
0000
0000
0000
0020
0030
0000
0000
0000
0000
0000
0000
0001
0000
0000
0000
0000
0000
0000
0000
,
1000
0100
0110
0000
,
2200
3300
0000
0000
0000
0000
0000
0000
0000
0000
0000
0000
0000
0000
0000
0000
0022
0033
0000
0000
0000
0000
0000
0000
0000
0000
0000
0000
0000
0000
0000
0000
,
1001
0000
0000
0000
0000
0000
0000
0000
0000
0000
0000
0000
0000
0000
0000
0000
0202
0303
0000
0000
0000
0000
0000
0000
0000
0000
0000
0000
0000
0000
0000
0000
,
2020
3030
0000
0000
0000
0000
0000
0000
0000
0000
0000
0000
0000
0000
0000
0000
1001
0000
0000
0000
0000
0000
0000
0000
0000
0000
0000
0000
0000
0000
0000
0000
,
1000
0100
0010
0100
,
1000
0001
0100
1000
,
0100
0001
1000
0100
,
0010
0001
0100
0100
,
0010
1000
0001
0010
,
0100
0010
0001
0100
,
1000
0100
0001
1000
,
0100
0010
0100
0100
,
1000
0010
0100
0001
,
0010
0100
1000
0010
,
0001
0010
1000
0001
,
0100
0010
0100
0100
,
0001
1000
0100
0010
,
0001
0010
1000
0010
,
0001
1000
0001
0010
,
0100
1000
0010
0010
,
1000
0100
0010
1000
,
0000
0010
0001
0000
,
0001
0100
0010
0001
,
0000
0010
1000
0000
,
0001
0010
0100
0001
,
0000
0100
1000
0000
,
1010
0000
1000
0001
,
0010
0000
0011
0000
,
0001
0010
0100
0001
,
0000
0100
1000
0000
,
1000
0010
0100
1000
,
0000
0100
0001
0000
,
1000
0100
0010
1000
,
0000
0010
0001
0000
,
0101
0000
0001
1000
,
0100
0000
1100
0000
,
1000
0100
0010
0100
,
1000
0010
0100
0010
,
1000
0100
0001
0100
,
1000
0010
1000
1000
,
0001
0100
0010
0100
,
0001
0010
0100
0010
,
0001
0100
1000
0100
,
0001
0010
0001
0001
,
1000
0100
0010
0001
,
0100
0010
1000
0010
,
0001
1000
0100
0001
,
0010
0100
1000
1000
,
0001
0101
0000
1100
,
0000
1001
1001
0000
,
1000
0001
0100
0010
,
1000
0100
0001
0100
,
1000
0100
1000
0020
0000
0000
0130
0000
,
0120
0000
0000
0000
1030
0001
0010
0010
,
0001
0100
0001
0020
0000
0000
0130
0000
,
2001
0000
0000
3010
0200
0000
0320
0000
,
1030
0100
1000
0010
0001
0010
1000
0100
,
1000
0010
0001
0010
1000
0100
0010
0000
,
0001
0100
0001
0010
1000
0010
0001
0100
,
0001
0010
1000
0010
0001
0100
0010
1000
,
0002
0000
0000
0013
0210
0000
2300
0000
,
3020
0000
0000
0130
0010
1000
0100
0100
,
2000
0000
0000
3010
0210
0000
0302
0000
,
0023
0000
0000
1030
0020
0000
0032
0000
,
1003
0100
0001
1000
0010
0001
1000
0100
,
0001
1000
0010
0001
1000
0010
0100
0000
,
0001
0100
1000
0001
0010
1000
0001
0100
,
1000
0001
0010
1000
0001
0010
0100
1000
,
0020
0000
0000
2030
0000
0000
3200
0000
2300
0000
0000
0000
3000
0000
1000
0001
,
0020
0000
0000
0032
0000
0000
0203
0000
0302
0000
0000
0000
1003
0000
0100
0000
,
0010
0100
1000
0002
0000
0000
0000
0103
0010
0100
0001
2000
0000
0000
3000
0000
,
1100
0000
0000
0101
0000
0000
2002
0000
0000
0000
3003
0000
0000
0000
1000
0001
,
0020
0000
0000
2030
0000
0000
3020
0000
0032
0000
0000
0000
0003
0000
0001
1000
,
0020
0000
0000
0032
0000
0000
0023
0000
2030
0000
0000
0000
3001
0000
0010
0000
,
0100
1000
0010
0200
0000
0000
0300
0010
0100
0001
0010
0200
0000
0000
0300
0000
,
0011
0000
0000
0000
0000
0000
1010
0000
0000
0000
0000
0000
1002
0000
0000
0000
0010
0000
0000
0000
0013
0000
0000
0000
0010
0000
0000
0100
0010
0000
0010
0000
,
0002
0003
0000
0000
0000
0000
0000
0000
0000
0000
0000
0000
0000
0000
0000
0000
0022
0033
0000
0000
0000
0000
0000
0000
0000
0000
0000
0000
0000
0000
0000
0000
,
2020
3030
0000
0000
0000
0000
0000
0000
0000
0000
0000
0000
0000
0000
0000
0000
2020
3030
0000
0000
0000
0000
0000
0000
0000
0000
0000
0000
0000
0000
0000
0000
,
2002
3003
0000
0000
0000
0000
0000
0000
0220
0330
0000
0000
0000
0000
0000
0000
2000
3000
0000
0000
0000
0000
0000
0000
0010
0000
0000
0000
0000
0000
0000
0000
,
0020
0030
0000
0000
0000
0000
0000
0000
0001
0000
0000
0000
0000
0000
0000
0000
0002
0003
0000
0000
0000
0000
0000
0000
0010
0000
0000
0000
0000
0000
0000
0000
,
0020
0030
0000
0000
0000
0000
0000
0000
1000
0000
0000
0000
0000
0000
0000
0000
0001
0000
0000
0000
0000
0000
0000
0000
0100
0000
0000
0000
0000
0000
0000
0000
,
0110
0000
0010
1000
,
0100
0001
0000
1000
,
0010
0001
0100
1000
,
0000
0001
0010
1000
,
0001
0000
1000
0100
,
0100
0001
0100
0100
,
1000
0001
1000
0010
,
0010
0001
0010
0010
,
1000
0001
1001
0000
;

//--------------- dance-single - Marten ----------------
#NOTES:
     dance-single:
     Marten:
     Hard:
     17:
     0,0,0,0,0:
0000
0000
0000
0000
,
0000
0000
0000
0000
,
0000
0000
0000
0000
,
0000
0000
0000
0000
,
0000
0000
0000
0000
,
0000
0000
0000
0000
,
1000
0010
1000
0001
0010
0001
0100
0010
,
0100
0000
0000
0000
0100
0000
0000
0000
0100
0000
0000
0010
0100
0000
0100
0000
,
0001
0100
0100
1000
,
0100
0100
0001
0100
,
0100
1000
0100
0100
,
0001
0010
0001
0000
0100
0010
0100
0001
,
1000
0010
0010
0001
,
0010
0010
1000
0010
,
0010
0001
0010
0010
,
1000
0100
1000
0000
0010
0100
0010
1000
,
0001
0100
0100
1000
,
0010
0010
0001
0100
,
0100
1000
0010
0010
,
0001
0100
0010
0000
1000
0100
0010
0001
,
1000
0100
0100
0001
,
0010
0010
1000
0100
,
0100
0001
0010
0010
,
1000
0010
0100
0000
0010
1000
0001
0000
,
0022
0033
0000
0000
0000
0000
0000
0000
0000
0000
0000
0000
0000
0000
0000
0000
2200
3300
0000
0000
0000
0000
0000
0000
0000
0000
0000
0000
0000
0000
0000
0000
,
2020
3030
0000
0000
0000
0000
0000
0000
0000
0000
0000
0000
0000
0000
0000
0000
0202
0303
0000
0000
0000
0000
0000
0000
0000
0000
0000
0000
0000
0000
0000
0000
,
0220
0330
0000
0000
0000
0000
0000
0000
2002
3003
0000
0000
0000
0000
0000
0000
2020
3030
0000
0000
0000
0000
0000
0000
0000
0000
0000
0000
0000
0000
0000
0000
,
0202
0303
0000
0000
0000
0000
0000
0000
0000
0000
0000
0000
0000
0000
0000
0000
0022
0033
0000
0000
0000
0000
0000
0000
0000
0000
0000
0000
0000
0000
0000
0000
,
2200
3300
0000
0000
0000
0000
0000
0000
0000
0000
0000
0000
0000
0000
0000
0000
0220
0330
0000
0000
0000
0000
0000
0000
2002
3003
0000
0000
0000
0000
0000
0000
,
2020
3030
0000
0000
0000
0000
0000
0000
0001
0000
0000
0000
0000
0000
0000
0000
0022
0033
0000
0000
0000
0000
0000
0000
1000
0000
0000
0000
0000
0000
0000
0000
,
2020
3030
0000
0000
0000
0000
0000
0000
0001
0000
0000
0000
0000
0000
0000
0000
0022
0033
0000
0000
0000
0000
0000
0000
1000
0000
0000
0000
0000
0000
0000
0000
,
1010
0000
0010
0000
0100
0001
1000
0000
,
2200
3300
0000
0000
0000
0000
0000
0000
0001
0000
0000
0000
0000
0000
0000
0000
0202
0303
0000
0000
0000
0000
0000
0000
0001
0000
0000
0000
0000
0000
0000
0000
,
0010
0000
0000
0000
0100
0000
0000
0000
1000
0000
0000
0000
0000
0000
0000
0000
2200
3300
0000
0000
0000
0000
0000
0000
0001
0000
0000
0000
0000
0000
0000
0000
,
0202
0303
0000
0000
0000
0000
0000
0000
0100
0000
0000
0000
0000
0000
0000
0000
0010
0000
0000
0000
1000
0000
0000
0000
0001
0000
0000
0000
0000
0000
0000
0000
,
1000
0000
0001
0010
0001
0000
1000
0000
,
0010
0000
0100
0001
0100
0000
0010
0000
,
1000
0000
0100
0010
0100
0000
1000
0000
,
0001
0100
0001
0000
1000
0010
1000
0010
,
0100
0000
0001
0010
0001
0000
1000
0000
,
0010
0000
0100
0001
0100
0000
0010
0000
,
1000
0000
0100
0010
0100
0000
1000
0000
,
0001
0010
0001
0000
1000
0100
1000
0100
,
0010
0000
0001
1000
0010
0000
1000
0000
,
0001
0000
0010
0001
1000
0000
0100
0000
,
1000
0000
0010
0100
0001
0000
0010
0000
,
0100
0010
0100
0000
1000
0001
1000
0001
,
0010
0000
0001
0100
0010
0000
1000
0000
,
0100
0000
1000
0010
0100
0000
0001
0000
,
0010
0000
0100
0010
0001
0000
0010
0000
,
0100
0000
1000
0010
0100
0000
0001
0000
,
1000
0100
0100
0010
,
0100
0100
1100
0000
,
0001
0100
0100
0010
,
0100
0100
0101
0000
,
1000
0010
0010
0100
,
0010
0010
1010
0000
,
0001
0010
0010
0100
,
0010
0010
0011
0001
,
1000
0100
0100
0001
,
0100
0000
0100
0000
1000
0010
0100
0000
,
0001
0100
0100
1000
,
0100
0000
0100
0000
0001
0010
0100
1000
,
0001
0010
0010
1000
,
0010
0000
0010
0000
0001
0100
0010
0000
,
1000
0010
0010
0001
,
0010
0000
0010
0000
1000
0010
0100
0001
,
1000
0000
0100
1000
0100
0000
0010
0000
,
0001
0000
0100
0001
0010
0000
1000
0000
,
0010
0000
0100
1000
0001
0000
0010
0000
,
0100
1000
0010
0100
0010
1000
0100
1000
,
0001
0000
0100
0001
0100
0000
0010
0000
,
1000
0000
0100
1000
0010
0000
0001
0000
,
0010
0000
0100
0001
1000
0000
0010
0000
,
0100
0001
0010
0100
0010
0001
0100
0001
,
1000
0000
0001
0100
0001
0000
0010
0000
,
0100
1000
0100
0000
1000
0000
0001
0010
,
0001
0000
0100
0000
0010
1000
0010
0000
,
0100
0001
1000
0000
0100
0010
0001
0100
,
0010
0100
0110
0100
,
0000
0001
1001
0000
,
1000
0010
0100
0001
,
1000
0001
1000
0001
0010
0100
0010
0100
,
1000
1000
1000
0010
1010
0000
0101
0000
,
0210
0000
0000
0000
0301
0010
1000
0010
,
0001
0001
0001
0010
0011
0000
0001
1000
,
2001
0000
0000
3020
0100
0000
0130
0000
,
0002
0100
1003
2000
0100
3001
0002
0100
,
1003
0000
2000
0000
0100
0000
3001
0000
1000
0010
1000
0010
0100
0001
0100
0001
,
2000
0010
3001
0002
0010
1003
2000
0010
,
3001
0000
0002
0000
0010
0000
1003
0000
0010
1000
0010
0000
0100
0000
0001
0000
,
0011
0000
0001
1000
1010
0000
0101
0000
,
2100
0000
0000
3010
0001
0010
1000
0010
,
2010
0000
0000
3001
0101
0000
1100
0000
,
0021
0000
0000
0130
0210
0000
1300
0000
,
0200
0010
1300
0020
0100
1030
0200
0010
,
1300
0000
0020
0000
0100
0000
1030
0000
0001
1000
0001
0000
0100
0010
1000
0001
,
0020
0100
0031
0200
0010
0301
0020
0100
,
0031
0200
0010
0301
1000
0000
0001
1000
,
2010
0000
0000
3020
0000
0000
0230
0000
0302
0000
0000
0000
0003
0000
1000
0001
,
0012
0000
0000
0023
0000
0000
0230
0000
2300
0000
0000
0000
3001
0000
1000
0000
,
1100
0100
0010
0002
0000
0000
0003
0000
0101
0100
0010
2000
0000
0000
3000
0000
,
1100
0000
0000
0101
0000
0000
2002
0000
0000
0000
0000
0000
3003
0000
0001
1000
,
1020
0000
0000
0230
0000
0000
2300
0000
3200
0000
0000
0000
0300
0000
0001
0010
,
0021
0000
0000
0230
0000
0000
0302
0000
0203
0000
0000
0000
1300
0000
0001
0000
,
0101
0001
1000
0020
0000
0000
0030
0000
1100
1000
0001
0020
0000
0000
0030
0000
,
0101
0000
0000
0000
0000
0000
1100
0000
0000
0000
0000
0000
2001
0000
0000
0000
0100
0000
0000
0000
3100
0000
0000
0000
0100
0000
0000
0010
0100
0000
0100
0000
,
2200
3300
0000
0000
0000
0000
0000
0000
0000
0000
0000
0000
0000
0000
0000
0000
0022
0033
0000
0000
0000
0000
0000
0000
0000
0000
0000
0000
0000
0000
0000
0000
,
0202
0303
0000
0000
0000
0000
0000
0000
0000
0000
0000
0000
0000
0000
0000
0000
2020
3030
0000
0000
0000
0000
0000
0000
0000
0000
0000
0000
0000
0000
0000
0000
,
2002
3003
0000
0000
0000
0000
0000
0000
0220
0330
0000
0000
0000
0000
0000
0000
2020
3030
0000
0000
0000
0000
0000
0000
0001
0000
0000
0000
0000
0000
0000
0000
,
0022
0033
0000
0000
0000
0000
0000
0000
1000
0000
0000
0000
0000
0000
0000
0000
2200
3300
0000
0000
0000
0000
0000
0000
0001
0000
0000
0000
0000
0000
0000
0000
,
0202
0303
0000
0000
0000
0000
0000
0000
1000
0000
0000
0000
0000
0000
0000
0000
1001
0000
0000
0000
0000
0000
0000
0000
0001
0000
0000
0000
0000
0000
0000
0000
,
1000
0010
0100
0000
0001
0100
0001
0100
,
0010
0000
1000
0100
1000
0100
0010
0000
,
0001
1000
0001
1000
0010
0000
1000
0001
,
1000
0001
0010
0000
0100
1000
0010
0000
,
0100
0001
0010
0001
1000
0100
1000
0100
,
0010
0001
0100
0001
0100
0001
0010
0001
,
0100
0010
1000
0100
0010
0001
0010
0001
,
0100
0010
1000
0010
1000
0010
0100
0001
,
0010
0100
1000
0010
0100
0000
0000
0000
;
