#TITLE:Bossa Gabba;
#SUBTITLE:;
#ARTIST:BEMANI Sound Team "ZAQUVA";
#TITLETRANSLIT:;
#SUBTITLETRANSLIT:;
#ARTISTTRANSLIT:;
#GENRE:;
#CREDIT:;
#MUSIC:Bossa Gabba.ogg;
#BANNER:Bossa Gabba.png;
#BACKGROUND:Bossa Gabba-bg.png;
#CDTITLE:;
#SAMPLESTART:58.237;
#SAMPLELENGTH:15.050;
#SELECTABLE:YES;
#OFFSET:-0.637;
#BPMS:0.000=200.000;
#STOPS:;
#BGCHANGES:;
#FGCHANGES:;

//--------------- dance-single - Marten ----------------
#NOTES:
     dance-single:
     Marten:
     Beginner:
     6:
     0,0,0,0,0:
0000
0000
0000
0000
,
0000
0000
0000
0000
,
0000
0000
0000
0000
,
0000
0000
0000
0000
,
0000
0000
0000
0000
,
0000
0000
0000
0000
,
0000
0000
0000
0000
,
0000
0000
0000
0000
,
1000
0000
0001
0000
,
0020
0000
0000
0030
,
0000
0100
0100
0000
,
1000
0001
2000
0000
,
3000
0010
0010
0000
,
0100
0000
0001
0000
,
1000
0000
0100
0100
,
0000
0200
0000
0300
,
1000
0000
0001
0000
,
0200
0000
0000
0300
,
0000
0100
0100
0000
,
0001
1000
0002
0000
,
0003
0010
0010
0000
,
0100
0000
0010
0000
,
0001
0000
1000
1000
,
0000
0020
0000
0030
,
1000
0000
0001
0000
,
1001
0000
0001
0000
,
0001
0000
0001
0000
,
1000
0000
1000
0000
,
1000
0000
1000
0000
,
0010
0010
0010
0000
,
0010
0010
0010
0000
,
1000
0000
0001
0000
,
0020
0000
0030
0000
,
0001
0001
0001
0001
,
0001
0001
0001
0000
,
1000
1000
1000
1000
,
1000
1000
1000
0000
,
0001
0001
0001
0001
,
0001
0001
0001
0000
,
0100
0000
0100
0000
,
0020
0000
0000
0030
,
1000
1000
1000
1000
,
0001
0001
0001
0000
,
0001
0001
0001
0001
,
1000
1000
1000
0000
,
1001
0000
0110
0000
,
1001
0000
0110
0000
,
0001
0001
1000
1000
,
0020
0000
0000
0030
,
1000
1000
0000
0100
,
0000
0010
0000
0001
,
0001
0001
0000
0100
,
0000
0010
0000
0100
,
0100
0100
0000
0001
,
0000
1000
0000
0100
,
0100
0100
0000
1000
,
0000
0001
0000
0010
,
0010
0010
0000
0001
,
0000
0100
0000
0010
,
0010
0010
0000
1000
,
0000
0100
0000
1000
,
1000
1000
0000
0010
,
0000
0100
0000
0001
,
0001
0001
0000
0010
,
0020
0030
0200
0300
,
1000
0000
1000
0000
,
0100
0000
0100
0000
,
0001
0000
0001
0000
,
0010
0000
0010
0000
,
1000
1000
1000
0000
,
0001
0001
0001
0000
,
0020
0000
0000
0030
,
0200
0300
0020
0030
,
0001
0001
1000
1000
,
0001
1000
0001
0000
,
1000
1000
0001
0001
,
1000
0001
1000
0000
,
0010
0010
0100
0100
,
0010
0100
0010
0000
,
0100
0100
0010
0010
,
0100
0010
0100
0000
,
0001
0001
0010
0010
,
0001
0010
0001
0000
,
1000
1000
0010
0010
,
1000
0010
1000
0000
,
0001
0001
0100
0100
,
0001
0100
0001
0000
,
1000
1000
0100
0100
,
1000
0100
1000
0000
,
0002
0000
0000
0003
,
2000
0000
3000
1001
,
0001
0100
0001
0000
,
1000
0100
1000
0000
,
0010
0010
0010
0010
,
0100
0100
0100
0100
,
0001
0001
1000
1000
,
0002
0003
2000
3000
,
1001
0000
0000
0000
;

//--------------- dance-single - Marten ----------------
#NOTES:
     dance-single:
     Marten:
     Easy:
     11:
     0,0,0,0,0:
0000
0000
0000
0000
,
0000
0000
0000
0000
,
0000
0000
0000
0000
,
0000
0000
0000
0000
,
0000
0000
0000
0000
,
0000
0000
0000
0000
,
0000
0000
0000
0000
,
0000
0000
0000
0000
,
2000
0000
3002
0000
,
0103
0000
0100
0000
0000
0001
0000
0010
,
0000
0010
0000
0000
0001
0000
1000
0000
,
0100
0000
0100
0000
0000
1000
0000
0010
,
0000
0010
0000
0000
0100
0000
0001
0000
,
1000
0000
1000
0000
0000
0100
0000
0010
,
0000
0100
0000
0000
1000
0000
1000
0000
,
0001
0000
0001
0000
0000
0100
0000
0010
,
0000
0100
0000
0000
0001
0000
0001
0000
,
1000
0000
0100
0000
1000
1000
0000
0001
,
0000
0000
0100
0010
,
1000
0000
0001
0000
0010
0010
0000
0001
,
0000
0100
0001
1000
,
0100
0000
0100
0000
1000
0000
0001
0100
,
0000
0100
0000
0100
0001
0000
1000
0000
,
0100
0000
0100
0000
1000
0000
0000
0010
,
0000
0010
0000
0010
0100
0000
0100
0000
,
0001
0100
1000
0100
,
0001
0100
1000
0100
,
0001
0010
1000
0010
,
0001
0010
1000
0010
,
0001
0001
1000
1000
,
0010
0010
0100
0100
,
0001
0010
0100
1000
,
0002
0000
1003
0000
,
2000
3000
0002
0003
0200
0300
0020
0030
,
2000
3000
0002
0003
0020
0030
0200
0300
,
2000
3000
0001
1000
0002
0003
0020
0030
,
0100
0010
0200
0300
2000
3000
0002
0003
,
2000
3000
0200
0300
0002
0003
2000
3000
,
0020
0030
0002
0003
0200
0300
0020
0030
,
0200
0300
0001
0000
0000
0100
0001
0000
,
0020
0000
0032
0000
,
0203
0300
0002
0003
0020
0030
2000
3000
,
0002
0003
0200
0300
1000
0001
2000
3000
,
0002
0003
0200
0300
0020
0030
2000
3000
,
0001
1000
0001
1000
0001
0000
1001
0000
,
0002
0003
0011
0000
0011
0000
1010
0000
,
1010
0110
0110
1001
,
2000
3000
0200
0300
0002
0003
0200
0300
,
2000
0000
3002
0000
,
1003
0000
0010
0000
1000
1000
0000
0100
,
0000
0001
0100
1000
,
0001
0000
0010
0000
0001
0001
0000
0100
,
0000
1000
0100
0001
,
1000
0000
0010
0000
0100
0000
0001
0010
,
0000
0010
0000
0010
0001
0000
1000
0000
,
0001
0000
0010
0000
0100
0000
1000
0010
,
0000
0010
0000
0010
1000
0000
0001
0000
,
1000
0000
0100
0000
0020
0000
0000
0100
,
0000
0100
0000
0000
0001
0000
0031
0000
,
0001
0000
0100
0000
0020
0000
0000
0100
,
0000
0100
0000
0000
1000
0000
1030
0000
,
0100
0000
0010
0000
0001
0000
1000
0001
,
0000
0001
0000
0001
1000
0000
0010
0000
,
0100
0010
1000
0001
,
0020
0000
0230
0000
,
1300
1000
1000
1000
,
1000
1000
1000
1000
,
0001
0001
0001
0001
,
0001
0001
0001
0001
,
1000
0100
0001
0100
,
1000
0010
0001
0010
,
1000
0000
0001
0000
1000
0001
1000
0001
,
2000
0000
3020
0000
,
2030
3000
2000
3000
0200
0300
0200
0300
,
0002
0003
0002
0003
0020
0030
0020
0030
,
1000
0001
2000
3000
0020
0030
0020
0030
,
0100
0010
0200
0300
0002
0003
0001
1000
,
0002
0003
0002
0003
0020
0030
0020
0030
,
0200
0300
0200
0300
2000
3000
2000
3000
,
0001
1000
0002
0003
2000
3000
2000
3000
,
0020
0000
0230
0000
,
0302
0003
0020
0030
2000
3000
0200
0300
,
2000
3000
0020
0030
0002
0003
2000
3000
,
2000
3000
0020
0030
0002
0003
0200
0300
,
0002
0003
0020
0030
2000
3000
0002
0003
,
0002
0003
0200
0300
2000
3000
0020
0030
,
2000
3000
0200
0300
0002
0003
0002
0003
,
2000
3000
0200
0300
0002
0003
0200
0300
,
2000
0000
3002
0000
,
0203
0000
0000
0000
,
0000
0000
0300
0000
0010
0100
0010
0000
,
1010
1010
1001
1001
,
0011
0011
1001
1001
,
0001
0100
0101
1001
,
1000
0100
1100
1001
,
0001
0010
0100
1000
,
0010
0100
0010
0000
1000
0001
1000
0000
,
1001
0000
0000
0000
;

//--------------- dance-single - Marten ----------------
#NOTES:
     dance-single:
     Marten:
     Medium:
     14:
     0,0,0,0,0:
0000
0000
0000
0000
,
0000
0000
0000
0000
,
0000
0000
0000
0000
,
0000
0000
0000
0000
,
0000
0000
0000
0000
,
0000
0000
0000
0000
,
0000
0000
0000
0000
,
0000
0000
0000
0000
,
0002
0000
2003
0000
,
3010
0000
0010
0000
1000
0100
0000
0010
,
0000
0010
0000
0001
0010
0000
0010
0000
,
0001
0000
0001
0000
1000
0010
0000
0100
,
0000
0100
0000
0001
1000
0000
1000
0000
,
0100
0000
0100
0000
1000
0001
0000
0010
,
0000
0010
0000
0001
0100
0000
0100
0000
,
0010
0000
0010
0000
1000
0001
0000
0010
,
0000
0010
0000
0001
1000
0000
1000
0000
,
0001
0000
0010
0000
0001
0100
0000
1000
,
0000
0100
0001
1000
,
0100
0000
1000
0000
0010
1000
0000
0001
,
0000
0010
0100
0010
0001
0000
0100
0010
,
1000
0000
1000
0000
0001
0010
0100
1000
,
0000
1000
0000
0001
0100
0000
0010
1000
,
0001
0000
0001
0000
1000
0100
0010
0001
,
0000
0001
0000
0001
0010
0000
0100
1000
,
0100
0100
0100
0100
,
0100
0100
0100
0100
,
0010
0100
0100
0100
,
0100
0100
0020
0032
,
1003
0010
1000
0010
0100
0001
0100
0001
,
0010
0001
0010
0001
1000
0100
1000
0100
,
1000
0010
0100
0001
0010
1000
0010
0001
,
2000
0000
0002
3003
,
0101
0101
1100
1100
,
0101
1100
0101
1100
,
1000
0010
0100
0001
0010
0000
0011
0000
,
0010
0001
0100
0000
0010
1000
0001
1000
,
0010
0100
1000
0100
0001
0000
0011
0000
,
0001
0010
0100
1000
0100
0000
1100
0000
,
1001
0000
0001
0000
0100
0010
0100
0010
,
2000
0100
3002
0010
,
1003
0100
0100
0010
0100
1000
0010
0100
,
1000
0100
0001
0010
0100
0010
0002
0000
,
1003
0100
0001
0100
1000
0001
0010
0100
,
1000
1000
0001
0001
0010
0010
0020
0030
,
1001
0000
0000
1000
0000
1000
0010
0000
0010
0100
0000
0100
,
0001
0000
1000
0100
0000
0010
0001
0000
1000
0010
0000
0000
,
0100
0000
0100
0000
0001
1000
0100
0000
0100
0000
0010
0001
,
2000
0010
3002
0100
,
1003
0000
0100
0000
0010
1000
0010
0001
,
0000
0100
0010
0100
0001
0000
1000
0000
,
0001
0000
0100
0000
0010
0001
0010
1000
,
0000
0100
0010
0100
1000
0000
0010
1000
,
0100
0000
0100
0000
0010
0001
0100
1000
,
0000
0100
0001
1000
0100
0000
0010
0001
,
1000
0000
1000
0000
0010
1000
0100
0001
,
0000
0100
1000
0001
0100
0000
0010
1000
,
0001
0000
0100
0001
1000
0010
0100
0020
,
0000
0001
0000
0100
0000
1030
0000
0001
,
1000
0000
0100
1000
0001
0010
0100
0020
,
0000
1000
0000
0031
0010
0000
0001
1000
,
0200
0000
0010
0000
1300
0010
0100
0020
,
0000
0031
0010
1000
,
0002
0000
0010
0000
0103
0001
1000
0200
,
0000
0001
2300
0010
,
3001
0001
0100
0100
,
1000
1000
0010
0010
,
0001
0100
1000
0010
,
0001
0100
1000
0010
,
0001
0100
0001
0100
1000
0100
1000
0100
,
0001
0010
0001
0010
1000
0010
1000
0010
,
0001
0100
0010
1000
0100
0001
0100
1000
,
0002
0000
2000
3003
,
1100
0101
1010
0011
,
0110
0000
1001
0000
1100
0000
0101
0001
,
1000
0000
1000
0000
1000
0000
0000
0001
0010
0000
0100
0000
0010
0000
0001
0000
,
0100
0000
0100
0000
0100
0000
0000
0000
0010
1000
0000
1000
0010
0000
0100
0000
,
0001
0000
0001
0000
0001
0000
0000
0010
0100
0000
0010
0000
0001
0000
1000
0000
,
0010
0100
1000
0100
0001
0010
0100
1000
,
0100
0001
0100
0010
0001
1000
0000
0100
,
1000
0010
0001
1000
0100
0001
0010
0000
,
0101
0000
0000
0000
1010
0000
0000
0000
1100
0000
0000
0000
0011
0000
0000
0001
,
1000
0100
1000
0010
0001
0010
1000
0001
,
0010
0010
1000
0010
0001
0000
0100
0001
,
0010
0000
0100
0000
0010
0000
0010
0000
0001
0100
0000
0100
0001
0000
1000
0000
,
0100
1000
0010
0001
1000
0100
0001
0010
,
1000
0001
0100
1000
0001
0100
0010
1000
,
0001
0000
0010
0000
0100
0000
0000
1000
0010
0000
0100
0000
0010
0000
1000
0000
,
0001
0001
0010
0010
0100
0100
1000
0000
,
1001
0000
0000
0000
,
0001
0100
1000
0100
0001
0010
0110
0000
,
0100
1000
0010
1000
0100
0001
0100
0010
,
0001
0100
0001
0010
0001
0100
1000
0100
,
0010
1000
0100
0010
1000
0010
0100
1000
,
0001
0100
0010
0001
0010
0100
0001
1000
,
0001
0100
1000
0100
0001
0010
0100
1000
,
0010
0010
1000
1000
0100
0100
0010
0001
,
1001
0000
0000
0000
;

//--------------- dance-single - Marten ----------------
#NOTES:
     dance-single:
     Marten:
     Hard:
     17:
     0,0,0,0,0:
0000
0000
0000
0000
,
0000
0000
0000
0000
,
0000
0000
0000
0000
,
0000
0000
0000
0000
,
0000
0000
0000
0000
,
0000
0000
0000
0000
,
0000
0000
0000
0000
,
0000
0000
0000
0000
,
0002
0000
2003
0000
,
3010
0000
1000
0000
0100
1000
0000
1100
,
0000
0101
0000
0001
0010
0000
0100
0000
,
0010
0000
0001
0000
0100
0001
0000
0101
,
0000
1100
0000
1000
0010
0000
0100
0000
,
0100
0000
0001
0000
0010
0001
0000
0011
,
0000
1010
0000
1000
0100
0000
0010
0000
,
0100
0000
1000
0000
0010
1000
0000
1010
,
0000
0011
0000
0001
0100
0000
0010
0000
,
1000
0000
0001
0000
0010
0001
0000
0101
,
0000
0001
1000
0000
0100
1000
0001
0000
,
1000
0000
1010
0000
0010
1000
0001
0010
,
0000
1000
0010
0001
0010
0000
0100
1000
,
0010
0000
0110
0000
0010
1000
0100
0001
,
0000
0101
0000
0100
1000
0000
0001
1000
,
0010
0000
1010
0000
1000
0001
0010
1000
,
0000
1010
0000
0010
0001
0000
1000
0001
,
0100
0000
0100
0000
0001
0010
0000
0011
,
0000
1010
0000
1000
0010
0000
0010
0000
,
1000
0000
0100
0000
1000
0010
0000
1010
,
0000
0011
0000
0010
0002
0000
2003
0000
,
3001
0100
0010
0100
0001
1000
0100
0010
,
0100
1000
0001
0100
0010
1000
0001
0010
,
0100
1000
0100
1000
0001
0100
0001
0100
0010
1000
0001
1000
0100
0010
0001
1000
,
0010
0000
0000
0000
0010
0000
0000
1000
0001
1000
0001
0000
0010
0000
0000
0000
,
0202
0303
2200
3300
0022
0033
2020
3030
,
0202
0000
0303
0000
0022
0000
0033
0000
2200
0000
3300
0000
1010
0000
0000
1000
,
0001
0000
0010
0000
0100
0000
0010
0000
0200
0000
0300
0000
1001
0000
0000
0001
,
0100
0000
0010
0000
0200
0000
0300
0000
0010
0000
1000
0100
1000
0000
0001
0000
,
1000
0000
0100
0000
0010
0000
0001
1000
0020
0000
0030
0000
0110
0000
0000
0100
,
0001
1000
0100
0010
0001
0000
1000
0000
0002
0000
0003
0000
1001
0000
0000
1000
,
0001
0100
1000
0100
0001
0010
0100
0000
,
1000
0100
0001
0100
1000
0001
1001
0000
,
1000
0000
0010
0000
1000
0000
0001
0010
0001
0000
1000
0000
0001
1000
0001
1000
,
0001
0000
0010
0000
0100
1000
0100
0000
1000
0000
0010
0100
0020
0000
0000
0000
,
1030
0001
1000
0001
0010
0000
0100
0010
0100
0000
1000
0000
0001
0000
0100
0001
,
1000
0000
0100
0010
0001
0000
0100
0010
1000
0000
0001
0000
0110
0000
0000
0000
,
2002
0000
0000
3003
0000
0000
0001
0000
0000
0000
0001
0000
0010
0000
0000
0000
0100
0000
1000
0000
0010
0000
0100
0000
,
0010
0000
1000
0000
0100
0000
0010
0000
0000
0000
0001
0000
1000
0000
0010
0000
1000
0000
0002
0000
0000
0003
0000
0000
,
0100
0000
0100
0000
0010
1000
0100
0000
0100
0010
0001
1000
,
0001
0100
1000
0100
0001
1000
1001
0000
,
0010
0000
1000
0000
0100
0000
1000
0010
1000
0000
0001
0000
0010
0000
0000
0000
,
0100
0000
1000
0000
0001
0000
0100
0001
0100
0000
0010
0000
1000
0000
0000
0000
,
0100
0000
0010
0000
0001
0000
0010
0100
0010
0000
0001
0000
1000
0000
0000
0000
,
0100
0000
1000
0000
0010
0000
1000
0001
1000
0000
0100
0000
0010
0000
0000
0000
,
0001
0000
0100
0000
0010
0000
0100
0001
0100
0000
0001
0000
0010
0000
0000
0000
,
0100
0000
1000
0000
0010
0000
1000
0100
1000
0000
0001
0000
0010
0000
0000
0000
,
0100
0000
1000
0000
0010
0000
1000
0001
1000
0000
0001
0000
0010
0000
0000
0000
,
0100
0000
0010
0000
0001
0000
0100
0010
0100
0000
0001
0000
1000
0000
0000
0000
,
0001
0000
0100
0000
0010
0000
1000
0001
0010
0000
0100
0000
0010
0000
0001
0000
,
1000
0000
0100
0000
1000
0000
0010
1000
0001
0000
0010
0000
0001
0000
0100
0000
,
0010
0000
1000
0000
0001
0000
0010
0001
1000
0000
0100
0000
1000
0000
0010
0000
,
0100
0000
0010
0000
1000
0000
0001
0100
0010
0000
1000
0000
0100
0000
1000
0000
,
0001
0000
0010
0000
0100
0000
0010
0001
0100
0000
0010
0000
0001
0000
0010
0000
,
1000
0000
0100
0000
1000
0000
0010
1000
0100
0000
0010
0000
1000
0000
0010
0000
,
0001
0000
1000
0000
0001
0000
0100
0001
0010
0000
0100
0000
0001
0000
0100
0000
,
1000
0000
0010
0000
1000
0000
0100
1000
0010
0000
0100
0000
1000
0000
0100
0000
,
0001
0001
0010
0010
,
1000
1000
0100
0100
,
1000
1000
0010
0010
,
0001
0001
0100
0100
,
0001
0100
0010
1000
0001
0010
1000
0010
,
0001
1000
0010
0001
0010
1000
0100
0010
,
0001
1000
0010
0100
0001
1000
0100
0010
0001
1000
0001
1000
0010
0100
0010
0100
,
0001
0000
0000
0000
0000
0000
0000
0000
0001
0010
0100
1000
0010
0000
0000
0000
,
1010
0000
0000
0000
0101
0000
0000
0001
0010
0000
0100
0000
1000
0000
0010
0000
,
1000
0000
0001
0000
0100
0010
0000
0000
0110
0000
0000
0100
0001
0000
0010
0100
,
1000
0000
0100
0000
0010
0000
0000
0010
0001
0000
1000
0000
0010
0000
0100
0000
,
0001
0000
0010
0000
0100
0000
0000
0000
0010
0001
0000
1000
0010
0000
1000
0001
,
0100
0000
0010
0000
0100
0000
0000
0001
0010
0000
0100
1000
0010
0000
1000
0001
,
0100
0000
0010
0000
0100
0000
0001
0010
0100
0010
0001
0000
1000
0000
0100
1000
,
0010
1000
0001
0000
0100
0010
1000
0000
0001
0010
0100
0000
0010
0000
0001
1000
,
0001
0100
0001
1000
0100
1000
0001
0010
0100
1000
0010
0100
0001
0000
1000
0000
,
0010
0000
1000
0000
0100
0000
0000
1000
0001
0000
0010
0000
0100
0000
0010
0001
,
1000
0000
0010
0000
0100
0010
1000
0000
0001
0010
0100
0000
1000
0000
0100
0010
,
0001
0000
1000
0000
0001
1000
0100
0010
0001
0000
0001
0000
0100
0000
0010
0000
,
0100
0000
0010
0000
1000
0010
0100
0000
0001
1000
0000
0001
1000
0000
0100
1000
,
0100
0000
0010
0001
0100
0000
0010
1000
0001
0000
0010
0001
1000
0000
0100
0010
,
0001
0000
1000
0010
0100
0000
0001
0010
0100
0000
1000
0100
0010
0000
0001
0100
,
0010
0000
0010
0000
0100
0000
0010
1000
0001
0000
0010
0100
1000
0000
0001
0000
,
1000
0100
1000
0100
0010
0001
0010
0001
1000
0010
0100
0001
0020
0000
0030
0000
,
2001
0000
0000
0000
,
3100
1000
0010
0100
0001
0010
1001
0000
,
1000
0000
0010
0000
0100
0000
0010
1000
0001
0000
0010
0100
1000
0000
0001
0100
,
0010
0100
0001
0010
0100
0000
1000
0001
0100
0001
0000
0010
0100
0000
1000
0000
,
0010
0000
1000
0100
0010
0000
0001
0100
0010
0000
1000
0100
0010
0000
0001
1000
,
0100
0000
0010
0001
0100
0000
0010
1000
0100
0000
0010
0001
0100
0000
0010
1000
,
0001
0010
0001
0100
0010
1000
0100
0000
1000
0001
0010
0100
0010
0001
1000
0000
,
0100
0010
0001
1000
0010
0100
0001
0010
0100
1000
0001
0100
0010
1000
0001
0010
,
0100
0000
0000
0000
;

//--------------- dance-single - Marten ----------------
#NOTES:
     dance-single:
     Marten:
     Challenge:
     18:
     0,0,0,0,0:
0000
0000
0000
0000
,
0000
0000
0000
0000
,
0000
0000
0000
0000
,
0000
0000
0000
0000
,
0000
0000
0000
0000
,
0000
0000
0000
0000
,
0000
0000
0000
0000
,
0000
0000
0000
0000
,
2000
0000
0002
3003
,
1000
0000
1000
0000
0000
1010
0000
0011
,
0000
1010
0000
0000
0010
0000
1000
0000
,
0001
0000
0001
0000
0000
0011
0000
1010
,
0000
0011
0000
0000
0001
0000
1000
0000
,
0100
0000
0100
0000
0000
1100
0000
0101
,
0000
1100
0000
0000
1000
0000
0001
0000
,
0100
0000
0100
0000
0000
0101
0000
1100
,
0000
0101
0000
0000
0001
0000
1000
0000
,
1001
0000
1000
0000
0001
0100
0000
0101
,
0000
0001
1000
0000
0100
0010
0001
0000
,
0100
0000
0010
0000
1000
0001
0000
0011
,
0000
0001
0001
1000
0010
0000
0100
0010
,
1000
0000
1010
0000
0010
1000
0100
0010
,
0000
0110
0000
0100
0010
0000
0100
1000
,
0010
0000
0110
0000
0010
1000
0001
0010
,
0000
0011
0000
0001
0010
0000
0100
1000
,
1020
0000
0100
0000
0001
0001
0000
1000
,
0000
0001
0000
0100
0100
0000
1030
0001
,
0020
0000
0100
0000
0100
0100
0000
1000
,
0000
0000
0001
0000
0031
0000
1000
0010
0200
0000
0000
0000
0310
0000
0000
0000
,
1010
0010
1000
0100
0001
0100
1000
0001
,
0011
0010
0001
0100
1000
0100
0001
1000
,
0010
1000
0001
1000
0100
0010
0001
1000
0001
0100
0010
1000
0100
0010
0001
1000
,
0010
0000
1000
0000
0010
0000
0100
0001
1000
0001
0010
0100
1000
0000
0000
0000
,
2200
3300
0202
0303
2020
3030
0022
0033
,
0220
0000
0330
0000
2002
0000
3003
0000
2200
0000
3300
0000
0101
0000
0000
0001
,
0010
0000
0001
0000
0100
0000
0010
0000
2020
0000
3030
0000
1100
0000
0000
1000
,
0100
0000
0010
0000
0022
0000
0033
0000
1001
0000
0001
1000
0100
0000
0010
0000
,
0100
0000
0100
0000
0100
0000
0010
0001
0100
0000
0000
0000
0110
0000
0000
0010
,
1000
0001
0010
0100
0010
0000
0010
0000
0110
0000
0000
0000
1001
0000
0000
1000
,
0001
0000
0100
0000
0010
0000
1000
0100
1000
0100
0010
0000
0100
0000
1000
0000
,
0001
0000
0100
0000
0010
0000
0100
0001
0100
0001
0010
0000
0200
0000
0300
0000
,
1001
0000
0001
0000
0010
0000
0001
0100
0010
0000
0010
0000
1000
0100
0010
0100
,
1000
0000
1000
0000
0001
0100
0010
0100
0001
0000
0010
0100
0020
0000
0000
0000
,
0031
0100
0010
1000
0100
0000
0010
0001
1000
0000
1000
0000
0010
0100
0010
1000
,
0001
0010
0100
1000
0001
0100
0010
1000
0100
0000
0100
0000
0110
0000
0000
0000
,
1001
0000
0000
1010
0000
1000
0010
0000
1000
0100
0100
0100
,
0010
0010
0010
0001
0000
0001
1000
0010
0100
0110
0000
0000
,
1010
0000
1100
0000
0010
0001
0101
0000
0001
0100
0100
0100
,
0001
0000
0010
0000
0100
0000
1000
0000
0001
1000
0010
0100
0020
0000
0000
0000
,
1030
0000
0100
0000
0010
0000
0001
0100
0010
0100
0001
0000
1000
0000
0100
1000
,
0001
0000
0100
0000
0010
0000
0100
0001
0010
0001
1000
0000
0100
0000
1000
0010
,
0100
0000
0010
0000
1000
0000
0001
0010
0100
1000
0100
0000
0010
0000
0001
0100
,
0010
0000
1000
0000
0010
0000
0100
0001
1000
0100
0010
0000
0001
0000
0000
0000
,
1000
0000
0010
0000
0100
0000
0010
1000
0001
1000
0010
0000
0100
0000
0010
1000
,
0001
0000
0010
0000
0100
0000
0010
0001
1000
0001
0100
0000
0010
0000
1000
0001
,
0100
0000
0010
0000
0100
0000
0001
0010
0100
0010
0001
0000
1000
0000
0100
1000
,
0010
0000
0100
0000
0010
0000
1000
0100
0010
0100
1000
0000
0001
0000
0000
0000
,
1000
0000
0100
0000
0010
0000
0100
0001
0100
0010
0001
0000
0100
0000
0020
0000
,
0031
0020
0130
0020
1030
0020
0031
0010
,
0100
0000
0100
0000
0010
0000
0100
1000
0100
0010
1000
0000
0100
0000
0020
0000
,
1030
0020
0130
0010
0010
0000
0011
0001
,
1000
0000
0010
0000
0100
0000
1000
0100
0010
0100
0010
0000
1000
0000
0100
0000
,
0010
0000
0010
0000
0100
0000
0001
0010
0100
0010
0100
0000
1000
0000
0001
0100
,
0010
0000
0010
0000
0100
0000
0010
1000
0100
0010
0100
0000
0010
0001
0100
0010
,
0200
0000
0020
0330
,
1000
1000
0100
0100
,
0001
0001
0010
0010
,
1000
1000
0100
0100
,
0001
0001
0010
0010
,
1001
0001
0010
0100
0001
0100
1000
0001
,
1001
1000
0010
0100
1000
0100
0001
1000
,
0001
0100
0010
1000
0100
0010
0001
1000
0010
0100
0010
1000
0001
0010
0100
0010
,
0001
0000
0100
0000
1000
0000
0100
0000
0001
0010
0100
1000
0001
0000
0000
0000
,
1001
0000
0000
0000
0101
0000
0000
0001
0010
0000
1000
0000
0010
0000
0100
1000
,
0001
0000
0100
0000
0010
0100
0000
0000
0110
0000
0000
0100
0001
0000
1000
0100
,
0001
0000
0100
0000
1100
0000
0000
1000
0010
0000
0100
0000
0110
0000
0000
0010
,
1000
0000
1100
0000
1001
0000
0000
0000
0001
0100
0000
0010
0100
0000
0001
0010
,
0100
0000
0110
0000
0011
0000
0000
0001
1000
0000
0010
1000
0100
0000
0010
0001
,
0100
0000
0100
0000
0010
1000
0001
0000
0010
0100
1000
0000
0100
0000
0001
0100
,
1000
0000
1000
0000
0010
0001
0010
1000
0001
1000
0010
0000
0100
0000
0001
0100
,
0010
1000
0100
1000
0010
0100
0001
0010
0100
0010
0001
1000
0010
0000
0100
0000
,
0110
0000
0010
0000
1010
0000
0000
0001
0010
0000
1000
0000
0010
0000
0001
0100
,
1000
0000
0001
0000
1000
0100
0001
1000
0100
0010
0100
0000
0010
0000
0100
1000
,
0010
0000
0100
0001
0010
0100
1000
0010
0100
0000
0100
0000
0101
0000
0001
0000
,
1001
0000
1000
0000
0010
0000
0010
0000
0001
0010
0000
1000
0100
0000
0010
0001
,
0100
0001
0010
0001
0100
0010
1000
0100
1000
0010
0100
0001
1000
0100
0010
0001
,
0100
0010
1000
0010
0100
0001
1000
0000
0100
0010
0000
0010
0100
0000
1000
0010
,
0100
0000
0010
0000
0110
0000
0000
0100
0001
0000
0010
0100
1000
0000
0001
1000
,
0010
1000
0001
0010
0001
0100
0010
0100
0001
0010
0100
1000
0100
0000
1000
0000
,
2001
0000
0000
0000
,
0000
0000
0000
3001
,
1000
0000
0000
0000
0000
0000
0100
0000
0000
0000
0000
0000
0010
0000
0000
0000
0000
0000
0001
0000
0100
0000
0001
0000
0100
0000
0000
0000
0000
0000
0010
0000
1000
0000
0010
0000
1000
0000
0000
0000
0000
0000
0010
0000
0000
1000
0000
0000
,
0001
0010
0000
1000
0010
0000
0001
0010
0100
0010
0001
0100
0010
1000
0100
0010
,
0100
0000
1000
0001
0010
0001
0100
0010
1000
0010
1000
0100
0010
0001
1000
0010
,
0100
0000
0000
0001
0000
0000
0100
0000
0000
0001
0000
0000
0010
0000
0000
0100
0000
0000
1000
0000
0100
0000
0010
0000
0001
0000
0000
0000
0000
0000
0100
0000
0010
0000
1000
0000
0001
0000
0000
0000
0000
0000
0010
0000
0100
0000
1000
0000
,
0001
0100
0010
1000
0010
0100
0001
0010
0100
1000
0100
0010
0001
1000
0010
0100
,
0001
0100
1000
0100
0010
0100
0001
0010
0100
1000
0100
0001
0100
0010
0001
1000
,
0010
0000
0000
0000
;
