#VERSION:0.83;
#TITLE:logicx-1.wav;
#SUBTITLE:;
#ARTIST:HYƘUKA & TBN (Kou!);
#TITLETRANSLIT:;
#SUBTITLETRANSLIT:;
#ARTISTTRANSLIT:;
#GENRE:;
#CREDIT:;
#MUSIC:song.ogg;
#BANNER:bn.png;
#BACKGROUND:bg-wide.png;
#CDTITLE:;
#SAMPLESTART:36.000000;
#SAMPLELENGTH:9.000000;
#SELECTABLE:YES;
#OFFSET:0.000000;
#BPMS:0.000000=160.000000;
#STOPS:;
#SPEEDS:0.000000=1.000000=0.000000=0;
#SCROLLS:0.000000=1.000000;
#TICKCOUNTS:0.000000=4;
#TIMESIGNATURES:0.000000=4=4;
#LABELS:0.000000=Song Start;
#COMBOS:0.000000=1;
#ORIGIN:;
#TAGS:;
#PREVIEWVID:;
#JACKET:;
#CDIMAGE:;
#DISCIMAGE:;
#BGCHANGES:;
#FGCHANGES:;

//--------------- dance-single - BR+ FS+ DS+ BU JA- ----------------
#NOTEDATA:;
#STEPSTYPE:dance-single;
#DESCRIPTION:BR+ FS+ DS+ BU JA-;
#DIFFICULTY:Challenge;
#METER:13;
#RADARVALUES:0.953722,1.290845,0.56338,0.71831,1.253521,948,868,80,102,65,0,10,0,0,0.953722,1.290845,0.56338,0.71831,1.253521,948,868,80,102,65,0,10,0,0;
#CHARTNAME:Reaper Media Folder;
#CHARTHASH:2815617630;
#BANNER:;
#CHARTSTYLE:;
#LASTSECONDHINT:141.000000;
#CREDIT:Maractus;
#NOTES:
0000
0000
0000
0000
,
0000
0000
0000
0000
,
0000
0000
0000
0000
,
0000
0000
0000
0000
,
1000
0000
0001
0000
0010
0000
0001
0000
1000
0000
1000
0020
0100
0000
1030
0000
,
0001
0000
1000
0000
0010
0000
1000
0000
0001
0000
0001
0020
0100
0000
0031
0000
,
1000
0000
0001
0000
0100
0000
0001
0000
1000
0000
1000
0200
0010
0000
1300
0000
,
0001
0000
1000
0000
0100
0000
1000
0000
0001
0000
0001
0200
0010
0000
0301
0000
,
1200
0000
0301
0010
0201
0000
1300
0000
0021
0000
1030
0001
0020
0000
0130
0000
,
2010
0000
3001
0100
0012
0000
1003
0000
0102
0000
1003
0001
0400
0000
0000
0000
,
0301
0000
0000
0010
0000
0000
0100
0000
0000
1000
0000
0000
0001
0000
0000
0100
0000
0000
0010
0000
0000
1000
0000
0000
0100
0000
0010
0000
0001
0000
1000
0000
0000
0010
0000
0000
0100
0000
0000
0001
0000
0000
1000
0000
0000
0010
0000
0000
,
1000
0002
0100
1000
0013
0000
0110
0000
,
1002
0000
0000
0000
0013
0000
0000
0000
0100
00M0
0100
0000
0100
0000
0100
0000
0001
0000
0000
0000
0001
0000
0100
0000
00M0
0000
0100
0000
1000
0000
0000
0000
,
2001
0000
0000
0000
3010
0000
0000
0000
0100
00M0
0100
0000
0100
0000
0100
0000
1000
0000
0000
0000
1000
0000
0100
0000
0040
0000
0000
0000
0000
0000
0030
0000
,
2001
0000
0000
0000
3010
0000
0000
0000
0100
00M0
0100
0000
0100
0000
0100
0000
1000
0000
0000
0000
1000
0000
0100
0000
00M0
0000
0100
0000
0001
0000
0000
0000
,
2001
0000
3010
0000
2100
0000
3010
0000
2001
0000
3100
0010
0002
0000
0000
0003
,
2001
0000
0000
0000
3010
0000
0000
0000
0100
00M0
0100
0000
0100
0000
0100
0000
1000
0000
0000
0000
1000
0000
0100
0000
00M0
0000
0100
0000
0001
0000
0000
0000
,
1002
0000
0000
0000
0013
0000
0000
0000
0100
00M0
0100
0000
0100
0000
0100
0000
0001
0000
0000
0000
0001
0000
0100
0000
0040
0000
0000
0000
0000
0000
0030
0000
,
1002
0000
0000
0000
0000
0000
0000
0000
0000
0000
0000
0000
0013
0000
0000
0000
0000
0000
0000
0000
0000
0000
0000
0000
0100
0000
0000
00M0
0000
0000
0100
0000
0000
0000
0000
0000
0001
0000
0000
0000
0100
0000
0000
0000
0010
0000
0000
0000
1100
0000
0000
0000
0000
0000
000M
0000
0000
0000
0000
0000
0100
0000
0000
0000
0000
0000
1010
0000
0000
0000
0000
0000
0000
0000
0000
0000
0000
0000
0010
0000
0000
0000
0000
0000
1100
0000
0000
0000
0000
0000
0000
0000
0000
0000
0000
0000
,
0001
0000
2000
0000
0100
0000
0001
0000
3010
0000
0000
0000
0200
0300
0020
0030
,
2002
3003
0000
0000
,
0000
0001
0001
0001
,
0001
0010
0100
1000
0001
0100
0010
1000
,
0001
0000
0000
1000
0000
0000
0100
0000
0000
0010
0000
0000
0001
0000
0000
1000
0000
0000
0001
0000
0000
0010
0000
0000
0200
0000
0000
0000
0000
0000
0000
0000
0300
0000
0000
0000
1000
0000
0001
0000
1000
0000
0100
0000
0010
0000
0001
0000
,
2000
0000
3010
0000
1000
0000
0200
00M0
0302
0100
0000
2003
0100
0000
3001
0000
,
2000
0000
3100
0000
1000
0000
0020
0M00
0032
0010
0000
2003
0010
0000
3001
0000
,
1002
0000
0013
0000
0001
0000
0200
00M0
2300
0100
0000
3002
0100
0000
1003
0000
,
0002
0000
0103
0000
0001
0000
0020
0M00
2030
0010
0000
3002
0010
0000
1003
0000
,
2001
0000
3100
0000
1000
0000
0020
0M00
0032
0010
0000
2003
0010
0000
3001
0000
,
2000
0000
3010
0000
1000
0000
0200
00M0
0302
0100
0000
2003
0100
0000
3001
0000
,
1002
0000
0013
0000
0101
M000
0100
0011
0000
0010
0101
0000
0100
0011
0000
0010
,
0101
0000
0100
0011
0000
0010
0101
0000
2000
3000
0002
0003
0200
0300
0020
0030
,
2001
0000
3010
0000
1100
000M
0100
1010
0000
0010
1100
0000
0100
1010
0000
0010
,
1100
0000
0000
0000
0000
0000
0001
0000
0000
0010
0000
0000
0100
0000
0000
1000
0000
0000
0001
0000
0000
0010
0000
0000
0001
0000
1000
0000
0010
0000
0100
0000
0000
0001
0000
0000
1000
0000
0000
0010
0000
0000
2000
0000
0000
3000
0000
0000
,
1002
0000
0103
0000
0011
M000
0010
0101
0000
0100
0011
0000
0010
0101
0000
0100
,
0011
0000
0000
0000
0000
0000
1000
0000
0000
0010
0000
0000
0100
0000
0000
0001
0000
0000
1000
0000
0000
0010
0000
0000
1000
0000
0000
0001
0000
0000
0010
0000
0000
0100
0000
0000
1000
0000
0000
0010
0000
0000
1000
0000
0100
0000
0010
0000
,
0002
0000
0000
0000
0000
0000
1003
0000
0000
0000
0000
0000
0001
0000
0000
0100
0000
0000
0010
0000
1000
0000
0001
0000
0010
0000
0000
0001
0000
0000
1000
0000
0000
0010
0000
0000
0100
0000
0000
0001
0000
0000
0010
0000
0001
0000
1000
0000
,
0010
0000
0000
1000
0000
0000
0100
0000
1000
0000
0001
0000
0100
0000
0000
0001
0000
0000
1000
0000
0000
0100
0000
0000
0010
0000
0001
0000
1000
0000
0001
0000
0000
0010
0000
0000
0100
0000
0000
1000
0000
0000
0010
0000
0000
1000
0000
0000
,
0011
0000
0000
0000
0000
0000
1100
0000
0000
0000
0000
0000
0011
0000
0000
0000
0000
0000
1100
0000
0000
0000
0000
0000
0001
0000
0000
1000
0000
0000
0010
0000
0000
0100
0000
0000
0001
0000
1000
0000
0001
0000
0010
0000
0100
0000
1000
0000
,
0002
0000
0000
0000
0103
00M0
0100
0000
1000
0000
0000
0000
1000
0000
0100
0000
00M0
0000
0100
0000
0001
0000
0000
0000
1100
0000
0000
0000
0000
0000
0000
0000
,
1001
0000
0000
0000
,
0000
0000
0000
0000
0000
0000
0000
1000
,
0100
0000
0000
0000
,
0000
0000
0000
0000
0000
1000
0010
0100
,
0001
0000
0000
0000
,
0000
0000
0000
0000
0000
0000
0000
1000
,
0100
0000
0000
0000
,
0010
0000
0001
0000
,
2000
0000
0010
0000
3001
0000
0001
0010
0M00
0010
1000
0000
0001
1000
0100
0000
,
0010
0001
0000
0001
0100
00M0
0100
1000
0001
0000
0010
0000
0100
M000
0100
0000
,
0002
0000
0010
0000
1003
0000
1000
0010
0M00
0010
0001
0000
1000
0001
0100
0000
,
0010
1000
0000
1000
0004
0000
0103
0001
1000
0000
0010
0000
0100
0000
0001
0000
,
2000
0000
0100
0000
3001
0000
0001
0100
00M0
0100
1000
0000
0001
1000
0010
0000
,
0100
0001
0000
0001
0010
0M00
0010
1000
0001
0000
0100
0000
0010
M000
0010
0000
,
0002
0000
0100
0000
2003
0000
0100
0000
3001
0000
0010
0000
0001
1000
0010
0100
,
0001
2000
0010
0001
3100
0000
1001
1000
,
0201
0000
1300
0010
1200
0000
0301
0000
1020
0000
0031
1000
0020
0000
0130
0000
,
0012
0000
1003
0100
2010
0000
3001
0000
2100
0000
3001
1000
0400
0000
0000
0000
,
1300
0000
0000
0010
0000
0000
0100
0000
0000
0001
0000
0000
1000
0000
0000
0100
0000
0000
0010
0000
0000
0001
0000
0000
0100
0000
0010
0000
1000
0000
0001
0000
0000
0010
0000
0000
0100
0000
0000
1000
0000
0000
0001
0000
0000
0010
0000
0000
,
0001
2000
0100
0001
3010
0000
0110
0000
,
1002
0013
0100
1000
0010
0100
0001
1000
,
0001
0000
0000
0000
0000
0000
0100
0000
0000
0000
0000
0000
0010
0000
0000
0000
0000
0000
1000
0000
0000
0000
0000
0000
0001
0000
0000
0000
0000
0000
0010
0000
0000
0000
0000
0000
0100
0000
0000
0000
0000
0000
1000
0000
0000
0000
0000
0000
0002
0000
0000
0000
0000
0000
0000
0000
0000
0000
0000
0000
0103
0000
0000
00M0
0000
0000
0100
0000
0000
0000
0000
0000
1000
0000
0000
0000
0000
0000
0001
0000
0000
0000
0000
0000
1000
0000
0000
0000
0010
0000
0000
0000
0100
0000
0000
0000
,
0012
0000
0000
0000
0000
0000
0000
0000
0103
0000
0010
0000
4000
0000
0000
0000
3010
0M00
0010
0000
0001
0000
1000
0000
0102
0000
0000
0000
0013
0000
0000
0000
,
0400
0000
0000
0000
M000
0000
0000
0000
0301
0000
0010
0M00
0010
0000
1000
0000
0001
0000
0100
0000
00M0
0000
0100
0000
1000
0000
0000
0000
0100
0000
0000
0000
,
2010
0000
0000
0000
0000
0000
0000
0000
3100
0000
0010
0000
0001
0000
1000
0000
0010
0M00
0010
0000
0001
0000
1000
0000
0100
00M0
0100
0000
0001
0000
1000
0000
,
0400
0000
0000
0000
00M0
0000
0000
0000
0301
0000
0010
0M00
0010
0000
1000
0000
0001
0000
0100
0000
00M0
0000
0100
0000
1000
0000
0000
0000
0100
0000
1000
0000
,
0102
0000
0000
0000
0000
0000
0000
0000
0000
0000
0000
0000
0000
0000
0000
0000
0000
0000
0000
0000
0000
0000
0000
0000
0013
0000
0000
0000
0000
0000
0100
0000
0000
0000
0000
0000
1000
0000
0000
0000
0000
0000
0001
0000
0000
0000
0000
0000
0100
0000
0000
000M
0000
0000
0100
0000
0000
0000
0000
0000
1000
0000
0000
0000
0001
0000
0000
0000
1000
0000
0000
0000
0010
0000
0000
0000
0000
0000
0000
0000
0000
0000
0000
0000
1000
0000
0000
0000
0000
0000
0000
0000
0000
0000
0000
0000
,
0040
0000
0000
0000
M000
0000
0000
0000
0031
0000
1000
0000
0010
0M00
0010
0000
0001
0000
0100
0000
00M0
0000
0100
0000
1000
0000
0000
0000
0010
0000
0000
0000
,
2100
0000
0000
0000
0000
0000
0000
0000
3010
0000
0100
0000
0001
0000
1000
0000
0100
M000
0100
0000
0001
0000
1000
0000
0011
0000
0000
0000
1000
0000
0001
0000
,
1100
000M
0100
1010
0000
0010
1100
0000
0100
1010
0000
0010
1100
0000
0011
0000
,
1000
0000
0000
0001
0000
0000
1000
0000
0100
0000
1000
0000
0001
0000
0000
0100
0000
0000
0001
0000
0000
0010
0000
0000
0100
0000
0000
1000
0000
0000
0001
0000
0000
0100
0000
0000
0001
0000
0000
1000
0000
0000
0100
0000
0000
0010
0000
0000
,
0002
0000
1003
0100
1000
0010
0100
0001
1000
0100
1000
0001
0100
0010
1000
0001
,
2000
0000
3001
0010
0001
0100
0010
1000
0001
0010
0001
1000
0010
0100
0001
1000
,
0200
0000
1300
0010
1000
0100
0010
0001
1000
0010
1000
0001
0010
0100
1000
0001
,
0010
0100
0010
0100
1000
0010
1000
0100
0010
0001
1000
0010
1000
0100
1000
0001
,
0020
0000
0031
0100
0001
0010
0100
1000
0001
0100
0001
0010
0001
1000
0001
0010
,
0100
1000
0001
0100
0011
M000
0010
0101
0000
0100
0011
0000
0010
0101
0000
0100
,
0011
0000
0000
0000
0000
0000
1100
0000
0000
0010
0000
0000
1000
0000
0000
0001
0000
0000
0010
0000
0000
0001
0000
0000
1000
0000
0000
0010
0000
0000
1000
0000
0001
0000
0100
0000
0002
0000
0000
0000
0000
0000
0203
0000
0000
0000
0000
0000
,
0320
2030
3002
0000
0100
2003
0000
3001
,
0010
0100
2000
0000
0100
3002
0000
0013
,
0100
0000
0000
0000
0000
0000
1000
0000
0000
0000
0000
0000
0001
0000
0000
0100
0000
0000
0010
0000
0000
1000
0000
0000
0001
0000
0000
0010
0000
0000
0001
0000
0000
1000
0000
0000
0010
0000
1000
0000
0001
0000
0010
0000
0000
0100
0000
0000
,
1000
0000
0000
0010
0000
0000
0100
0000
0000
0001
0000
0000
0010
0000
0000
0001
0000
0000
1000
0000
0000
0100
0000
0000
1000
0000
0000
0001
0000
0000
0100
0000
0001
0000
1000
0000
0100
0000
0000
1000
0000
0000
0010
0000
0000
0100
0000
0000
,
0001
1000
0001
0010
0100
1000
0002
0000
0000
0000
0000
0000
0010
0000
0000
2003
0000
0000
0000
0000
0000
3001
0000
0000
,
0100
0010
2000
0000
0010
3002
0000
0103
,
0010
0000
0000
0000
0000
0000
1000
0000
0000
0000
0000
0000
0001
0000
0000
0010
0000
0000
0100
0000
0000
1000
0000
0000
0001
0000
0000
0100
0000
0000
0001
0000
0000
1000
0000
0000
0100
0000
1000
0000
0001
0000
0100
0000
0000
0010
0000
0000
,
1000
0000
0000
0100
0000
0000
0010
0000
0000
0001
0000
0000
0100
0000
0001
0000
1000
0000
0100
0000
0000
1000
0000
0000
0010
0000
1000
0000
0001
0000
0010
0000
0000
0001
0000
0000
1000
0000
0001
0000
1000
0000
0100
0000
0000
0010
0000
0000
,
0001
1000
0001
0100
0010
1000
0001
0000
0000
0100
0000
0000
0010
0000
0000
1000
0000
0000
0010
0000
0000
0100
0000
0000
,
0002
0100
1003
0100
0010
0001
0010
0100
,
2000
0000
0000
0000
3001
0100
0010
1000
0001
0100
0001
1000
0100
0010
0001
1000
,
0001
0000
1000
0000
0100
0000
0010
0000
0001
0000
1000
0000
0004
0000
0000
0000
0000
0000
0000
0000
0000
0000
0000
0000
1003
0000
0000
0000
0000
0000
0001
0000
0000
1000
0000
0000
0100
0000
0000
00M0
0000
0000
0100
0000
0000
0001
0000
0000
,
2100
3000
0000
0000
;
