#VERSION:0.83;
#TITLE:VOICE;
#SUBTITLE:;
#ARTIST:KIRA feat. Hatsune Miku & GUMI;
#TITLETRANSLIT:;
#SUBTITLETRANSLIT:;
#ARTISTTRANSLIT:;
#GENRE:;
#CREDIT:;
#MUSIC:song.ogg;
#BANNER:bn.png;
#BACKGROUND:bg-wide.png;
#CDTITLE:;
#SAMPLESTART:44.493999;
#SAMPLELENGTH:21.476999;
#SELECTABLE:YES;
#OFFSET:0.466000;
#BPMS:0.000000=88.000000;
#STOPS:;
#SPEEDS:0.000000=1.000000=0.000000=0;
#SCROLLS:0.000000=1.000000;
#TICKCOUNTS:0.000000=4;
#TIMESIGNATURES:0.000000=4=4;
#LABELS:0.000000=Song Start;
#COMBOS:0.000000=1;
#ORIGIN:;
#PREVIEWVID:;
#JACKET:;
#CDIMAGE:;
#DISCIMAGE:bg.png;
#BGCHANGES:;
#FGCHANGES:;

//--------------- dance-single - XO+ FS+ DS JA BU- ----------------
#NOTEDATA:;
#STEPSTYPE:dance-single;
#DESCRIPTION:XO+ FS+ DS JA BU-;
#DIFFICULTY:Challenge;
#METER:9;
#RADARVALUES:0.521526,0.615668,0,0.410959,0.828767,533,533,0,60,58,0,2,0,0,0.521526,0.615668,0,0.410959,0.828767,533,533,0,60,58,0,2,0,0;
#CHARTNAME:The Yelling In My Head Won't Go...;
#CHARTSTYLE:;
#CREDIT:Maractus;
#NOTES:
0000
0000
0000
0000
,
0000
0000
0000
0000
,
0000
0000
0000
0000
,
0000
0000
0000
0000
,
0000
0000
0001
0000
0100
0000
0010
0000
2000
0000
0001
3000
0100
0000
0020
0000
,
0000
0030
0002
0000
1000
0003
0100
0000
0020
0000
0000
0030
1000
0000
0001
0000
,
0010
0000
0100
0000
2000
0000
0001
3000
0020
0000
0000
0030
0100
0000
0002
0000
,
1000
0003
0010
0000
0100
0000
2000
0000
0000
0000
0001
0000
3010
0000
0200
0000
,
0301
0000
0000
0000
0000
0000
0100
0000
0000
0010
0000
0000
1000
0000
0000
0100
0000
0000
0010
0000
0000
0001
0000
0000
1000
0000
0000
1000
0000
0000
0000
0000
0000
0000
0000
0000
0001
0000
0000
0000
0100
0000
0000
0000
1M00
0000
0000
0000
,
0001
0000
0000
0000
0010
0000
0000
0000
10M0
0000
0000
0000
0001
0000
0000
0000
0100
0000
0000
0000
1M00
0000
0000
0000
0100
0000
0000
0100
0000
0000
0000
0000
0000
0000
0000
0000
1000
0000
0000
0000
0100
0000
0000
0000
0M01
0000
0000
0000
,
1000
0000
0000
0000
0010
0000
0000
0000
00M1
0000
0000
0000
1000
0000
0000
0000
0100
0000
0000
0000
0M01
0000
0000
0000
0100
0000
0000
0100
0000
0000
0000
0000
0000
0000
0000
0000
0002
0000
0000
0000
0000
0000
0000
0000
0000
0000
0000
0000
,
0023
0000
0000
0000
0000
0000
0000
0000
0000
0000
0000
0000
0230
0000
0000
1000
0000
0000
0000
0000
0000
1300
0000
0000
1000
0000
0000
0000
0010
0000
0000
0000
00M1
0000
0000
0000
0020
0000
0000
0000
0000
0000
0030
0000
0000
0001
0000
0000
,
0010
0000
0000
0010
0000
0000
0000
0000
0000
0000
0000
0000
0200
0000
0000
0000
0000
0000
0000
0000
0000
0300
0000
0000
1000
0000
0000
1000
0000
0000
0020
0000
0000
0000
0000
0000
1030
0000
0000
0000
0100
0000
0000
0000
0M01
0000
0000
0000
,
1000
0000
0000
0000
0010
0000
0000
0000
00M1
0000
0000
0000
1000
0000
0000
0000
0100
0000
0000
0000
0M01
0000
0000
0000
0100
0000
0000
0100
0000
0000
0000
0000
0000
0001
0000
0000
1000
0000
0000
0000
0010
0000
0000
0000
00M1
0000
0000
0000
,
1000
0000
0000
0000
0100
0000
0000
0000
0M01
0000
0000
0000
1000
0000
0000
0000
0010
0000
0000
0000
00M1
0000
0000
0000
0010
0000
0000
0010
0000
0000
0000
0000
0000
0000
0000
0000
0100
0000
0000
0000
0000
0000
0000
0000
0000
0000
0000
0000
,
0000
0000
0000
0000
1000
0010
0000
0010
2000
0000
0000
0000
3200
0000
0000
0000
,
0320
0000
0000
0000
0032
0000
0000
0000
1003
0001
0100
1000
0100
0010
1000
0000
,
0010
0M00
0010
0000
0100
0000
1000
0000
0020
0000
0000
0000
0130
0000
0000
0000
0001
0000
0100
0000
1000
0000
0100
0000
0010
0000
0M00
0000
0010
0000
0100
0000
,
1000
0010
0001
0010
2000
0000
3100
0000
1000
0001
0010
1000
0010
0100
1000
0000
,
0100
00M0
0100
0000
0010
0000
1000
0000
0200
0000
0000
0000
0310
0000
0000
0000
0002
0000
0000
0000
1000
0000
0000
0000
0203
0000
0000
0000
0310
0000
1000
0000
,
0200
0000
0310
0001
0100
00M0
0100
0000
0010
0000
0001
0010
0001
0100
0010
M000
,
0010
0100
1000
0010
0100
000M
0100
0000
1000
0000
0001
0100
0001
0010
0100
M000
,
0100
0010
1000
0100
0010
000M
0010
0000
1000
0000
0001
0010
0001
0100
0010
M000
,
0010
0000
0100
0000
1000
0000
0010
0000
0200
0000
0000
0000
0302
0000
0000
0000
0013
0M00
0010
0000
0100
0000
1000
0000
0100
0000
0001
0000
0100
00M0
0100
0000
,
0010
0000
1000
0000
0010
0000
0001
0000
0010
0000
0100
0000
1000
0000
0000
0000
0010
0000
0000
0000
1000
0100
4000
0000
3001
0000
0000
0000
0000
0000
0010
0000
,
0100
0000
1000
0000
0001
0000
1000
0001
0100
000M
0100
1000
0001
1000
0010
0100
,
0001
0010
1000
0010
0200
0000
2300
0000
3001
0000
1000
0000
0200
0000
0300
1000
,
0010
0100
0001
2000
0000
3000
0001
0010
0100
0000
1000
0000
0010
0000
0100
0000
,
0010
0000
1000
0100
0010
0000
0001
0000
0200
0000
0301
0000
0020
0000
0000
0130
,
2000
0000
0000
3010
0200
0000
0301
1000
0200
0000
1300
0001
0200
0000
0000
0301
,
0010
0M00
0010
1000
0100
0000
0010
0000
0001
0000
0100
0000
0020
0000
0000
1030
,
0100
0010
0100
0002
0000
0000
0103
1000
0001
0000
1000
0010
0001
0010
0100
0001
,
2000
0000
0000
0000
0000
0000
3200
0000
0000
0000
0000
0000
0320
0000
0000
0000
0000
0000
0031
0000
0000
0100
0000
0000
0040
0000
0000
0000
0000
0000
0000
0000
0000
0030
0000
0000
1000
0000
0000
0000
0010
0000
0000
0000
00M1
0000
0000
0000
,
1000
0000
0000
0000
0100
0000
0000
0000
0M01
0000
0000
0000
1000
0000
0000
0000
0010
0000
0000
0000
00M1
0000
0000
0000
0010
0000
0000
0010
0000
0000
0000
0000
0000
0000
0000
0000
0001
0000
0000
0000
0010
0000
0000
0000
10M0
0000
0000
0000
,
0001
0000
0000
0000
0000
0000
0000
0000
0100
0000
0000
0000
0000
0000
0000
0000
1M00
0000
0000
0000
0000
0000
0000
0000
0001
0000
0000
0000
0000
0000
0100
0000
0000
0000
0000
0000
0010
0000
0000
0000
0000
0000
0100
0000
0000
0000
0000
0000
0001
0000
0000
0000
0000
0000
1000
0000
0000
0000
0000
0000
0100
0000
0000
0000
0000
0000
1000
0000
0000
0000
0000
0000
0001
0000
0000
0000
0000
0000
0100
0000
0000
0000
0000
0000
0010
0000
0000
0000
0000
0000
1000
0000
0000
0001
0000
0000
,
1000
0100
0010
0001
1000
0010
0100
0010
1000
0001
0100
0001
1000
0100
0010
0001
,
0100
0000
0000
0010
0000
0000
0010
0000
0000
0010
0000
0000
1000
0000
0000
0100
0000
0000
0010
0000
0000
0001
0000
0000
1000
0000
0000
0000
0000
0000
0020
0000
0000
0000
0000
0000
1030
0000
0000
0000
0100
0000
0000
0000
0M01
0000
0000
0000
,
1000
0000
0000
0000
0010
0000
0000
0000
00M1
0000
0000
0000
1000
0000
0000
0000
0100
0000
0000
0000
0M01
0000
0000
0000
0100
0000
0000
0100
0000
0000
0000
0000
0000
0001
0000
0000
1000
0000
0000
0000
0100
0000
0000
0000
0M01
0000
0000
0000
,
1000
0000
0010
0000
00M1
0000
1000
0000
0100
0000
0M01
0000
2000
0000
0000
0000
0000
0000
0000
0000
0000
0002
0000
0000
,
0000
0000
3003
0000
0000
0000
0000
0000
0001
0100
0010
1000
0100
0010
0001
1000
,
0020
0000
0000
0000
0230
0000
0000
0000
0301
1000
0100
0001
0100
0010
0001
0000
,
0010
0M00
0010
0000
0100
0000
0001
0000
0020
0000
0000
0000
0130
0000
0000
0000
1000
0000
0100
0000
0001
0000
0100
0000
0010
0000
0M00
0000
0010
0000
0100
0000
,
0001
0010
1000
0010
0002
0000
0103
0000
0001
1000
0010
0001
0010
0100
0001
0000
,
0100
00M0
0100
0000
0010
0000
0001
0000
0200
0000
0000
0000
0310
0000
0000
0000
2000
0000
0000
0000
0001
0000
0000
0000
3200
0000
0000
0000
0310
0000
0001
0000
,
0200
0000
0310
1000
0100
00M0
0100
0000
0010
0000
1000
0010
1000
0100
0010
000M
,
0010
0100
0001
0010
0100
M000
0100
0000
0001
0000
1000
0100
1000
0010
0100
000M
,
0100
0010
0001
0100
0010
M000
0010
0000
0001
0000
1000
0010
1000
0100
0010
000M
,
0010
0100
0001
0010
2000
0000
3002
0000
0203
0000
1300
0010
0200
0000
0301
0010
,
0200
0000
1300
0010
0200
0000
0301
0010
0100
M000
0100
0010
1000
0010
0002
0000
,
1003
0000
0100
0000
0001
0000
0100
00M0
0100
0000
1000
0000
0010
0M00
0010
0000
0001
0000
0000
0000
1000
0000
0010
0000
0100
0000
0001
0000
0010
0000
0001
0000
,
1000
0100
1000
0010
0100
0000
0100
0000
0001
0000
1000
0100
0010
M000
0010
0100
,
1000
0000
0100
0000
0001
0000
0010
0M00
0010
0000
1000
0000
0100
00M0
0100
0000
0010
0M00
0010
0000
0001
0000
0010
0000
1000
0000
0010
0000
0100
00M0
0100
0000
,
0010
1000
0010
0001
0010
0100
0001
0010
M000
0000
M000
0000
M000
0000
M000
0000
;

//--------------- dance-single - Tournament Beta Version ----------------
#NOTEDATA:;
#STEPSTYPE:dance-single;
#DESCRIPTION:Tournament Beta Version;
#DIFFICULTY:Edit;
#METER:9;
#RADARVALUES:0.521526,0.615668,0,0.410959,0.828767,533,533,0,60,58,0,2,0,0,0.521526,0.615668,0,0.410959,0.828767,533,533,0,60,58,0,2,0,0;
#CHARTNAME:XO+ FS+ DS JA BU-;
#CHARTSTYLE:;
#CREDIT:Maractus;
#NOTES:
0000
0000
0000
0000
,
0000
0000
0000
0000
,
0000
0000
0000
0000
,
0000
0000
0000
0000
,
0000
0000
0001
0000
0100
0000
0010
0000
2000
0000
0001
3000
0100
0000
0020
0000
,
0000
0030
0002
0000
1000
0003
0100
0000
0020
0000
0000
0030
1000
0000
0001
0000
,
0010
0000
0100
0000
2000
0000
0001
3000
0020
0000
0000
0030
0100
0000
0002
0000
,
1000
0003
0010
0000
0100
0000
2000
0000
0000
0000
0001
0000
3010
0000
0200
0000
,
0301
0000
0000
0000
0000
0000
0100
0000
0000
0010
0000
0000
1000
0000
0000
0100
0000
0000
0010
0000
0000
0001
0000
0000
1000
0000
0000
1000
0000
0000
0000
0000
0000
0000
0000
0000
0001
0000
0000
0000
0100
0000
0000
0000
1M00
0000
0000
0000
,
0001
0000
0000
0000
0010
0000
0000
0000
10M0
0000
0000
0000
0001
0000
0000
0000
0100
0000
0000
0000
1M00
0000
0000
0000
0100
0000
0000
0100
0000
0000
0000
0000
0000
0000
0000
0000
1000
0000
0000
0000
0100
0000
0000
0000
0M01
0000
0000
0000
,
1000
0000
0000
0000
0010
0000
0000
0000
00M1
0000
0000
0000
1000
0000
0000
0000
0100
0000
0000
0000
0M01
0000
0000
0000
0100
0000
0000
0100
0000
0000
0000
0000
0000
0000
0000
0000
0002
0000
0000
0000
0000
0000
0000
0000
0000
0000
0000
0000
,
0023
0000
0000
0000
0000
0000
0000
0000
0000
0000
0000
0000
0230
0000
0000
1000
0000
0000
0000
0000
0000
1300
0000
0000
1000
0000
0000
0000
0010
0000
0000
0000
00M1
0000
0000
0000
0020
0000
0000
0000
0000
0000
0030
0000
0000
0001
0000
0000
,
0010
0000
0000
0010
0000
0000
0000
0000
0000
0000
0000
0000
0200
0000
0000
0000
0000
0000
0000
0000
0000
0300
0000
0000
1000
0000
0000
1000
0000
0000
0020
0000
0000
0000
0000
0000
1030
0000
0000
0000
0100
0000
0000
0000
0M01
0000
0000
0000
,
1000
0000
0000
0000
0010
0000
0000
0000
00M1
0000
0000
0000
1000
0000
0000
0000
0100
0000
0000
0000
0M01
0000
0000
0000
0100
0000
0000
0100
0000
0000
0000
0000
0000
0001
0000
0000
1000
0000
0000
0000
0010
0000
0000
0000
00M1
0000
0000
0000
,
1000
0000
0000
0000
0100
0000
0000
0000
0M01
0000
0000
0000
1000
0000
0000
0000
0010
0000
0000
0000
00M1
0000
0000
0000
0010
0000
0000
0010
0000
0000
0000
0000
0000
0000
0000
0000
0100
0000
0000
0000
0000
0000
0000
0000
0000
0000
0000
0000
,
0000
0000
0000
0000
1000
0010
0000
0010
2000
0000
0000
0000
3200
0000
0000
0000
,
0320
0000
0000
0000
0032
0000
0000
0000
1003
0001
0100
1000
0100
0010
1000
0000
,
0010
0M00
0010
0000
0100
0000
1000
0000
0020
0000
0000
0000
0130
0000
0000
0000
0001
0000
0100
0000
1000
0000
0100
0000
0010
0000
0M00
0000
0010
0000
0100
0000
,
1000
0010
0001
0010
2000
0000
3100
0000
1000
0001
0010
1000
0010
0100
1000
0000
,
0100
00M0
0100
0000
0010
0000
1000
0000
0200
0000
0000
0000
0310
0000
0000
0000
0002
0000
0000
0000
1000
0000
0003
0000
0200
0000
0000
0000
0310
0000
1000
0000
,
0200
0000
0310
0001
0100
00M0
0100
0000
0010
0000
0001
0010
0001
0100
0010
M000
,
0010
0100
1000
0010
0100
000M
0100
0000
0010
0000
0001
0100
0001
0010
0100
M000
,
0100
0010
1000
0100
0010
000M
0010
0000
1000
0000
0001
0010
0001
0100
0010
M000
,
0010
0000
0100
0000
1000
0000
0010
0000
0200
0000
0000
0000
0302
0000
0000
0000
0013
0M00
0010
0000
0100
0000
1000
0000
0100
0000
0001
0000
0100
00M0
0100
0000
,
0010
0000
1000
0000
0010
0000
0001
0000
0010
0000
0100
0000
1000
0000
0000
0000
0010
0000
0000
0000
1000
0100
4000
0000
3001
0000
0000
0000
0000
0000
0010
0000
,
0100
0000
1000
0000
0001
0000
1000
0010
0100
000M
0100
0010
0001
1000
0010
0100
,
0001
0010
1000
0010
0200
0000
2300
0000
3001
0000
1000
0000
0200
0000
0300
1000
,
0010
0100
0001
2000
0000
3000
0001
0010
0100
0000
1000
0000
0010
0000
0100
0000
,
0010
0000
1000
0100
0010
0000
0001
0000
0200
0000
0301
0000
0020
0000
0000
0130
,
2000
0000
0000
3010
0200
0000
0301
1000
0200
0000
1300
0001
0200
0000
0000
0301
,
0010
0M00
0010
1000
0100
0000
0010
0000
0001
0000
0100
0000
0020
0000
0000
1030
,
0100
0010
0100
0002
0000
0000
0103
1000
0001
0000
1000
0010
0001
0010
0100
0001
,
2000
0000
0000
0000
0000
0000
3200
0000
0000
0000
0000
0000
0320
0000
0000
0000
0000
0000
0031
0000
0000
0100
0000
0000
0040
0000
0000
0000
0000
0000
0000
0000
0000
0030
0000
0000
1000
0000
0000
0000
0010
0000
0000
0000
00M1
0000
0000
0000
,
1000
0000
0000
0000
0100
0000
0000
0000
0M01
0000
0000
0000
1000
0000
0000
0000
0010
0000
0000
0000
00M1
0000
0000
0000
0010
0000
0000
0010
0000
0000
0000
0000
0000
0000
0000
0000
0001
0000
0000
0000
0010
0000
0000
0000
10M0
0000
0000
0000
,
0001
0000
0000
0000
0000
0000
0000
0000
0100
0000
0000
0000
0000
0000
0000
0000
1M00
0000
0000
0000
0000
0000
0000
0000
0001
0000
0000
0000
0000
0000
0100
0000
0000
0000
0000
0000
0010
0000
0000
0000
0000
0000
0100
0000
0000
0000
0000
0000
0001
0000
0000
0000
0000
0000
1000
0000
0000
0000
0000
0000
0100
0000
0000
0000
0000
0000
1000
0000
0000
0000
0000
0000
0001
0000
0000
0000
0000
0000
0100
0000
0000
0000
0000
0000
0010
0000
0000
0000
0000
0000
1000
0000
0000
0001
0000
0000
,
1000
0100
0010
0001
1000
0010
0100
0010
1000
0001
0100
0001
1000
0100
0010
0001
,
0100
0000
0000
0010
0000
0000
0010
0000
0000
0010
0000
0000
1000
0000
0000
0100
0000
0000
0010
0000
0000
0001
0000
0000
1000
0000
0000
0000
0000
0000
0020
0000
0000
0000
0000
0000
1030
0000
0000
0000
0100
0000
0000
0000
0M01
0000
0000
0000
,
1000
0000
0000
0000
0010
0000
0000
0000
00M1
0000
0000
0000
1000
0000
0000
0000
0100
0000
0000
0000
0M01
0000
0000
0000
0100
0000
0000
0100
0000
0000
0000
0000
0000
0001
0000
0000
1000
0000
0000
0000
0100
0000
0000
0000
0M01
0000
0000
0000
,
1000
0000
0010
0000
00M1
0000
1000
0000
0100
0000
0M01
0000
2000
0000
0000
0000
0000
0000
0000
0000
0000
0002
0000
0000
,
0000
0000
3003
0000
0000
0000
0000
0000
0001
0100
0010
1000
0100
0010
0001
1000
,
0020
0000
0000
0000
0230
0000
0000
0000
0301
1000
0100
0001
0100
0010
0001
0000
,
0010
0M00
0010
0000
0100
0000
0001
0000
0020
0000
0000
0000
0130
0000
0000
0000
1000
0000
0100
0000
0001
0000
0100
0000
0010
0000
0M00
0000
0010
0000
0100
0000
,
0001
0010
1000
0010
0002
0000
0103
0000
0001
1000
0010
0001
0010
0100
0001
0000
,
0100
00M0
0100
0000
0010
0000
0001
0000
0200
0000
0000
0000
0310
0000
0000
0000
2000
0000
0000
0000
0001
0000
3000
0000
0200
0000
0000
0000
0310
0000
0001
0000
,
0200
0000
0310
1000
0100
00M0
0100
0000
0010
0000
1000
0010
1000
0100
0010
000M
,
0010
0100
0001
0010
0100
M000
0100
0000
0001
0000
1000
0100
1000
0010
0100
000M
,
0100
0010
0001
0100
0010
M000
0010
0000
0001
0000
1000
0010
1000
0100
0010
000M
,
0010
0100
0001
0010
2000
0000
3002
0000
0203
0000
1300
0010
0200
0000
0301
0010
,
0200
0000
1300
0010
0200
0000
0301
0010
0100
M000
0100
0010
1000
0010
0002
0000
,
1003
0000
0100
0000
0001
0000
0100
00M0
0100
0000
1000
0000
0010
0M00
0010
0000
0001
0000
0000
0000
1000
0000
0010
0000
0100
0000
0001
0000
0010
0000
0001
0000
,
1000
0100
1000
0010
0100
0000
0100
0000
0001
0000
1000
0100
0010
M000
0010
0100
,
1000
0000
0100
0000
0001
0000
0010
0M00
0010
0000
1000
0000
0100
00M0
0100
0000
0010
0M00
0010
0000
0001
0000
0010
0000
1000
0000
0010
0000
0100
00M0
0100
0000
,
1000
0100
0001
0010
0100
1000
0010
0100
M000
0000
M000
0000
M000
0000
M000
0000
;
