#TITLE:Under Our Spell;
#SUBTITLE:;
#ARTIST:"The Dazzlings";
#TITLETRANSLIT:;
#SUBTITLETRANSLIT:;
#ARTISTTRANSLIT:;
#GENRE:;
#CREDIT:;
#MUSIC:song.ogg;
#BANNER:bn.png;
#BACKGROUND:bg.png;
#CDTITLE:;
#SAMPLESTART:42.060;
#SAMPLELENGTH:15.000;
#SELECTABLE:YES;
#OFFSET:-0.576;
#BPMS:0.000=104.000;
#STOPS:;
#BGCHANGES:;
#FGCHANGES:;

//--------------- dance-single - Maractus (BT+ DS XO JA FS BU-) ----------------
#NOTES:
     dance-single:
     Maractus (BT+ DS XO JA FS BU-):
     Challenge:
     9:
     0.511419,0.563336,0.205846,0.331144,0.335619,400,377,23,37,12,0,0.511419,0.563336,0.205846,0.331144,0.335619,400,377,23,37,12,0:
0000
0000
0000
0000
,
0000
0000
0000
0000
,
0000
0000
0000
0000
,
0000
0000
0000
0000
,
2000
0000
0000
3000
0100
0000
0010
0000
0001
0000
1000
0000
0020
0000
0000
0000
,
0130
0002
0100
2003
0100
3001
1000
0100
,
0040
4030
3010
0100
1000
0010
0100
0002
,
0000
0003
0200
0000
0010
0000
1000
0300
0020
0000
0000
0030
0200
0000
0000
0300
,
1000
0100
0001
1000
0100
0010
0001
0100
,
0010
0000
0000
0000
0200
0000
0000
0000
0010
0000
0000
0000
1000
0000
0000
0000
0001
1000
0000
0000
0010
0000
0000
0000
1000
0000
0000
0000
0300
0000
0000
0000
,
0001
0000
1000
0000
0010
0000
1000
0000
0100
00M0
0100
0000
0001
0000
1000
0000
,
0100
00M0
0100
0000
0001
0000
0010
0000
0001
0000
1000
0000
0010
0000
1000
0000
,
0100
00M0
0100
0000
0001
0000
1000
0000
1001
0000
0001
0000
0010
0000
0100
0000
,
2000
0000
0100
0000
3002
0000
0100
0000
2003
0000
0010
0000
3002
0000
0010
0003
,
1001
0000
0000
0000
0001
0000
0000
0000
0100
0000
0000
0000
0010
0000
0000
0000
1000
0000
0100
00M0
0100
0000
0001
0000
0100
0000
0000
0000
1M00
0000
0000
0000
,
0010
0000
0M00
0000
0010
0000
0000
0000
0001
0000
0000
0000
1000
0000
0000
0000
0001
0000
0100
00M0
0100
0000
1000
0000
0100
0000
0000
0000
0M01
0000
0000
0000
,
0010
0000
0M00
0000
0010
0000
0000
0000
1000
0000
0000
0000
0001
0000
0000
0000
1000
0000
0100
00M0
0100
0000
0001
0000
0100
00M0
0100
0000
1000
0000
0000
0000
,
0101
1010
0100
1010
0001
1000
1001
1000
,
0001
0000
1020
0000
0001
1000
0100
1000
0031
0000
1200
0000
0001
1000
0010
1000
,
0301
0100
0100
0010
0001
0010
1000
0001
,
1000
0000
0021
0000
1000
0001
0100
0001
1030
0000
0201
0000
1000
0001
0010
0001
,
1300
0100
0100
0010
1000
0010
0001
1000
,
0001
1000
0010
0001
1000
0100
0001
2000
,
0000
3000
0200
1000
0000
0010
0001
0310
,
0001
1000
0001
0100
1000
0001
0010
2000
,
0000
3000
0020
0000
1000
0000
0001
0000
0100
0000
0001
0000
1030
0000
0000
0000
,
0001
0100
0001
1000
0100
1000
0010
0100
0001
1000
0010
1000
0001
0010
0001
0100
,
0010
1000
0020
1000
0000
0100
0001
0130
,
0001
1000
0100
0010
0001
0100
0010
1000
,
0001
0000
0010
0000
0001
0000
0100
0000
0010
0000
1000
0001
1000
0000
0100
0000
0010
0000
2002
0000
0000
3003
0000
0000
,
1000
0000
0001
0000
0010
0000
0001
0000
0100
00M0
0100
0000
1000
0000
0001
0000
,
0100
00M0
0100
0000
1000
0000
0010
0000
1000
0000
0001
0000
0010
0000
0001
0000
,
0100
00M0
0100
0000
1000
0000
0001
0000
1001
0000
1000
0000
0010
0000
0100
0000
,
0002
0000
0100
0000
2003
0000
0100
0000
3002
0000
0010
0000
2003
0000
0010
3000
,
1001
0000
0000
0000
1000
0000
0000
0000
0100
0000
0000
0000
0010
0000
0000
0000
0001
0000
0100
00M0
0100
0000
1000
0000
0100
0000
0000
0000
0M01
0000
0000
0000
,
0010
0000
0M00
0000
0010
0000
0000
0000
1000
0000
0000
0000
0001
0000
0000
0000
1000
0000
0100
00M0
0100
0000
0001
0000
0100
0000
0000
0000
1M00
0000
0000
0000
,
0010
0000
0M00
0000
0010
0000
0000
0000
0001
0000
0000
0000
1000
0000
0000
0000
0001
0000
0100
00M0
0100
0000
1000
0000
0100
00M0
0100
0000
0001
0000
0000
0000
,
2100
0000
3001
1000
0010
0100
1001
0001
,
1000
0000
0021
0000
1000
0001
0100
0001
1030
0000
0201
0000
1000
0001
0010
0001
,
1300
0100
0100
0010
1000
0010
0001
1000
,
0001
0000
1020
0000
0001
1000
0100
1000
0031
0000
1200
0000
0001
1000
0010
1000
,
0301
0100
0100
0010
0001
0010
1000
0001
,
1000
0000
0201
0000
1000
0001
0010
0001
1300
0000
0021
0000
1000
0001
0100
0001
,
1030
0010
0010
0100
1000
0100
0001
1000
,
0001
0000
1200
0000
0001
1000
0010
1000
0301
0000
1020
0000
0001
1000
0100
1000
,
0031
0010
0010
0100
0001
0100
1000
0000
,
0000
0002
0000
0000
0000
0000
0000
0000
0000
0000
0003
0000
0000
0000
0000
0000
;
