#TITLE:safe_state;
#SUBTITLE:;
#ARTIST:Seo;
#TITLETRANSLIT:;
#SUBTITLETRANSLIT:;
#ARTISTTRANSLIT:;
#GENRE:;
#CREDIT:;
#BANNER:Safe_State-jacket.png;
#BACKGROUND:Safe_State-bg.png;
#LYRICSPATH:;
#CDTITLE:;
#MUSIC:safe_state.ogg;
#OFFSET:-0.019;
#SAMPLESTART:12.000;
#SAMPLELENGTH:12.000;
#SELECTABLE:YES;
#BPMS:0.000=160.073;
#STOPS:;
#BGCHANGES:0.000=Safe_State.avi=1.000=0=0=0=StretchNoLoop====,
99999=-nosongbg-=1.000=0=0=0 // don't automatically add -songbackground-
;
#KEYSOUNDS:;

//---------------dance-single - 4-Ish Cross Overs, DS----------------
#NOTES:
     dance-single:
     4-Ish Cross Overs, DS:
     Challenge:
     16:
     0.880,0.934,0.021,0.240,0.929:
0000
0000
0000
0000
,
0000
0000
0000
0000
,
0000
0000
0000
0000
,
0000
0000
0000
0000
,
0000
0000
0000
0000
,
0000
0000
0000
0000
,
0000
0000
0000
0000
,
0000
0000
0000
0000
,
1000
0000
0000
0100
0000
0000
1000
0000
0001
0100
0010
0000
1000
0100
0010
0001
,
1000
0000
0000
0001
0010
0001
0100
0010
0100
0010
0100
0010
1000
0000
0001
0100
,
0001
0000
0000
0010
0000
0000
0001
0000
1000
0100
0010
0000
0001
0100
0010
1000
,
0001
0000
0000
1000
0010
1000
0001
0000
0001
0010
0000
0010
0100
0000
1000
0100
,
1000
0000
0000
0010
0000
0000
1000
0000
0001
0010
0100
0000
1000
0010
0100
0001
,
1000
0000
0000
0001
0100
0001
0010
0100
0010
0100
0010
0100
1000
0000
0001
0010
,
0001
0000
0000
0100
0000
0000
0001
0000
1000
0010
0100
0000
0001
0010
0100
1000
,
0001
0000
0000
1000
0010
1000
0001
0000
0001
0100
0000
0100
0010
0000
1000
0100
,
0010
0000
0001
0100
0010
0000
1000
0000
0001
0010
0100
0010
0001
0000
1000
0000
,
0010
0000
1000
0100
0010
0000
0001
1000
0010
0100
0010
0100
0001
0000
1000
0010
,
0100
0000
0001
0010
0100
0000
1000
0000
0001
0100
0010
0100
0001
0000
1000
0000
,
0100
0000
1000
0010
0100
0001
0010
0100
1000
0010
0100
0001
1000
0000
0001
0100
,
0010
0000
1000
0100
0010
0000
0001
0000
1000
0010
0100
0010
1000
0000
0001
0000
,
0010
0000
0001
0100
0010
0000
1000
0001
0010
0100
0010
0100
1000
0000
0001
0010
,
0100
0000
1000
0010
0100
0000
0001
0000
1000
0100
0010
0100
1000
0000
0001
0000
,
0100
0000
0001
0010
0100
1000
0010
0100
0001
0010
0100
1000
0001
0000
1000
0000
,
0001
0000
0000
0000
1000
0000
0000
0000
0001
0000
0000
0000
0010
0000
0000
0100
0000
0000
0010
0000
0000
0100
0000
0000
1000
0000
0000
0001
0000
0000
1000
0000
0000
0000
0000
0000
0000
0000
0000
0100
0000
0000
0010
0000
0000
0000
0000
0000
,
0100
0000
0000
1000
0000
0000
0001
0000
1000
0010
1000
0000
0001
0010
0001
0000
,
1000
0000
0000
0100
0000
0000
1000
0000
0000
0001
1000
0000
0001
0100
0010
0100
,
0001
0000
0000
1000
0100
0010
0001
0000
0001
0010
0000
0010
0100
1000
0010
0100
,
0001
0000
0000
0100
0000
0000
0001
0000
1000
0100
1000
0000
0001
0100
0001
0000
,
1000
0000
0000
0100
0000
0000
1000
0000
0001
0010
0001
0000
1000
0010
1000
0000
,
0001
0000
0000
1000
0000
0000
0001
0000
1000
0100
0010
0001
0100
0010
1000
0001
,
0100
0000
0000
0101
0000
0000
1000
0000
0000
1100
0000
0000
0001
0000
1000
0000
,
0001
0000
0001
0010
0000
0000
0100
0000
1000
0000
1000
0010
0000
0000
0100
0000
,
0001
0000
0001
1000
0000
0000
0010
0000
0100
0000
0001
0000
1000
0100
0010
0001
,
1000
0001
0010
1000
0010
0001
0000
2000
,
3000
0000
0001
0000
1000
0000
0100
0000
0001
0000
0100
0000
1000
0010
0100
0001
,
1000
0000
1000
0100
0000
0000
0010
0000
0001
0000
0001
0100
0000
0000
0010
0000
,
1000
0000
1000
0001
0000
0000
0010
0000
0100
0000
0000
0000
1000
0010
0100
0001
,
1000
0000
0001
0010
0100
1000
0001
0010
0002
0000
1003
0010
0100
0001
2000
0000
,
0000
0000
3001
0010
0100
1000
0001
0100
0001
1000
0010
0100
0001
0000
1000
0000
,
0001
0000
0100
0010
0100
0000
0001
0000
1000
0000
0100
0010
0100
0000
1000
0000
,
0001
0000
0010
0100
1000
0000
0001
0000
1000
0000
0100
0000
0010
0000
0100
0000
,
1000
0010
0100
0001
0010
0100
0010
0001
,
0100
0010
1000
0100
0010
0001
0100
0010
,
1000
0000
0010
0100
0010
0000
1000
0000
0001
0000
0010
0100
0010
0000
0001
0000
,
1000
0000
0010
0100
0001
0000
1000
0000
0010
0000
0100
0000
0001
0000
0010
0000
,
0100
0000
1000
0010
0000
0010
1000
0100
0010
0000
0001
0000
0100
0000
0010
0000
,
1000
0010
1000
0010
0100
0001
0100
0001
0010
0001
0010
0100
1000
0100
1000
0001
,
2000
0000
0000
0010
0000
0000
0001
0000
3020
0000
0000
0100
0000
0000
1000
0000
,
0230
0000
0000
0001
0000
0000
0010
0000
0302
0000
0000
1000
0000
0000
0010
0000
,
2003
0000
0000
0100
0000
0000
0001
0000
3200
0000
0000
0010
0000
0000
1000
0000
,
0320
0000
0000
0001
0000
0000
0100
0000
0032
0000
0000
0100
0000
0000
1000
0000
,
0203
0000
0000
0010
0000
0000
0001
0000
0320
0000
0000
1000
0000
0000
0100
0000
,
2030
0000
0000
0001
0000
0000
0100
0000
3002
0000
0000
0010
0000
0000
1000
0000
,
0023
0000
0000
0100
0000
0000
0001
0000
0230
0000
0000
1000
0000
0000
0010
0000
,
2300
0000
0000
0010
0000
0000
0001
0000
3020
0000
0000
0100
0000
0000
1000
0000
,
0230
0000
0000
0001
0000
0000
0010
0000
0302
0000
0000
0010
0000
0000
1000
0000
,
0023
0000
0000
0100
0000
0000
1000
0000
0230
0000
0000
1000
0000
0000
0010
0000
,
2300
0000
0000
0001
0000
0000
0100
0000
3002
0000
0000
0100
0000
0000
1000
0000
,
0203
0000
0000
0010
0000
0000
1000
0000
0320
0000
0000
1000
0000
0000
0100
0000
,
1030
0100
0010
0001
,
1000
0010
0100
0001
,
0010
0100
1000
0001
0100
0010
1000
0001
,
1000
0100
0010
0100
1000
0010
0100
0001
0010
0100
0010
0001
0100
0010
1000
0001
,
1000
0000
0001
0100
0010
0100
0001
0010
0100
0000
1000
0010
0100
0010
1000
0100
,
0010
0000
0001
0010
0100
0010
0001
0100
0010
0000
1000
0100
0010
0100
1000
0010
,
0100
0000
0001
0100
0001
1000
0100
0010
0001
0000
1000
0010
1000
0001
0100
0010
,
1000
0000
0001
0010
0001
1000
0010
0100
0001
0000
1000
0100
1000
0001
0010
0100
,
1000
0000
0010
0100
0001
0010
0100
0010
0001
0000
0100
0010
1000
0100
0010
0100
,
1000
0000
0100
0010
0001
0100
0010
0100
0001
0000
0010
0100
1000
0010
0100
0010
,
1000
0000
0001
0100
0010
1000
0001
0100
0001
0000
1000
0100
0010
0001
1000
0010
,
1000
0000
0001
0010
0100
1000
0001
0010
0001
0000
1000
0010
0100
0001
1000
0100
,
1000
0000
0100
0010
0001
0000
1000
0000
0001
0000
0100
0010
1000
0000
0001
0000
,
1000
0000
0100
0010
0001
0000
1000
0000
0001
0000
0010
0100
1000
0000
0010
0000
,
1000
0000
0100
0010
0100
0000
1000
0000
0001
0000
0100
0010
0100
0000
0001
0000
,
1000
0000
0010
0100
0010
0000
1000
0000
0001
0000
0010
0100
0010
0000
0001
0000
,
1000
0000
0010
0100
0001
0000
1000
0000
0001
0000
0010
0100
1000
0000
0001
0000
,
1000
0000
0010
0100
0001
0000
1000
0000
0001
0000
0010
0100
1000
0000
0010
0000
,
1000
0000
0100
0010
0100
0000
1000
0000
0001
0000
0100
0010
0100
0000
0001
0000
,
1000
0100
1000
0100
0010
0001
0010
0001
0100
0001
0100
0010
1000
0010
1000
0001
,
1000
0000
0010
0100
0010
0000
1000
0000
0001
0000
0010
0100
0010
0000
0001
0000
,
1000
0000
0100
0010
0001
0000
1000
0000
0001
0000
0100
0010
1000
0000
0001
0000
,
1000
0000
0100
0010
0100
0000
1000
0000
0001
0000
0100
0010
0100
0000
0001
0000
,
1000
0000
0010
0100
0001
0000
1000
0000
0001
0000
0010
0100
1000
0000
0001
0000
,
1000
0010
0100
0001
1000
0100
0010
0001
,
0100
0010
1000
0001
0010
0100
1000
0001
,
1000
0010
0100
0010
1000
0100
0010
0001
0100
0010
0100
0001
0010
0100
1000
0001
,
1000
0000
0000
1010
0000
0000
0001
0000
0010
0000
0100
0000
1000
0000
0010
0000
,
0100
0002
0000
0010
0000
0100
0000
0013
,
2000
0100
0000
3010
0002
0100
0000
0010
,
2003
0100
0000
3002
0000
0013
2000
3100
,
0002
0010
0000
0100
0000
0013
0001
0100
,
0010
0000
0010
1000
0000
0000
0001
0000
1000
0000
1000
0100
0000
0000
0010
0000
,
0001
0000
0001
0100
0000
0000
0010
0000
1000
0000
1000
0100
0000
0000
0010
0000
,
0001
0000
0001
0010
0000
0000
0100
0000
1000
0000
1000
0010
0000
0000
0100
0000
,
0001
0000
0001
0100
0000
0000
0010
0000
1000
0000
1000
0001
0000
0000
0010
0000
,
0100
0000
0010
0100
1000
0001
2000
0000
0000
0000
0000
0000
0000
0000
0000
0000
,
0000
3000
0000
0000
;
