#TITLE:STARGATE EXTREME;
#SUBTITLE:;
#ARTIST:KARUT;
#TITLETRANSLIT:;
#SUBTITLETRANSLIT:;
#ARTISTTRANSLIT:;
#GENRE:;
#CREDIT:;
#MUSIC:song.ogg;
#BANNER:bn.png;
#BACKGROUND:bg.png;
#CDTITLE:;
#SAMPLESTART:40.118;
#SAMPLELENGTH:12.000;
#SELECTABLE:YES;
#OFFSET:-0.101;
#BPMS:0.000=150.000;
#STOPS:;
#BGCHANGES:;
#FGCHANGES:;

//--------------- dance-single - Maractus (BR+ FS+ DS SS JA- XO- BU-) ----------------
#NOTES:
     dance-single:
     Maractus (BR+ FS+ DS SS JA- XO- BU-):
     Challenge:
     13:
     0.967903,1.220129,0.578878,0.277209,1.952695,831,760,71,34,132,2,0.967903,1.220129,0.578878,0.277209,1.952695,831,760,71,34,132,2:
0000
0000
0000
0000
,
0000
0000
0000
0000
,
0000
0000
0000
0000
,
0000
0000
0000
0000
,
0001
0000
0000
1000
0001
0000
0010
0000
0001
0000
0000
0000
0001
0000
0000
0000
,
1000
0000
0000
0010
1000
0000
0001
0000
1000
0000
0000
0000
1000
0000
0000
0000
,
0010
0000
0000
0100
0010
0000
1000
0000
0010
0000
0000
0000
0010
0000
0000
0000
,
1001
0000
0000
0000
,
1000
0000
0100
00M0
0100
0000
0001
0000
0100
00M0
0100
0000
1000
0000
0001
0000
0010
0000
1000
0000
0M00
0000
1000
0000
0100
00M0
0100
0000
0100
0000
0100
0000
,
0001
0000
0100
00M0
0100
0000
1000
0000
0100
00M0
0100
0000
0001
0000
1000
0000
0010
0000
0001
0000
0M00
0000
0001
0000
0100
00M0
0100
0000
0100
0000
0100
0000
,
1000
0000
0010
0M00
0010
0000
0001
0000
0010
0M00
0010
0000
1000
0000
0001
0000
0100
0000
1000
0000
00M0
0000
1000
0000
0010
0M00
0010
0000
0010
0000
0010
0000
,
0001
0000
0100
M000
0100
0000
1000
0000
0001
0000
0010
0M00
0010
0000
1000
0000
0101
0000
1010
0000
0000
0000
2002
0000
3003
0000
1000
0000
0100
00M0
0100
0000
,
0001
0000
0100
00M0
0100
0000
1000
0000
0100
00M0
0100
0000
0001
0000
1000
0000
0010
0000
0001
0000
0M00
0000
0001
0000
0100
00M0
0100
0000
0100
0000
0100
0000
,
1000
0000
0100
00M0
0100
0000
0001
0000
0100
00M0
0100
0000
1000
0000
0001
0000
0010
0000
1000
0000
0M00
0000
1000
0000
0100
00M0
0100
0000
0100
0000
0100
0000
,
0001
0000
0010
0000
0M10
0000
1000
0000
0010
0M00
0010
0000
0001
0000
1000
0000
0100
0000
0001
0000
00M0
0000
0001
0000
0010
0M00
0010
0000
0010
0000
0010
0000
,
1000
0000
0000
0000
1000
0000
0000
0000
1000
0000
0000
0000
1000
0000
0000
0000
1000
0000
0000
0000
1000
0000
0000
0000
0100
00M0
0100
0000
0100
0000
0100
0000
,
0001
0000
0100
0000
0001
0000
0010
0000
0100
0000
1000
0000
0010
0M00
0010
0000
0001
0000
0010
0000
0001
0000
0100
0000
0010
0000
1000
0000
0100
00M0
0100
0000
,
0001
0000
0100
0000
0001
0000
0010
0000
0100
0000
1000
0000
0010
0M00
0010
0000
0001
0000
0010
0000
0001
0000
0100
0000
0020
0000
0000
0000
0000
0000
0000
0000
,
1030
0000
0100
0000
1000
0000
0010
0000
0100
0000
0001
0000
0010
0M00
0010
0000
1000
0000
0010
0000
1000
0000
0100
0000
0010
0000
0001
0000
0100
00M0
0100
0000
,
1000
0000
0010
0000
1000
0000
0100
0000
0010
0000
0001
0000
0100
00M0
0100
0000
1010
0000
0101
0000
0000
0000
2002
0000
3003
0000
0001
0000
0100
00M0
0100
0000
,
1000
0000
0010
0000
1000
0000
0100
0000
0010
0000
0001
0000
0100
00M0
0100
0000
1000
0000
0100
0000
1000
0000
0010
0000
0100
0000
0001
0000
0010
0M00
0010
0000
,
1000
0000
0010
0000
1000
0000
0100
0000
0010
0000
0001
0000
0100
00M0
0100
0000
0010
0000
0100
0000
1000
0000
0010
0000
0100
M000
0100
0000
1000
0000
0010
0000
,
1000
0000
0100
0000
1000
0000
0010
0000
2000
0000
0000
0000
0100
0000
0000
0000
3001
0000
0100
0000
0001
0000
0010
0000
0100
M000
0100
0000
0100
0000
0100
0000
,
0010
0000
0000
0000
,
1000
0000
0010
0000
000M
0000
1010
0000
0001
0000
0100
00M0
0100
0000
1000
0000
0001
0000
0010
0000
M000
0000
0011
0000
1000
0000
0100
00M0
0100
0000
0001
0000
,
1000
0000
0100
0000
000M
0000
1100
0000
0001
0000
0010
0M00
0010
0000
1000
0000
0001
0000
0100
0000
M000
0000
0101
0000
0010
0000
0100
M000
0100
0000
0100
0000
,
1000
0000
0010
0000
000M
0000
1010
0000
0001
0000
0100
00M0
0100
0000
1000
0000
0001
0000
0010
0000
M000
0000
0011
0000
1000
0000
0100
00M0
0100
0000
0011
0000
,
1000
0000
1000
0000
0000
0000
0010
0000
0000
0000
0000
0000
0020
0000
0130
0000
0000
0000
0001
0000
0000
0000
0001
0000
1000
0000
0000
0000
0100
00M0
0100
0000
,
0001
0000
0100
0000
M000
0000
0101
0000
1000
0000
0010
0M00
0010
0000
0001
0000
1000
0000
0100
0000
000M
0000
1100
0000
0001
0000
0010
0M00
0010
0000
1000
0000
,
0001
0000
0010
0000
M000
0000
0011
0000
1000
0000
0100
00M0
0100
0000
0001
0000
1000
0000
0010
0000
000M
0000
1010
0000
0100
0000
0010
000M
0010
0000
0010
0000
,
0001
0000
0100
0000
M000
0000
0101
0000
1000
0000
0010
0M00
0010
0000
0001
0000
1000
0000
0100
0000
000M
0000
1100
0000
0001
0000
0010
0M00
0010
0000
1100
0000
,
0001
0000
0000
0000
0000
0000
0010
0000
0000
0000
0000
0000
2000
0000
3000
0000
0000
0000
0010
0000
0000
0000
0100
0000
1000
0000
0000
0000
0010
0M00
0010
0000
,
0101
0000
0010
0000
M000
0000
0011
0000
1100
0000
0001
0000
0010
0M00
0010
0000
1100
0000
0010
0000
000M
0000
1010
0000
0100
00M0
0100
0000
0100
0000
0100
0000
,
0011
0000
0000
0000
0000
0000
0000
0000
0000
0000
0000
0000
0100
0000
0000
0000
0000
0000
0000
0000
0000
0000
0000
0000
M000
0000
0000
0000
0000
0000
0000
0000
0000
0000
0000
0000
0101
0000
0000
0000
0000
0000
0000
0000
0000
0000
0000
0000
1010
0000
0000
0000
0000
0000
0000
0000
0000
0000
0000
0000
0001
0000
0000
0000
0000
0000
0000
0000
0000
0000
0000
0000
0100
0000
0000
0000
0000
0000
00M0
0000
0000
0000
0000
0000
0100
0000
0000
0000
0000
0000
0000
0000
0000
0000
0000
0000
1010
0000
0000
0000
0000
0000
0000
0000
0000
0000
0000
0000
0100
0000
0000
0000
0000
0000
0000
0000
0000
0000
0000
0000
000M
0000
0000
0000
0000
0000
0000
0000
0000
0000
0000
0000
1100
0000
0000
0000
0000
0000
0000
0000
0000
0000
0000
0000
0001
0000
0000
0000
0000
0000
0000
0000
0000
0000
1000
0000
0000
0000
0000
0000
0000
0000
0000
0100
0000
0000
0000
0000
0000
0000
0000
0000
0000
0010
0000
0000
0000
0000
0000
0000
0000
0000
0001
0000
0000
0000
0000
0000
0000
0000
0000
0000
,
1010
0000
0100
0000
000M
0000
1100
0000
0011
0000
1000
0000
0100
00M0
0100
0000
0011
0000
0100
0000
0000
0000
0001
0000
0010
0000
0100
0000
0010
0000
0100
0000
,
1000
0000
0000
0000
0000
0000
0010
0000
0000
0000
0000
0000
0020
0000
0130
0000
0000
0000
0001
0000
0000
0000
0001
0000
1000
0000
0000
0000
0010
0M00
0010
0000
,
0101
0010
0M00
0011
1000
0010
0200
0000
0311
0100
M000
0101
1000
0010
0400
0304
,
1103
0000
0000
0010
0000
0000
000M
0000
0000
1010
0000
0000
0001
0000
0010
0000
0100
0000
1000
0000
0000
0001
0000
0000
1010
0000
0000
0100
0000
0000
000M
0000
0000
1100
0000
0000
0002
0000
0000
0000
0000
0000
0100
0000
0000
0000
0000
0000
,
1003
0000
0000
0010
0000
0000
0000
0000
0000
0100
0000
0000
0001
0000
0000
0000
0000
0000
0010
0000
0000
0100
0000
0000
0000
0000
0000
1000
0000
0000
0001
0000
0000
0000
0000
0000
1000
0000
0100
0000
1000
0000
0010
0000
0100
0000
0001
0000
,
2000
0000
3004
0000
1003
0100
0000
1000
0010
0100
0001
0010
0200
0000
0300
0000
,
1000
0000
0000
1000
0000
0000
0010
0000
0000
0010
0000
0000
0200
0000
0000
0000
,
0301
0000
0000
0001
0000
0000
0001
0000
0000
0001
0000
0000
1000
0000
0000
0000
,
0001
0000
0000
0001
0000
0000
0010
0000
0000
0010
0000
0000
0200
0000
0000
0000
,
1300
0000
0000
1000
0000
0000
1000
0000
0000
1000
0000
0000
0001
0000
0000
0000
,
1000
0000
0000
1000
0000
0000
0010
0000
0000
0010
0000
0000
0200
0000
0000
0000
,
0301
0000
0000
0001
0000
0000
0001
0000
0000
0001
0000
0000
1000
0000
0000
0000
,
0001
0000
0000
0001
0000
0000
0010
0000
0000
0010
0000
0000
0200
0000
0000
0000
,
1300
0000
0000
1000
0000
0000
1000
0000
0000
1000
0000
0000
0001
0000
0000
0000
,
1000
0000
0000
0000
0000
0000
0100
0000
1000
0000
0000
0000
0001
0000
0000
0000
1000
0000
0000
0000
0010
0000
0100
M000
0100
0000
1000
0000
0000
0000
0010
0000
,
0100
0000
0001
0010
0100
0000
1000
0010
0100
0001
1000
0000
0001
0010
0100
1000
,
0001
0000
0000
0000
0000
0000
0100
0000
0001
0000
0000
0000
1000
0000
0000
0000
0001
0000
0000
0000
0010
0000
0100
M000
0100
0000
0001
0000
0000
0000
0010
0000
,
0100
0000
1000
0010
0100
0000
0001
0010
0100
1000
0001
0000
1000
0010
0100
0001
,
1000
0000
0000
0000
0000
0000
0010
0000
1000
0000
0000
0000
0001
0000
0000
0000
1000
0000
0000
0000
0100
0000
0010
M000
0010
0000
1000
0000
0000
0000
0100
0000
,
0010
0000
0001
0100
0010
0000
1000
0100
0010
0001
1000
0000
0001
0100
0010
1000
,
0001
0000
0000
0000
0000
0000
0100
0000
0001
0000
0000
0000
1000
0000
0000
0000
0001
0000
0000
0000
0010
0000
0100
M000
0100
0000
0001
0000
0000
0000
0100
0000
,
2000
0000
0000
0000
0000
0000
0000
0000
0000
0000
0000
0000
0000
0000
0000
0000
3100
00M0
0100
0000
0100
0000
0100
0000
0100
0000
0100
0000
0100
0000
0100
0000
,
0100
0000
0000
0000
,
0101
M000
0100
0000
0000
0000
0001
0000
0010
0M00
0010
0000
1000
0000
0001
0000
1100
00M0
0100
0000
0000
0000
1000
0000
0010
0M00
0010
0000
0001
0000
1000
0000
,
0101
M000
0100
0000
0000
0000
0001
0000
0010
0M00
0010
0000
1000
0000
0001
0000
1100
00M0
0100
0000
0000
0000
1000
0000
0010
0000
0100
M000
0100
0000
0100
0000
,
0011
0M00
0010
0000
0000
0000
0001
0000
0100
00M0
0100
0000
1000
0000
0001
0000
1010
0M00
0010
0000
0000
0000
1000
0000
0100
00M0
0100
0000
0001
0000
0100
0000
,
0001
0000
0001
0000
0000
0000
0010
0000
0000
0000
0000
0000
0020
0000
0130
0000
0000
0000
1000
0000
0000
0000
1000
0000
0001
0000
0000
0000
0100
00M0
0100
0000
,
1010
000M
0010
0000
0000
0000
1000
0000
0100
00M0
0100
0000
0001
0000
1000
0000
0011
0M00
0010
0000
0000
0000
0001
0000
0100
00M0
0100
0000
1000
0000
0001
0000
,
1010
000M
0010
0000
0000
0000
1000
0000
0100
00M0
0100
0000
0001
0000
1000
0000
0011
0M00
0010
0000
0000
0000
0001
0000
0100
0000
0010
000M
0010
0000
0010
0000
,
1100
00M0
0100
0000
0000
0000
1000
0000
0010
0M00
0010
0000
0001
0000
1000
0000
0101
00M0
0100
0000
0000
0000
0001
0000
0010
0M00
0010
0000
1000
0000
0010
0000
,
1000
0000
0000
0000
0000
0000
0010
0000
0000
0000
0000
0000
0002
0000
0003
0000
0000
0000
0010
0000
0000
0000
0100
0000
0001
0000
0000
0000
0010
0M00
0010
0000
,
1000
0000
0100
00M0
0100
0000
0100
0000
0100
0000
0001
0000
0000
0000
0010
0000
1000
0000
0M00
0000
1000
0000
0100
0000
00M0
0000
0100
0000
0010
M000
0010
0000
,
0001
0000
1000
0000
0100
00M0
0100
0000
0001
0000
1000
0000
0000
0000
0010
0000
0001
0000
0M00
0000
0001
0000
0100
0000
00M0
0000
0100
0000
0010
000M
0010
0000
,
1000
0000
0100
00M0
0100
0000
0100
0000
0100
0000
0001
0000
0000
0000
0010
0000
1000
0000
0M00
0000
1000
0000
0100
0000
00M0
0000
0100
0000
0010
M000
0010
0000
,
0001
0000
0000
0000
0100
00M0
0100
0000
0000
0000
1000
0000
0100
0000
0010
0000
0001
0000
0000
0000
0100
0000
0010
0000
0000
0000
0100
M000
0100
0000
0100
0000
,
0011
0000
0100
00M0
0100
0000
1010
0000
0000
0000
0001
0000
0000
0000
1000
0000
0101
0000
0010
0M00
0010
0000
1100
0000
0000
0000
0001
0000
0100
00M0
0100
0000
,
1000
0001
1010
0101
00M0
1100
0011
1000
0001
0010
0100
0010
0001
1000
0010
1000
,
0101
0000
0000
00M0
0000
0000
1100
0000
0000
00M0
0000
0000
0101
0000
0000
00M0
0000
0000
1100
0000
0000
0000
0000
0000
0001
0000
0000
0100
0000
0000
0010
0000
0000
1000
0000
0000
0001
0000
1000
0000
0010
0000
0100
0000
0001
0000
1000
0000
,
0100
0000
0000
0000
0000
0000
0000
0000
1010
0101
0000
2002
3003
0000
0000
0000
,
0110
0000
0000
0000
;
