#TITLE:Party Vinyl;
#SUBTITLE:;
#ARTIST:非可逆リズム;
#TITLETRANSLIT:;
#SUBTITLETRANSLIT:;
#ARTISTTRANSLIT:;
#GENRE:;
#CREDIT:;
#MUSIC:song.ogg;
#BANNER:bn.png;
#BACKGROUND:bg.png;
#CDTITLE:;
#SAMPLESTART:15.909;
#SAMPLELENGTH:14.000;
#SELECTABLE:YES;
#OFFSET:0.009;
#BPMS:0.000=132.000;
#STOPS:;
#BGCHANGES:;
#FGCHANGES:;

//--------------- dance-single - Maracuts (DS+ BR+ FS+ JA RH BU) ----------------
#NOTES:
     dance-single:
     Maracuts (DS+ BR+ FS+ JA RH BU):
     Challenge:
     11:
     0.819101,0.870874,0.51387,0.68516,0.973648,636,579,57,76,80,0,0.819101,0.870874,0.51387,0.68516,0.973648,636,579,57,76,80,0:
0000
0000
0000
0000
0M00
0M00
0M00
0M00
,
0M00
0M00
00M0
0000
0M00
0M00
0M00
0M00
,
0M00
0M00
00M0
0000
0M00
0M00
0M00
0M00
,
0M00
0M00
00M0
0000
0M00
0M00
0M00
0M00
,
1000
0000
0100
0000
0010
0000
0001
0000
0000
1000
0000
0000
0100
0000
0000
1000
0000
0000
0020
0000
0000
0000
0000
0000
0130
0000
0000
0000
0000
0000
0100
0000
0000
0000
0000
0000
2M00
0000
0000
0000
0000
0000
0000
0000
0000
3001
0000
0000
,
0010
0000
0010
0000
20M0
0000
0000
3010
0100
0000
0100
0000
2M00
0000
0000
3001
,
0010
0000
0010
0000
20M0
0000
0000
3010
0100
0000
1M00
0000
0100
0000
0M01
0000
,
0100
0000
0000
0000
0000
0000
1M00
0000
0000
0000
0000
0000
0100
0000
0000
0000
0000
0000
0M01
0000
0000
0000
0000
0000
1000
0000
0010
0000
0100
0000
0001
0000
0000
1000
0000
0000
0010
0000
1000
0000
0001
0000
0010
0000
0000
0100
0000
0000
,
1000
0000
0001
0000
1000
0000
0001
0000
0000
0100
0000
0000
0010
0000
0000
1000
0000
0000
0100
0000
0000
0010
0000
0000
0002
0000
0000
0000
0000
0000
0003
0000
0000
0000
0000
0000
1002
0000
0000
0000
0000
0000
0103
0000
0000
0000
0000
0000
,
0012
0000
0103
0000
1002
0000
1003
1000
0001
0100
00M0
0100
1000
0000
0010
1000
,
0002
0000
0000
0000
1003
0000
0000
0000
0010
0000
0000
0000
0100
00M0
0100
0000
1000
0000
0000
0000
1000
0000
0000
0000
2001
0000
0000
0000
3100
0000
0000
0000
,
2010
0000
0000
0000
3100
0000
0000
0000
2001
0000
0000
0000
3001
0000
0001
0000
1000
0000
0100
00M0
0100
0000
0001
0000
1000
0000
1000
0000
0010
0M00
0010
0000
,
0001
0000
1000
0000
0010
0000
0000
0000
0010
0000
0000
0000
0100
00M0
0100
0000
2000
0000
0000
0000
3000
0000
0000
0000
2001
0000
0000
0000
3100
0000
0000
0000
,
2010
0000
3100
0000
2001
0000
3001
0001
1000
0100
00M0
0100
0001
0000
0010
0001
,
2000
0000
0000
0000
3001
0000
0000
0000
0010
0000
0000
0000
0100
00M0
0100
0000
0001
0000
0000
0000
0001
0000
0000
0000
1002
0000
0000
0000
0103
0000
0000
0000
,
0012
0000
0000
0000
0103
0000
0000
0000
1002
0000
0000
0000
1003
0000
1000
0000
0001
0000
0100
00M0
0100
0000
1000
0000
0001
0000
0001
0000
0010
0M00
0010
0000
,
1000
0000
0000
0000
0000
0000
0000
0000
0000
0000
0000
0000
0100
0000
0000
0000
0000
0000
0000
0000
0000
0000
0000
0000
0010
0000
0000
0000
0000
0000
0000
0000
0000
0000
0000
0000
0001
0000
0000
0000
0000
0000
0000
0000
0000
0000
0000
0000
0100
0000
0000
0000
0000
0000
0000
0000
0000
0000
0000
0000
0000
0010
0000
0000
0000
0000
0000
0000
0000
0000
1000
0000
0000
0000
0000
0000
0000
0000
0000
0000
0000
0000
0000
0000
0000
0100
0000
0000
0000
0000
0000
0000
0000
0000
0000
0000
0020
0000
0000
0000
0000
0000
0000
0000
0000
0000
0000
0000
0000
0000
0000
0000
0000
0000
0000
0000
0000
0000
0000
0000
0030
0000
0000
0000
0000
0000
0000
0000
0000
0000
0000
0000
0000
0000
0000
0000
0000
0000
0000
0000
0000
0000
0000
0000
1002
0000
0000
0000
0000
0000
0000
0000
0000
0000
0000
0000
0000
0000
0000
0000
0000
0000
0000
0000
0000
0000
0000
0000
0013
0000
0000
0000
0000
0000
0000
0000
0000
0000
0000
0000
0000
0000
0000
0000
0000
0000
0000
0000
0000
0000
0000
0000
,
0102
0000
0013
0000
1002
0000
1003
1000
0001
0010
0M00
0010
1000
0000
0100
1000
,
0002
0000
0000
0000
1003
0000
0000
0000
0100
0000
0000
0000
0010
0M00
0010
0000
1000
0000
0000
0000
1000
0000
0000
0000
2001
0000
0000
0000
3010
0000
0000
0000
,
2100
0000
0000
0000
3010
0000
0000
0000
2001
0000
0000
0000
3001
0000
0001
0000
1000
0000
0010
0M00
0010
0000
0001
0000
1000
0000
1000
0000
0100
00M0
0100
0000
,
0001
0000
1000
0000
0100
0000
0000
0000
0100
0000
0000
0000
0010
0M00
0010
0000
2000
0000
0000
0000
3000
0000
0000
0000
2001
0000
0000
0000
3010
0000
0000
0000
,
2100
0000
3010
0000
2001
0000
3001
0001
1000
0010
0M00
0010
0001
0000
0100
0001
,
2000
0000
0000
0000
3001
0000
0000
0000
0100
0000
0000
0000
0010
0M00
0010
0000
0001
0000
0000
0000
0001
0000
0000
0000
010M
0000
0000
0000
0010
0M00
0010
0000
,
1000
0000
0000
0000
1000
0000
0000
0000
M100
0000
0000
0000
0010
0M00
0010
0000
0001
0000
0000
0000
0001
0000
0000
0000
010M
0000
0000
0000
0010
0000
0000
0000
,
0001
0100
0010
1000
0001
0000
0010
0000
0100
0000
0000
0100
0000
0100
0100
0000
,
1000
0000
1000
1000
0001
0000
0001
0001
0010
0000
0000
0010
0000
0010
0010
0000
,
0100
0000
0000
0000
1000
0000
0001
0000
0100
0000
0000
0M00
1000
0000
0001
0000
0100
0000
0000
0000
0000
0000
0100
0000
0000
0000
0100
0000
0100
0000
0000
0000
,
0001
0000
0001
0001
1000
0000
1000
1000
0010
0000
0000
0010
0000
0010
0010
0000
,
0100
0000
0000
0000
0000
0000
0000
0000
0000
0000
0000
0000
0001
0000
0000
0000
1000
0000
0000
0000
0001
0000
0000
0000
0100
0000
0000
0000
0000
0000
0000
0000
0000
0M00
0000
0000
1000
0000
0000
0000
0000
0000
0001
0000
0000
0000
0000
0000
0200
0000
0000
0000
0000
0000
0000
0000
0000
0000
0000
0000
0300
0000
0000
0000
0000
0000
0000
0000
0000
0000
0000
0000
0001
0000
0000
0000
0000
0000
1000
0000
0000
0000
0000
0000
1000
0000
0000
0000
0000
0000
0000
0000
0000
0000
0000
0000
,
0010
0000
0100
0100
0010
0000
0100
0100
0010
0000
0000
0010
0000
0010
0010
0000
,
1000
0000
0001
0010
0010
0000
0100
0100
0010
0000
0000
0010
0000
0010
0010
0000
,
0001
0000
0001
0001
2000
0000
0000
0000
3100
0000
0000
0100
0000
0100
0100
0000
,
0010
0000
0001
1000
0010
0100
0001
0010
0100
0000
0000
0000
0000
0000
0000
0000
,
0000
0000
0000
0000
,
0000
0000
0000
1000
0002
0100
2003
0100
,
3002
0000
0010
0000
2003
0000
0010
0000
3001
0010
0100
1000
0010
0100
0001
0010
,
0100
0000
0000
1000
0100
0010
0002
0000
0000
0000
0000
0000
0103
0000
0000
0001
0000
0000
1000
0000
0000
0001
0000
0000
,
0100
0000
0010
1000
0000
0000
0001
0000
1100
0001
1000
0000
0101
0000
1000
0000
,
0010
0000
0000
0000
0000
0000
1000
0000
0000
0002
0000
0000
0000
0000
0000
0000
0000
0000
1003
0000
0100
0000
0010
0000
0001
0000
0000
0000
0000
0000
0010
0000
0000
0000
0000
0000
0001
0000
0000
0000
0000
0000
1000
0000
0000
0000
0000
0000
,
0010
0000
1000
0000
0001
0000
0100
0000
0001
1000
0100
0000
0010
0000
0001
0000
,
1000
0000
0000
1000
0000
0000
0001
0000
0010
0000
0100
0000
2000
0000
0000
0000
0000
0000
0000
0000
0000
0000
0000
0000
3010
0000
0000
0000
0000
0000
0010
0000
0000
0000
0000
0000
00M2
0000
0000
0000
0000
0000
0000
0000
0000
1003
0000
0000
,
0100
0000
0100
0000
0M02
0000
0000
0103
0010
0000
0010
0000
00M2
0000
0000
1003
,
0100
0000
0100
0000
0M02
0000
0000
0103
0010
0000
00M1
0000
0010
0000
10M0
0000
,
0010
0000
0000
0000
0000
0000
00M1
0000
0000
0000
0000
0000
0010
0000
0000
0000
0000
0000
10M0
0000
0000
0000
0000
0000
0001
0000
0010
0000
0100
0000
1000
0000
0000
0001
0000
0000
0010
0000
0001
0000
1000
0000
0010
0000
0000
0100
0000
0000
,
0001
0000
1000
0000
0001
0000
1000
0000
0000
0100
0000
0000
0010
0000
0000
0001
0000
0000
0100
0000
0000
0010
0000
0000
2000
0000
0000
0000
0000
0000
3000
0000
0000
0000
0000
0000
2001
0000
0000
0000
0000
0000
3100
0000
0000
0000
0000
0000
,
2100
0000
3001
0000
2001
0000
3001
0001
1000
0010
0M00
0010
0100
0000
1000
0010
,
2000
0000
0000
0000
3001
0000
0000
0000
0100
0000
0000
0000
0010
0M00
0010
0000
0001
0000
0000
0000
0001
0000
0000
0000
1002
0000
0000
0000
0103
0000
0000
0000
,
0102
0000
0000
0000
1003
0000
0000
0000
1002
0000
0000
0000
1003
0000
1000
0000
0001
0000
0010
0M00
0010
0000
1000
0000
0001
0000
0001
0000
0100
00M0
0100
0000
,
1000
0000
0001
0000
0100
0000
0000
0000
0100
0000
0000
0000
0010
0M00
0010
0000
0002
0000
0000
0000
0003
0000
0000
0000
1002
0000
0000
0000
0103
0000
0000
0000
,
0102
0000
1003
0000
1002
0000
1003
1000
0001
0010
0M00
0010
0100
0000
0001
0010
,
0002
0000
0000
0000
1003
0000
0000
0000
0100
0000
0000
0000
0010
0M00
0010
0000
1000
0000
0000
0000
1000
0000
0000
0000
2001
0000
0000
0000
3100
0000
0000
0000
,
2100
0000
0000
0000
3001
0000
0000
0000
2001
0000
0000
0000
3001
0000
0001
0000
1000
0000
0010
0M00
0010
0000
0001
0000
1000
0000
1000
0000
0100
00M0
0100
0000
,
0001
0000
0000
0000
0000
0000
0000
0000
0000
0000
0000
0000
0010
0000
0000
0000
0000
0000
0000
0000
0000
0000
0000
0000
0100
0000
0000
0000
0000
0000
0000
0000
0000
0000
0000
0000
1000
0000
0000
0000
0000
0000
0000
0000
0000
0000
0000
0000
0010
0000
0000
0000
0000
0000
0000
0000
0000
0000
0000
0000
0000
0100
0000
0000
0000
0000
0000
0000
0000
0000
0001
0000
0000
0000
0000
0000
0000
0000
0000
0000
0000
0000
0000
0000
0000
0010
0000
0000
0000
0000
0000
0000
0000
0000
0000
0000
0200
0000
0000
0000
0000
0000
0000
0000
0000
0000
0000
0000
0000
0000
0000
0000
0000
0000
0000
0000
0000
0000
0000
0000
0300
0000
0000
0000
0000
0000
0000
0000
0000
0000
0000
0000
0000
0000
0000
0000
0000
0000
0000
0000
0000
0000
0000
0000
1002
0000
0000
0000
0000
0000
0000
0000
0000
0000
0000
0000
0000
0000
0000
0000
0000
0000
0000
0000
0000
0000
0000
0000
0013
0000
0000
0000
0000
0000
0000
0000
0000
0000
0000
0000
0000
0000
0000
0000
0000
0000
0000
0000
0000
0000
0000
0000
,
0012
0000
1003
0000
1002
0000
1003
1000
0001
0100
00M0
0100
0010
0000
0001
0100
,
0002
0000
0000
0000
1003
0000
0000
0000
0010
0000
0000
0000
0100
00M0
0100
0000
1000
0000
0000
0000
1000
0000
0000
0000
2001
0000
0000
0000
3010
0000
0000
0000
,
2010
0000
0000
0000
3001
0000
0000
0000
2001
0000
0000
0000
3001
0000
0001
0000
1000
0000
0100
00M0
0100
0000
0001
0000
1000
0000
1000
0000
0010
0M00
0010
0000
,
0001
0000
1000
0000
0010
0000
0000
0000
0010
0000
0000
0000
0100
00M0
0100
0000
2000
0000
0000
0000
3000
0000
0000
0000
2001
0000
0000
0000
3010
0000
0000
0000
,
2010
0000
0000
0000
0000
0000
3001
0000
0000
0000
0000
0000
2001
0000
0000
0000
0000
0000
3001
0000
0000
0001
0000
0000
1000
0000
0000
0100
0000
0000
0010
0000
0001
0000
1000
0000
0001
0000
0000
0100
0000
0000
0010
0000
1000
0000
0001
0000
,
1000
0000
0000
0000
0100
0000
0000
0000
0010
0000
0000
0000
0001
0000
0000
0000
0000
0000
0000
0000
0000
0000
0000
0000
0100
0000
0000
0000
0000
0000
0000
0000
0000
0000
0000
0000
0010
0000
0000
0M00
0000
0000
0010
0000
0000
0000
0000
0000
0001
0000
0000
0000
0000
0000
0000
0000
1000
0000
0000
0000
0000
0000
0000
0000
0010
0000
0000
0000
0000
0000
0000
0000
0100
0000
0000
0000
0000
0000
0000
0000
0000
0000
0000
0000
0010
0000
0000
0M00
0000
0000
0010
0000
0000
0000
0000
0000
,
0001
0000
0000
0000
0000
0000
0000
0000
1000
0000
0000
0000
0000
0000
0000
0000
0010
0000
0000
0000
0000
0000
0000
0000
0100
0000
0000
0000
0000
0000
0000
0000
0000
0000
0000
0000
0010
0000
0000
0M00
0000
0000
0010
0000
0000
0000
0000
0000
0001
0000
0000
0000
0000
0000
0000
0000
0000
0000
0000
0000
0001
0000
0000
0000
0000
0000
0000
0000
0000
0000
0000
0000
010M
0000
0000
0000
0000
0000
0000
0000
0000
0000
0000
0000
0010
0000
0000
0000
0000
0000
0000
0000
0000
0000
0000
0000
,
0001
0010
0100
1000
0220
0000
0000
0000
0330
0000
0000
0000
0000
0000
0000
0000
;
