#TITLE:ORANGE NYA NYA STYLE;
#SUBTITLE:Kaypooma Remix?;
#ARTIST:Annoying Orange;
#TITLETRANSLIT:;
#SUBTITLETRANSLIT:;
#ARTISTTRANSLIT:;
#GENRE:;
#CREDIT:;
#MUSIC:song.ogg;
#BANNER:bn.png;
#BACKGROUND:bg.png;
#CDTITLE:;
#SAMPLESTART:112.564;
#SAMPLELENGTH:14.712;
#SELECTABLE:YES;
#OFFSET:0.009;
#BPMS:0.000=195.000
,148.000=97.500
,150.000=195.000
,154.000=97.500
,156.000=195.000
,160.000=97.500
,162.000=195.000
,170.000=97.500
,186.000=195.000
,218.000=97.500
,226.000=195.000
,326.000=130.686
;
#STOPS:271.750=0.622
,277.750=0.615
,279.750=0.615
,282.250=0.622
,285.500=0.615
,321.750=0.079
;
#DISPLAYBPM:131.000;
#BGCHANGES:;
#FGCHANGES:;

//--------------- dance-single - Maractus (X-Scale) ----------------
#NOTES:
     dance-single:
     Maractus (X-Scale):
     Challenge:
     16:
     0.572,0.69,0.359,0.478,0.219:
0000
0000
0000
0000
,
0000
0000
0000
0000
,
0000
0000
0000
0000
,
0000
0000
0000
0000
,
2200
0000
3300
0022
0000
0033
0001
1000
,
0100
0001
0100
0010
0200
0000
1300
0000
,
2020
0000
3030
0202
0000
0303
0001
1000
,
0010
0001
0010
0100
0020
0000
1030
0000
,
2200
0000
3300
0022
0000
0033
0001
1000
,
0010
0001
0010
0100
0020
0000
1030
0000
,
2020
0000
3030
0202
0000
0303
0001
1000
,
0100
0000
0001
0000
0100
0000
0010
0000
0200
0000
0000
1000
0000
0000
1300
0000
,
2200
0000
3300
0202
0000
0303
0001
0010
,
0100
0001
0100
0010
0002
0000
0103
0000
,
0202
0000
0303
2200
0000
3300
1000
0010
,
0100
1000
0100
0010
2000
0000
3100
0000
,
2020
0000
3030
0022
0000
0033
0001
0100
,
0010
0001
0010
0100
0002
0000
0013
0000
,
0022
0000
0033
2020
0000
3030
1000
0100
,
0010
1000
0010
0100
2000
0000
3002
0000
,
1003
0100
0010
0001
0100
0010
1000
0001
,
0010
0000
0000
0001
0000
0000
0100
0000
0000
0001
0000
0000
1000
0000
0010
0000
0100
0000
0001
0000
0000
1000
0000
0000
,
0001
0010
0100
1000
0010
0100
0001
1000
,
0010
0000
1000
0000
0100
0000
1000
0000
0001
1000
0100
1000
0001
0000
1000
0000
,
0001
0100
0010
1000
0100
0010
0001
1000
,
0010
0000
0000
1000
0000
0000
0100
0000
0000
1000
0000
0000
0001
0000
0010
0000
0100
0000
1000
0000
0000
0001
0000
0000
,
1000
0010
0100
0001
0010
0100
1000
0001
,
1000
0000
0000
0001
0000
0000
0100
0000
0000
0001
0000
0000
2000
0000
0000
0000
0000
0000
0000
0000
0000
0000
0000
0000
3010
0000
0000
0000
0000
0000
0000
0000
0001
0000
0000
0000
0000
0000
0000
0000
0010
0000
0000
0000
0000
0000
0000
0000
,
1001
0100
0010
1001
0100
0010
1001
1000
,
0010
0000
0000
1000
0000
0000
0100
0000
0000
1000
0000
0000
0001
0000
0100
0000
0010
0000
1000
0000
0000
0001
0000
0000
,
1001
0010
0100
1001
0010
0100
1001
0001
,
0010
0000
0001
0000
0100
0000
0001
0000
1000
0001
0010
0001
1000
0000
0001
0000
,
1001
0010
0100
1001
0010
0100
1001
0001
,
0100
0000
0000
0001
0000
0000
0010
0000
0000
0001
0000
0000
1000
0000
0010
0000
0100
0000
0001
0000
0000
1000
0000
0000
,
1001
0100
0010
1001
0100
0010
1001
1000
,
0001
1000
0010
1000
0002
0000
0003
0000
1000
0001
0010
0001
1000
0000
0001
0000
,
1002
0000
0100
0003
2001
0000
0100
3000
,
0010
0010
1000
0100
0010
0000
0100
0000
0120
0000
0000
0000
0001
0000
0030
0000
,
0210
0000
0000
0000
0000
0000
0000
0000
1000
0000
0000
0000
0300
0000
0000
0000
0001
0000
0000
0000
1000
0000
0001
0010
0100
1000
0010
0100
0002
0000
0003
0000
,
0102
0000
0010
0003
2100
0000
0010
3000
,
0001
0010
0100
1000
0001
0010
1000
0010
0012
0000
0000
0000
0100
0000
0003
0000
,
2010
0000
0000
0000
0100
0000
3000
0000
0001
1000
0100
0000
1000
0000
0001
0100
,
0000
0000
0001
0000
1000
0000
0000
0000
0001
0000
0100
0000
0010
0000
1000
0000
0002
0000
0000
0000
0000
0000
0000
0000
0000
0000
2003
0000
0000
3002
0000
0000
,
0203
0000
0000
0000
0320
0000
0000
0000
0032
0000
0000
0000
0023
0000
0000
0000
0230
0000
0000
0000
0302
0000
0000
0000
2003
0000
0000
0000
0000
0000
0000
0000
0000
3002
0000
0000
0000
0000
0000
0000
0000
0000
0203
0000
0000
0000
0000
0000
,
0000
0000
0000
0000
0000
0000
0000
0000
0000
0000
0000
0000
0000
0000
0301
1000
0200
0000
0000
0000
0000
0000
2300
0000
0000
0000
0000
0000
3002
0000
0000
0000
,
0000
0203
2300
3200
0320
0000
2030
3002
,
0203
0000
0000
0000
0000
0000
0000
0000
0000
0000
0000
0000
0000
0000
0000
0000
0310
0000
0000
0000
1000
0000
0000
0000
0002
0000
0000
0000
0000
0000
0000
0000
0000
0000
0000
0000
1003
0000
0000
0100
0000
0000
0010
0000
0000
0001
0000
0000
0200
0000
0000
0000
0000
0000
0000
0000
0000
0000
0000
0000
0000
0000
0000
0000
0000
0000
0000
0000
0000
0000
0000
0000
0300
0000
0000
0000
0000
0000
0000
0000
0000
0000
0000
0000
0101
0000
0000
0000
0000
0000
0000
0000
0000
0000
0000
0000
,
0000
0000
0001
0000
1000
0000
0100
0000
0001
0000
0100
0000
,
0010
0000
0000
0000
0001
0000
0000
0000
1000
0000
0000
0000
0002
0000
0000
0000
0000
0000
0003
0000
0000
0011
0000
0000
,
0000
0000
1000
0000
2020
0000
3030
2200
,
0000
0000
3300
0000
0000
0000
0100
1000
0020
0000
0000
0000
0030
0000
2020
0000
,
0000
3030
0001
0000
0202
0000
0303
2002
,
0000
0000
3003
0000
0000
0000
0001
0010
0200
0000
0000
0000
2300
0000
0000
0000
,
3020
0230
0302
0003
,
0000
0000
0000
0000
0000
0000
0000
0000
1000
0000
0100
0000
0010
0000
0001
0000
2000
0000
0000
0000
0000
0000
0000
0000
0000
0000
3002
0000
0000
2003
0000
0000
,
3200
0000
0000
0000
0320
0000
0000
0000
2030
0000
0000
0000
3020
0000
0000
0000
0230
0000
0000
0000
2300
0000
0000
0000
3002
0000
0000
0000
0000
0000
0000
0000
0000
2003
0000
0000
0000
0000
0000
0000
0000
0000
3200
0000
0000
0000
0000
0000
,
0000
0000
0000
0000
1300
0000
0010
0000
0001
0000
0010
0000
1000
0000
0001
0100
0010
0000
0000
0000
1000
0000
0000
0000
0100
0000
0000
0000
0010
0000
0000
0000
,
0001
0100
0001
0010
0100
1000
0010
0100
,
0010
0000
1000
0000
0001
0010
0001
1000
0001
0000
0100
0000
0010
0000
1000
0000
,
0001
0000
1000
0000
0100
0000
0010
0000
0001
0100
0001
1000
0002
0000
0003
0000
,
1000
0100
1000
0001
1000
0010
0100
0001
1000
0000
0001
0000
0100
0000
0010
0000
,
1000
0100
1000
0010
0100
0001
1000
0001
,
0010
0100
1000
0010
1000
0100
0010
0001
,
1000
0100
0010
0100
1000
0010
0100
0001
,
1000
0010
1000
0001
1000
0000
0100
0000
0010
0000
0010
0000
0001
0000
0001
0000
,
0100
0100
0010
0010
1000
1000
0100
0100
,
0010
0000
0010
0000
0001
0000
0001
0000
1000
0010
0100
0001
1000
0010
1000
0001
,
0100
0010
1000
0001
0010
0001
1000
0010
0200
0000
0000
0000
0300
0000
0000
0000
,
0000
0000
0000
0000
0000
0000
0000
2002
0000
0000
0000
0000
0000
0000
0000
0000
0000
0000
0000
0000
0000
0000
0000
0000
0000
0000
0000
0000
0000
0000
0000
0000
0000
0000
0000
0000
0000
0000
0000
0000
0000
0000
0000
0000
0000
0000
0000
0000
0000
0000
0000
0000
0000
0000
0000
0000
0000
0000
0000
0000
0000
0000
0000
0000
0000
0000
0000
0000
0000
0000
0000
0000
0000
0000
0000
0000
0000
0000
0000
0000
0000
0000
0000
0000
0000
0000
0000
0000
0000
0000
0000
0000
0000
0000
0000
0000
0000
0000
0000
0000
0000
0000
0000
0000
0000
0000
0000
0000
0000
0000
0000
0000
0000
0000
0000
0000
0000
0000
0000
0000
0000
0000
0000
0000
0000
0000
0000
0000
0000
0000
0000
0000
0000
0000
0000
0000
0000
0000
0000
0000
0000
0000
0000
0000
0000
0000
0000
0000
0000
0000
0000
0000
0000
0000
0000
0000
0000
0000
0000
0000
0000
0000
0000
0000
0000
0000
0000
0000
0000
0000
0000
0000
0000
0000
0000
0000
0000
0000
0000
0000
0000
0000
0000
0000
0000
0000
0000
0000
0000
0000
0000
0000
,
0000
0000
0000
3003
0000
0000
0000
0000
2200
0000
0000
0000
3300
0000
0000
0000
,
0202
0303
0000
2020
,
0000
3030
0022
0033
;
