#VERSION:0.83;
#TITLE:Official Bootleg;
#SUBTITLE:;
#ARTIST:Blacklolita;
#TITLETRANSLIT:;
#SUBTITLETRANSLIT:;
#ARTISTTRANSLIT:;
#GENRE:;
#CREDIT:Maractus;
#MUSIC:song.ogg;
#BANNER:bn.png;
#BACKGROUND:bg-wide.png;
#CDTITLE:;
#SAMPLESTART:21.438000;
#SAMPLELENGTH:12.880000;
#SELECTABLE:YES;
#OFFSET:0.000000;
#BPMS:0.000000=140.000000;
#STOPS:;
#SPEEDS:0.000000=1.000000=0.000000=0;
#SCROLLS:0.000000=1.000000;
#TICKCOUNTS:0.000000=4;
#TIMESIGNATURES:0.000000=4=4;
#LABELS:0.000000=Song Start;
#COMBOS:0.000000=1;
#ORIGIN:;
#PREVIEWVID:;
#JACKET:;
#CDIMAGE:;
#DISCIMAGE:bg.png;
#BGCHANGES:;
#FGCHANGES:;

//--------------- dance-single - BR FS BU JA XO DS- BT- ----------------
#NOTEDATA:;
#STEPSTYPE:dance-single;
#DESCRIPTION:BR FS BU JA XO DS- BT-;
#DIFFICULTY:Challenge;
#METER:12;
#RADARVALUES:0.927329,0.972989,0.640651,0.405118,1.154114,689,621,68,43,31,4,14,0,0,0.927329,0.972989,0.640651,0.405118,1.154114,689,621,68,43,31,4,14,0,0;
#CHARTNAME:ITL Original Chart!;
#CHARTSTYLE:;
#CREDIT:Maractus;
#NOTES:
0000
0000
0000
0000
,
0000
0000
0000
0000
,
0000
0000
0000
0000
,
0000
0000
0000
0000
,
0000
0000
0000
0000
0000
0000
0000
0000
0000
0000
0000
0000
0000
0000
0000
0000
0000
0000
0000
0000
0000
0000
0000
0000
0001
0000
0000
0000
0000
0000
0000
0000
0000
0000
0000
0000
1000
0000
0000
0000
0000
0000
0001
0000
0000
0100
0000
0000
0001
0000
0000
0000
0000
0000
0000
0000
0000
0000
0000
0000
0100
0000
0000
0000
00M0
0000
0000
0000
0100
0000
0000
0000
1000
0000
0000
0000
0000
0000
0000
0000
0000
0000
0000
0000
0010
0000
0000
0000
0M00
0000
0000
0000
0010
0000
0000
0000
,
0001
0000
1000
0002
0000
0000
0010
0000
0000
1000
0000
0000
0103
0000
0000
0010
0M00
0010
0001
0000
0000
0100
00M0
0100
,
1000
0000
0001
2000
0000
0000
0010
0000
0000
0001
0000
0000
3100
0000
0000
0010
0M00
0010
1000
0000
0000
0100
00M0
0100
,
0001
0000
1000
0002
0000
0000
0100
0000
0000
1000
0000
0000
0013
0000
0000
0100
00M0
0100
0001
0000
0000
0010
0M00
0010
,
1000
0000
0000
0000
0001
0000
2000
0000
0000
0000
0000
0000
0100
0000
0000
0000
0000
0000
0001
0000
0000
0000
0000
0000
3010
0000
0000
0100
0000
0000
0000
0000
0000
0000
0000
0000
0010
0000
0000
1000
0000
0000
0000
0000
0000
0000
0000
0000
,
0100
0010
0000
0000
0001
0100
0000
0000
0001
0000
0010
0000
0001
0000
0100
0000
,
0010
0000
1000
0000
0100
0000
1000
0000
0001
1000
0100
0010
0001
1000
0010
0100
,
0001
0010
0100
1000
0001
0100
0010
1000
0002
0000
0003
0000
0002
0000
0003
0000
,
0001
0010
0100
0000
1000
0010
0100
0000
1001
0000
0004
0000
1003
0100
00M0
1100
,
0011
0000
0100
0000
0001
0100
00M0
0101
1010
0000
0100
0000
1000
0100
00M0
1100
,
0011
0000
0000
0100
0000
0000
0001
0100
0010
0100
0001
1000
0101
0000
0000
1000
0010
0100
0001
0000
0000
0010
0000
0000
,
0002
1000
0023
0100
0032
0010
0203
0010
,
0302
0000
0000
0000
0000
0000
0100
0000
0000
0000
0000
0000
1003
0000
0100
0000
0010
0000
0001
0000
0000
0000
0000
0000
1001
0000
0000
0000
0000
0000
4000
0000
0000
0000
0000
0000
3001
0000
0000
0010
0000
0000
0M00
0000
0000
0011
0000
0000
,
1100
0000
0010
0000
1000
0001
0000
1010
0101
0000
0010
0000
0001
1000
0000
0011
,
1100
0000
0000
0010
0000
0000
1000
0010
0100
0010
1000
0001
1100
0000
0000
0001
0010
0100
1000
0000
0000
0010
0000
0000
,
2000
0001
3020
0100
2030
0010
3200
0000
,
0340
0000
0000
0000
0000
0000
0000
0000
0000
0030
0000
0000
1001
0000
0000
4000
0000
0000
3001
0100
0010
1000
0000
0000
,
0100
0010
0000
0010
0001
1000
0000
1000
0010
0100
0000
0100
0001
0010
0000
0010
,
0100
0000
0000
1000
0000
0000
0000
0000
0000
1000
0000
0000
0001
0000
0000
0000
0000
0000
0100
0000
0000
0000
0000
0000
1001
0000
0000
0000
0000
0000
4000
0000
0000
0000
0000
0000
3001
0000
0010
0000
0100
0000
1000
0000
0000
0000
0000
0000
,
0102
0013
1002
0103
0012
0103
1002
0013
,
0001
1000
0100
1000
0001
0100
0010
1000
0001
0100
0001
1000
0002
0000
0000
4003
0000
0000
3001
0100
0010
1000
0000
0000
,
0100
0000
0000
0010
0000
0000
1000
0000
0000
0000
0000
0000
0010
0000
0100
0000
1000
0000
0002
0000
0000
0000
0000
0000
0013
0000
0000
0100
0000
0000
0001
0000
0000
0000
0000
0000
0100
0000
0010
0000
0001
0000
1000
0000
0000
0000
0000
0000
,
0010
0100
1000
0000
0100
0000
0010
0000
1000
0100
0010
0001
0100
0001
1000
0010
,
0100
0010
1000
0001
0010
0100
1000
0010
1000
0100
1000
0010
0100
0001
1000
0010
,
0100
0010
1000
0001
0010
0100
1000
0010
1100
0000
0001
0010
0100
M100
0001
0000
,
1010
0000
0001
1000
0100
01M0
0000
0000
0001
0000
1000
1000
0100
01M0
0001
1000
,
0011
0000
1000
0001
0100
01M0
0000
0000
1010
0000
0002
0000
0000
0013
0M00
0010
,
1000
0000
0001
1000
0010
0M10
0000
0000
0001
0000
1000
1000
0010
0M10
0001
1000
,
0101
0000
1000
0001
0040
0000
0000
0030
0101
0000
2000
0000
3000
0000
0001
0000
,
1010
0000
0001
0000
2100
0000
3000
0000
0001
0001
0010
0M10
1000
0000
0001
0100
,
0011
0000
1000
0000
2000
0000
3000
0000
0001
0001
0100
01M0
1000
0000
0001
0010
,
0101
0000
1000
0000
1000
0000
0010
0100
0001
0000
0001
0010
0100
1000
0010
001M
,
0400
0000
0000
0000
0000
0000
0000
0000
0000
0000
0000
0000
0300
0000
0000
0000
1010
0000
0000
0000
0000
0000
0101
0000
0000
0000
0000
0000
1000
0000
0001
0100
,
0001
0000
1000
0010
0000
0010
0100
0000
0011
0000
0000
1100
0000
0000
0011
0000
,
1000
0000
0000
0000
1000
0000
0000
0000
1000
0000
0001
0000
0010
0000
0000
0000
0010
0000
0000
0000
0010
0000
0000
0000
0101
0000
0000
0000
0000
0000
0000
0000
0000
1010
0000
0000
0000
0000
0000
0000
0000
0000
0101
0000
0000
1000
0000
0000
,
0010
0000
1000
0010
0000
1000
0010
0000
1100
0000
0000
0011
0000
0000
2100
0000
,
0000
0000
0000
0000
0001
0000
0000
0000
0100
0000
0000
0000
0001
0000
0000
0000
0000
0000
0000
0000
0000
0000
0000
0000
3010
0000
0000
0100
0000
0000
0000
0000
0000
0000
0000
0000
0010
0000
0000
1000
0000
0000
0000
0000
0000
0000
0000
0000
,
0100
0010
0000
0000
0001
0100
0000
0000
0001
0000
0010
0000
0001
0000
0100
0000
,
0010
0000
1000
0000
0100
0000
1000
0000
0001
1000
0100
0010
0001
1000
0010
0100
,
0001
0010
0100
1000
0001
0100
0010
1000
0002
0000
1003
0100
1000
0001
1000
0100
,
1000
0001
0100
0001
1000
0001
0010
0001
1100
0000
0004
0000
1003
0100
00M0
0100
,
0001
0000
0000
0000
0000
0000
1000
0000
0000
0000
0000
0000
0001
0000
0000
0010
0000
0000
0M00
0000
0000
0010
0000
0000
1000
0000
0000
0000
0000
0000
0001
0000
0000
0000
0000
0000
1000
0000
0000
0010
0000
0000
0100
0000
0001
0000
0100
0000
,
0011
0000
0000
1000
0000
0000
0001
0000
0000
0000
0000
0000
1000
0000
0100
0000
0000
0000
0010
0000
0001
0000
0000
0000
1010
0000
0000
0000
0000
0000
0001
0000
0100
0000
0010
0000
1000
0000
0000
0000
0000
0000
0100
0000
0000
0000
0000
0000
,
2000
0101
3002
1100
2003
0011
3002
1010
,
2003
0000
0000
0000
0000
0000
0010
0000
0000
0000
0000
0000
3001
0000
0010
0000
0100
0000
1000
0000
0000
0000
0000
0000
1001
0000
0000
0000
0000
0000
0004
0000
0000
0000
0000
0000
1003
0000
0000
0100
0000
0000
00M0
0000
0000
1100
0000
0000
,
0011
0000
0100
0000
0001
1000
0000
0101
1010
0000
0100
0000
1000
0001
0000
1100
,
0011
0000
0000
0100
0000
0000
0001
0100
0010
0100
0001
1000
0011
0000
0000
1000
0100
0010
0001
0000
0000
0100
0000
0000
,
0002
1000
0203
0010
0302
0100
0023
0000
,
0430
0000
0000
0000
0000
0000
0000
0000
0000
0300
0000
0000
1001
0000
0000
4000
0000
0000
3001
0100
0010
1000
0000
0000
,
0101
0010
0M00
0010
1000
0000
1000
0000
0011
0100
000M
0100
1000
0000
1000
0000
,
0101
0000
0000
0010
0000
0000
0M00
0000
0000
0010
0000
0000
0100
0000
0000
0000
0000
0000
0001
0000
0000
0000
0000
0000
1001
0000
0000
0000
0000
0000
4000
0000
0000
0000
0000
0000
3001
0000
0010
0000
0100
0000
1000
0000
0000
0000
0000
0000
,
0012
0103
1002
0013
0102
0013
1002
0103
,
0001
1000
0010
1000
0001
0010
0100
1000
0001
0010
0001
1000
0002
0000
0000
4003
0000
0000
3001
0010
0100
1000
0000
0000
,
0100
0000
0000
00M0
0000
0000
0100
0000
0000
0000
0000
0000
0001
0000
0000
0000
0000
0000
0000
0000
0000
0000
0000
0000
0010
0000
0000
0000
0100
0000
0000
0000
1000
0000
0000
0000
0002
0000
0000
0000
0000
0000
0000
0000
0000
0000
0000
0000
0103
0000
0000
00M0
0000
0000
0100
0000
0000
0000
0000
0000
1000
0000
0000
0000
0000
0000
0000
0000
0000
0000
0000
0000
0100
0000
0000
0000
0010
0000
0000
0000
0001
0000
0000
0000
1000
0000
0000
0000
0000
0000
0000
0000
0000
0000
0000
0000
,
0010
0M00
0010
0000
0001
0000
0000
0000
0100
0000
0000
0000
0010
0000
0000
0000
1000
0000
0010
0000
0100
0000
0001
0000
0010
0000
0001
0000
1000
0000
0100
0000
,
0010
0100
1000
0001
0100
0010
1000
0100
1000
0010
1000
0100
0010
0001
1000
0100
,
0010
0100
1000
0001
0100
0010
1000
0100
2010
0000
0000
0000
3000
0000
0000
0000
;

//--------------- dance-single - Tournament Beta Version ----------------
#NOTEDATA:;
#STEPSTYPE:dance-single;
#DESCRIPTION:Tournament Beta Version;
#DIFFICULTY:Edit;
#METER:12;
#RADARVALUES:0.9206,0.972989,0.640651,0.405118,1.139982,684,616,68,43,28,4,14,0,0,0.9206,0.972989,0.640651,0.405118,1.139982,684,616,68,43,28,4,14,0,0;
#CHARTNAME:BR FS BU JA XO DS- BT-;
#CHARTSTYLE:;
#CREDIT:Maractus;
#NOTES:
0000
0000
0000
0000
,
0000
0000
0000
0000
,
0000
0000
0000
0000
,
0000
0000
0000
0000
,
0000
0000
0000
0000
0000
0000
0000
0000
0000
0000
0000
0000
0000
0000
0000
0000
0000
0000
0000
0000
0000
0000
0000
0000
0001
0000
0000
0000
0000
0000
0000
0000
0000
0000
0000
0000
1000
0000
0000
0000
0000
0000
0001
0000
0000
0100
0000
0000
0001
0000
0000
0000
0000
0000
0000
0000
0000
0000
0000
0000
0100
0000
0000
0000
00M0
0000
0000
0000
0100
0000
0000
0000
1000
0000
0000
0000
0000
0000
0000
0000
0000
0000
0000
0000
0010
0000
0000
0000
0M00
0000
0000
0000
0010
0000
0000
0000
,
0001
0000
1000
0002
0000
0000
0010
0000
0000
1000
0000
0000
0103
0000
0000
0010
0M00
0010
0001
0000
0000
0100
00M0
0100
,
1000
0000
0001
2000
0000
0000
0010
0000
0000
0001
0000
0000
3100
0000
0000
0010
0M00
0010
1000
0000
0000
0100
00M0
0100
,
0001
0000
1000
0002
0000
0000
0100
0000
0000
1000
0000
0000
0013
0000
0000
0100
00M0
0100
0001
0000
0000
0010
0M00
0010
,
1000
0000
0000
0000
0001
0000
2000
0000
0000
0000
0000
0000
0100
0000
0000
0000
0000
0000
0001
0000
0000
0000
0000
0000
3010
0000
0000
0100
0000
0000
0000
0000
0000
0000
0000
0000
0010
0000
0000
1000
0000
0000
0000
0000
0000
0000
0000
0000
,
0100
0010
0000
0000
0001
0100
0000
0000
0001
0000
0010
0000
0001
0000
0100
0000
,
0010
0000
1000
0000
0100
0000
1000
0000
0001
1000
0100
0010
0001
1000
0010
0100
,
0001
0010
0100
1000
0001
0100
0010
1000
0002
0000
0003
0000
0002
0000
0003
0000
,
0001
0010
0100
0000
1000
0010
0100
0000
1001
0000
0004
0000
1003
0100
00M0
1100
,
0011
0000
0100
0000
0001
0100
00M0
0101
1010
0000
0100
0000
1000
0100
00M0
1100
,
0011
0000
0000
0100
0000
0000
0001
0100
0010
0100
0001
1000
0101
0000
0000
1000
0010
0100
0001
0000
0000
0010
0000
0000
,
0002
1000
0023
0100
0032
0010
0203
0010
,
0302
0000
0000
0000
0000
0000
0100
0000
0000
0000
0000
0000
1003
0000
0100
0000
0010
0000
0001
0000
0000
0000
0000
0000
1001
0000
0000
0000
0000
0000
4000
0000
0000
0000
0000
0000
3001
0000
0000
0010
0000
0000
0M00
0000
0000
0011
0000
0000
,
1100
0000
0010
0000
1000
0001
0000
1010
0101
0000
0010
0000
0001
1000
0000
0011
,
1100
0000
0000
0010
0000
0000
1000
0010
0100
0010
1000
0001
1100
0000
0000
0001
0010
0100
1000
0000
0000
0010
0000
0000
,
2000
0001
3020
0100
2030
0010
3200
0000
,
0340
0000
0000
0000
0000
0000
0000
0000
0000
0030
0000
0000
1001
0000
0000
4000
0000
0000
3001
0100
0010
1000
0000
0000
,
0010
0100
0000
0100
0000
0001
0000
0001
0000
1000
0000
1000
0000
0100
0000
0100
,
0000
0000
0000
0010
0000
0000
0000
0000
0000
0010
0000
0000
0001
0000
0000
0000
0000
0000
0100
0000
0000
0000
0000
0000
1001
0000
0000
0000
0000
0000
4000
0000
0000
0000
0000
0000
3001
0000
0010
0000
0100
0000
1000
0000
0000
0000
0000
0000
,
0102
0013
1002
0103
0012
0103
1002
0013
,
0001
1000
0100
1000
0001
0100
0010
1000
0001
0100
0001
1000
0002
0000
0000
4003
0000
0000
3001
0100
0010
1000
0000
0000
,
0100
0000
0000
0010
0000
0000
1000
0000
0000
0000
0000
0000
0010
0000
0100
0000
1000
0000
0002
0000
0000
0000
0000
0000
0013
0000
0000
0100
0000
0000
0001
0000
0000
0000
0000
0000
0100
0000
0010
0000
0001
0000
1000
0000
0000
0000
0000
0000
,
0010
0100
1000
0000
0100
0000
0010
0000
1000
0100
0010
0001
0100
0001
1000
0010
,
0100
0010
1000
0001
0010
0100
1000
0010
1000
0100
1000
0010
0100
0001
1000
0010
,
0100
0010
1000
0001
0010
0100
1000
0010
1100
0000
0001
0010
0100
M100
0001
0000
,
1010
0000
0001
1000
0100
01M0
0000
0000
0001
0000
1000
1000
0100
01M0
0001
1000
,
0011
0000
1000
0001
0100
01M0
0000
0000
1010
0000
0002
0000
0000
0013
0M00
0010
,
1000
0000
0001
1000
0010
0M10
0000
0000
0001
0000
1000
1000
0010
0M10
0001
1000
,
0101
0000
1000
0001
0040
0000
0000
0030
0101
0000
2000
0000
3000
0000
0001
0000
,
1010
0000
0001
0000
2100
0000
3000
0000
0001
0001
0010
0M10
1000
0000
0001
0100
,
0011
0000
1000
0000
2000
0000
3000
0000
0001
0001
0100
01M0
1000
0000
0001
0010
,
0101
0000
1000
0000
1000
0000
0010
0100
0001
0000
0001
0010
0100
1000
0010
001M
,
0400
0000
0000
0000
0000
0000
0000
0000
0000
0000
0000
0000
0300
0000
0000
0000
1010
0000
0000
0000
0000
0000
0101
0000
0000
0000
0000
0000
1000
0100
1000
0000
,
0000
0010
1000
0000
0000
0010
0100
0000
0011
0000
0000
1100
0000
0000
0011
0000
,
1000
0000
0000
0000
1000
0000
0000
0000
1000
0000
0001
0000
0010
0000
0000
0000
0010
0000
0000
0000
0010
0000
0000
0000
0101
0000
0000
0000
0000
0000
0000
0000
0000
1010
0000
0000
0000
0000
0000
0000
0000
0000
0101
0000
0000
1000
0000
0000
,
0010
0000
1000
0010
0000
1000
0010
0000
1100
0000
0000
0011
0000
0000
2100
0000
,
0000
0000
0000
0000
0001
0000
0000
0000
0100
0000
0000
0000
0001
0000
0000
0000
0000
0000
0000
0000
0000
0000
0000
0000
3010
0000
0000
0100
0000
0000
0000
0000
0000
0000
0000
0000
0010
0000
0000
1000
0000
0000
0000
0000
0000
0000
0000
0000
,
0100
0010
0000
0000
0001
0100
0000
0000
0001
0000
0010
0000
0001
0000
0100
0000
,
0010
0000
1000
0000
0100
0000
1000
0000
0001
1000
0100
0010
0001
1000
0010
0100
,
0001
0010
0100
1000
0001
0100
0010
1000
0002
0000
1003
0100
1000
0001
1000
0100
,
1000
0001
0100
0001
1000
0001
0010
0001
1100
0000
0004
0000
1003
0100
00M0
0100
,
0001
0000
0000
0000
0000
0000
1000
0000
0000
0000
0000
0000
0001
0000
0000
0010
0000
0000
0M00
0000
0000
0010
0000
0000
1000
0000
0000
0000
0000
0000
0001
0000
0000
0000
0000
0000
1000
0000
0000
0010
0000
0000
0100
0000
0001
0000
0100
0000
,
0011
0000
0000
1000
0000
0000
0001
0000
0000
0000
0000
0000
1000
0000
0100
0000
0000
0000
0010
0000
0001
0000
0000
0000
1010
0000
0000
0000
0000
0000
0001
0000
0100
0000
0010
0000
1000
0000
0000
0000
0000
0000
0100
0000
0000
0000
0000
0000
,
2000
0101
3002
1100
2003
0011
3002
1010
,
2003
0000
0000
0000
0000
0000
0010
0000
0000
0000
0000
0000
3001
0000
0010
0000
0100
0000
1000
0000
0000
0000
0000
0000
1001
0000
0000
0000
0000
0000
0004
0000
0000
0000
0000
0000
1003
0000
0000
0100
0000
0000
00M0
0000
0000
1100
0000
0000
,
0011
0000
0100
0000
0001
1000
0000
0101
1010
0000
0100
0000
1000
0001
0000
1100
,
0011
0000
0000
0100
0000
0000
0001
0100
0010
0100
0001
1000
0011
0000
0000
1000
0100
0010
0001
0000
0000
0100
0000
0000
,
0002
1000
0203
0010
0302
0100
0023
0000
,
0430
0000
0000
0000
0000
0000
0000
0000
0000
0300
0000
0000
1001
0000
0000
4000
0000
0000
3001
0100
0010
1000
0000
0000
,
0101
0010
0M00
0010
1000
0000
1000
0000
0011
0100
000M
0100
1000
0000
1000
0000
,
0101
0000
0000
0010
0000
0000
0M00
0000
0000
0010
0000
0000
0100
0000
0000
0000
0000
0000
0001
0000
0000
0000
0000
0000
1001
0000
0000
0000
0000
0000
4000
0000
0000
0000
0000
0000
3001
0000
0010
0000
0100
0000
1000
0000
0000
0000
0000
0000
,
0012
0103
1002
0013
0102
0013
1002
0103
,
0001
1000
0010
1000
0001
0010
0100
1000
0001
0010
0001
1000
0002
0000
0000
4003
0000
0000
3001
0010
0100
1000
0000
0000
,
0100
0000
0000
0010
0000
0000
1000
0000
0000
0000
0000
0000
0010
0000
0100
0000
1000
0000
0002
0000
0000
0000
0000
0000
0013
0000
0000
0100
0000
0000
0001
0000
0000
0000
0000
0000
0100
0000
0010
0000
0001
0000
1000
0000
0000
0000
0000
0000
,
0010
0100
1000
0000
0100
0000
0010
0000
1000
0010
0100
0001
0010
0001
1000
0100
,
0010
0100
1000
0001
0100
0010
1000
0100
1000
0010
1000
0100
0010
0001
1000
0100
,
0010
0100
1000
0001
0100
0010
1000
0100
2010
0000
0000
0000
3000
0000
0000
0000
;

//--------------- dance-double - BR FS BU JA XO DS- BT- ----------------
#NOTEDATA:;
#STEPSTYPE:dance-double;
#DESCRIPTION:BR FS BU JA XO DS- BT-;
#DIFFICULTY:Challenge;
#METER:13;
#RADARVALUES:0,0,0,0,0;
#NOTES:
00000000
00000000
00000000
00000000
,
00000000
00000000
00000000
00000000
,
00000000
00000000
00000000
00000000
,
00000000
00000000
00000000
00000000
,
00000000
00000000
00000000
00000000
00000000
00000000
00000000
00000000
00000000
00000000
00000000
00000000
00000000
00000000
00000000
00000000
00000000
00000000
00000000
00000000
00000000
00000000
00000000
00000000
00010000
00000000
00000000
00000000
00000000
00000000
00000000
00000000
00000000
00000000
00000000
00000000
00001000
00000000
00000000
00000000
00000000
00000000
01000000
00000000
00000000
00010000
00000000
00000000
01000000
00000000
00000000
00000000
00000000
00000000
00000000
00000000
00000000
00000000
00000000
00000000
00100000
00000000
00000000
00000000
000M0000
00000000
00000000
00000000
00100000
00000000
00000000
00000000
00001000
00000000
00000000
00000000
00000000
00000000
00000000
00000000
00000000
00000000
00000000
00000000
01000000
00000000
00000000
00000000
000M0000
00000000
00000000
00000000
01000000
00000000
00000000
00000000
,
10000000
00000000
00010000
00200000
00000000
00000000
00010000
00000000
00000000
00001000
00000000
00000000
00300100
00000000
00000000
00000010
0000M000
00000010
00010000
00000000
00000000
00000100
0000M000
00000100
,
00000001
00000000
00001000
00000020
00000000
00000000
00001000
00000000
00000000
00010000
00000000
00000000
00100030
00000000
00000000
01000000
000M0000
01000000
00001000
00000000
00000000
00100000
000M0000
00100000
,
10000000
00000000
00010000
02000000
00000000
00000000
00010000
00000000
00000000
00001000
00000000
00000000
03000010
00000000
00000000
00000100
0000M000
00000100
00010000
00000000
00000000
00000010
0000M000
00000010
,
00000001
00000000
00000000
00000000
00001000
00000000
00000200
00000000
00000000
00000000
00000000
00000000
00001000
00000000
00000000
00000000
00000000
00000000
00010000
00000000
00000000
00000000
00000000
00000000
01000300
00000000
00000000
00100000
00000000
00000000
00000000
00000000
00000000
00000000
00000000
00000000
10000000
00000000
00000000
01000000
00000000
00000000
00000000
00000000
00000000
00000000
00000000
00000000
,
00100000
00010000
00000000
00000000
01000000
00001000
00000000
00000000
00010000
00000000
00000010
00000000
00000100
00000000
00000001
00000000
,
00000010
00000000
00000100
00000000
00010000
00000000
00001000
00000000
00010000
00001000
00100000
01000000
10000000
00010000
01000000
00100000
,
10000000
01000000
00100000
00010000
10000000
00100000
01000000
00001000
00020000
00000000
00030000
00000000
00020000
00000000
00030000
00000000
,
00001000
00010000
00000100
00000000
01000000
00001000
00010000
00000000
00011000
00000000
00004000
00000000
00013000
00000100
000000M0
00001100
,
00000011
00000000
00010000
00000000
00001000
01000000
00M00000
01010000
10100000
00000000
00001000
00000000
00010000
00000010
00000M00
00001010
,
00000101
00000000
00000000
00010000
00000000
00000000
00001000
00010000
00000100
00010000
00001000
01000000
00011000
00000000
00000000
01000000
00001000
00010000
00000100
00000000
00000000
00100000
00000000
00000000
,
00002000
01000000
00023000
00000100
00032000
00100000
00023000
00000010
,
00032000
00000000
00000000
00000000
00000000
00000000
01000000
00000000
00000000
00000000
00000000
00000000
00013000
00000000
00000100
00000000
00100000
00000000
00001000
00000000
00000000
00000000
00000000
00000000
00011000
00000000
00000000
00000000
00000000
00000000
00004000
00000000
00000000
00000000
00000000
00000000
00013000
00000000
00000000
00000100
00000000
00000000
000000M0
00000000
00000000
00001100
00000000
00000000
,
00000011
00000000
00010000
00000000
00001000
00010000
00000000
00000101
00001010
00000000
00000100
00000000
00010000
00001000
00000000
11000000
,
00110000
00000000
00000000
01000000
00000000
00000000
00001000
00010000
00000100
00010000
00001000
01000000
00011000
00000000
00000000
01000000
00001000
00010000
00000100
00000000
00000000
00100000
00000000
00000000
,
00002000
00100000
00023000
00000010
00032000
01000000
00023000
00000000
,
00030400
00000000
00000000
00000000
00000000
00000000
00000000
00000000
00000000
00000000
00000000
00000000
00000000
00000000
00000000
00000000
00000000
00000000
00000000
00000000
00000000
00000300
00000000
00000000
00011000
00000000
00000000
00000000
00000000
00000000
00040000
00000000
00000000
00000000
00000000
00000000
00031000
00000000
00100000
00000000
00000100
00000000
00010000
00000000
00000000
00000000
00000000
00000000
,
00001000
00100000
00000000
00100000
01000000
10000000
00000000
10000000
00100000
01000000
00000000
01000000
00001000
00010000
00000000
00010000
,
00000010
00000000
00000000
00001000
00000000
00000000
00000000
00000000
00000000
00001000
00000000
00000000
00000100
00000000
00000000
00000000
00000000
00000000
00010000
00000000
00000000
00000000
00000000
00000000
00011000
00000000
00000000
00000000
00000000
00000000
00004000
00000000
00000000
00000000
00000000
00000000
00013000
00000000
00000010
00000000
00000100
00000000
00000001
00000000
00000000
00000000
00000000
00000000
,
00002100
00003010
00002001
00003100
00002010
00003100
00002001
00003010
,
00001000
00000001
00000100
00000001
00001000
00000100
00000010
00000001
00001000
00000001
00000010
00000100
00020000
00000000
00000000
00034000
00000000
00000000
00013000
00000010
00000100
00000001
00000000
00000000
,
00000100
00000000
00000000
00000010
00000000
00000000
00000002
00000000
00000000
00000000
00000000
00000000
00000013
00000000
00000100
00000000
00000001
00000000
00002000
00000000
00000000
00000000
00000000
00000000
00003100
00000000
00000000
00000010
00000000
00000000
00002000
00000000
00000000
00000000
00000000
00000000
00003010
00000000
00000100
00000000
00001000
00000000
00000001
00000000
00000000
00000000
00000000
00000000
,
00000100
00000010
00000002
00000000
00000013
00000000
00020000
00000000
00031000
01000000
00100000
10000000
00010000
00100000
00001000
00100000
,
00010000
01000000
00010000
00100000
00001000
00010000
00000100
00010000
00001000
00100000
01000000
10000000
00010000
01000000
00001000
01000000
,
00010000
00000000
00100000
00000000
00010000
00000000
01000000
00000000
00001000
00000000
00010000
00000000
00000010
00000000
00010000
00000000
00001010
00000000
00000000
00000000
00010000
00000000
00000010
00000000
00000100
0000000M
00000100
00000000
00001000
00000000
00000000
00000000
,
00000011
00000000
00000000
00000000
00001000
00000000
00000001
00000000
00000100
000000M0
00000100
00000000
00000000
00000000
00000000
00000000
00010000
00000000
00000000
00000000
00001000
00000000
00001000
00000000
01000000
00M00000
01000000
00000000
10000000
00000000
00010000
00000000
,
10100000
00000000
00000000
00000000
00010000
00000000
10000000
00000000
01000000
00M00000
01000000
00000000
00000000
00000000
00000000
00000000
00110000
00000000
00000000
00000000
20000000
00000000
00000000
00000000
00000000
00000000
30100000
00000000
0M000000
00000000
00100000
00000000
,
00001000
00000000
00000000
00000000
00010000
00000000
00000100
00000000
00000010
0000000M
00000010
00000000
00000000
00000000
00000000
00000000
00010000
00000000
00000000
00000000
00001000
00000000
00001000
00000000
00100000
0M000000
00100000
00000000
10000000
00000000
00010000
00000000
,
11000000
00000000
00010000
00100000
00004000
00000000
00000000
00000000
10103000
00000000
00000200
00000000
00000000
00000000
00010300
00000000
,
00001010
00000000
00000000
00000000
00010000
00000000
00000000
00000000
00000102
00000000
00000000
00000000
00000003
00000000
00000000
00000000
00010000
00000000
00010000
00000000
00000010
00000M00
00000010
00000000
00000001
00000000
00000000
00000000
00001000
00000000
00000100
00000000
,
00110000
00000000
00000000
00000000
00001000
00000000
00000000
00000000
00002000
00000000
00000000
00000000
00003000
00000000
00000000
00000000
21000000
00000000
00000000
00000000
30100000
000M0000
00100000
00000000
00000100
00000000
00000000
00000000
00000010
0000000M
00000010
00000000
,
00110000
00000000
00000000
00000000
00001000
00000000
00000000
00000000
00010000
00000000
00000000
00000000
00000100
00000000
00000010
00000000
00000001
00000000
00000000
00000000
00000001
00000000
00000100
00000000
00000010
00000000
00010000
00000000
00000100
0000M000
00000100
00000000
,
00000040
00000000
00000000
00000000
00000000
00000000
00000000
00000000
00000000
00000000
00000000
00000000
00000030
00000000
00000000
00000000
00001100
00000000
00000000
00000000
00000000
00000000
00000011
00000000
00000000
00000000
00000000
00000000
00001000
00000000
00000100
00010000
,
00000100
00000000
00010000
00000100
00000000
00000100
00000010
00000000
00000101
00000000
00000000
00001010
00000000
00000000
00000101
00000000
,
00010000
00000000
00000000
00000000
00010000
00000000
00000000
00000000
00010000
00000000
00001000
00000000
01000000
00000000
00000000
00000000
01000000
00000000
00000000
00000000
01000000
00000000
00000000
00000000
00110000
00000000
00000000
00000000
00000000
00000000
00000000
00000000
00000000
11000000
00000000
00000000
00000000
00000000
00000000
00000000
00000000
00000000
00110000
00000000
00000000
10000000
00000000
00000000
,
01000000
00000000
10000000
01000000
00000000
10000000
01000000
00000000
10100000
00000000
00000000
01010000
00000000
00000000
20100000
00000000
,
00000000
00000000
00000000
00000000
00010000
00000000
00000000
00000000
00100000
00000000
00000000
00000000
00010000
00000000
00000000
00000000
00000000
00000000
00000000
00000000
00000000
00000000
00000000
00000000
30100000
00000000
00000000
01000000
00000000
00000000
00000000
00000000
00000000
00000000
00000000
00000000
00100000
00000000
00000000
00010000
00000000
00000000
00000000
00000000
00000000
00000000
00000000
00000000
,
00000100
00010000
00000000
00000000
00001000
00100000
00000000
00000000
00001000
00000000
01000000
00000000
00100000
00000000
10000000
00000000
,
01000000
00000000
00100000
00000000
00001000
00000000
00010000
00000000
00001000
00010000
00000100
00000010
00000001
00001000
00000010
00000100
,
00000001
00000010
00000100
00001000
00000001
00000100
00000010
00010000
00002000
00000000
00013000
00001000
00010000
00000100
00010000
00001000
,
00010000
00000100
00010000
00001000
00010000
00000100
00010000
00001000
00110000
00000000
00004000
00000000
10000000
01003000
00M00000
01000000
,
00001000
00000000
00000000
00000000
00000000
00000000
00010000
00000000
00000000
00000000
00000000
00000000
00000001
00000000
00000000
00000100
00000000
00000000
0000M000
00000000
00000000
00000100
00000000
00000000
00010000
00000000
00000000
00000000
00000000
00000000
00001000
00000000
00000000
00000000
00000000
00000000
00010000
00000000
00000000
00000100
00000000
00000000
00010000
00000000
00001000
00000000
00010000
00000000
,
00001010
00000000
00000000
00000100
00000000
00000000
00000001
00000000
00000000
00000000
00000000
00000000
00001000
00000000
00000010
00000000
00000000
00000000
00010000
00000000
00000100
00000000
00000000
00000000
00110000
00000000
00000000
00000000
00000000
00000000
00000010
00000000
00010000
00000000
00001000
00000000
00100000
00000000
00000000
00000000
00000000
00000000
00001000
00000000
00000000
00000000
00000000
00000000
,
00020000
00000101
00032000
11000000
00023000
00001010
00032000
00110000
,
00023000
00000000
00000000
00000000
00000000
00000000
00000010
00000000
00000000
00000000
00000000
00000000
00031000
00000000
00100000
00000000
00000100
00000000
00010000
00000000
00000000
00000000
00000000
00000000
00011000
00000000
00000000
00000000
00000000
00000000
00040000
00000000
00000000
00000000
00000000
00000000
00031000
00000000
00000000
00100000
00000000
00000000
0M000000
00000000
00000000
00110000
00000000
00000000
,
11000000
00000000
00001000
00000000
00010000
00001000
00000000
10100000
01010000
00000000
00100000
00000000
00001000
00010000
00000000
00000011
,
00001100
00000000
00000000
00000010
00000000
00000000
00010000
00001000
01000000
00001000
00010000
00000100
00011000
00000000
00000000
00000100
00010000
00001000
01000000
00000000
00000000
00000010
00000000
00000000
,
00020000
00000100
00032000
01000000
00023000
00000010
00032000
00000000
,
00403000
00000000
00000000
00000000
00000000
00000000
00000000
00000000
00000000
00000000
00000000
00000000
00000000
00000000
00000000
00000000
00000000
00000000
00000000
00000000
00000000
00300000
00000000
00000000
00011000
00000000
00000000
00000000
00000000
00000000
00040000
00000000
00000000
00000000
00000000
00000000
00031000
00000000
00100000
00000000
00000100
00000000
00010000
00000000
00000000
00000000
00000000
00000000
,
00001010
01000000
000M0000
01000000
10000000
00000000
10000000
00000000
00110000
01000000
0000M000
01000000
10000000
00000000
10000000
00000000
,
01010000
00000000
00000000
00100000
00000000
00000000
M0000000
00000000
00000000
00100000
00000000
00000000
01000000
00000000
00000000
00000000
00000000
00000000
00001000
00000000
00000000
00000000
00000000
00000000
00011000
00000000
00000000
00000000
00000000
00000000
00040000
00000000
00000000
00000000
00000000
00000000
00031000
00000000
00100000
00000000
01000000
00000000
10000000
00000000
00000000
00000000
00000000
00000000
,
01020000
00130000
10020000
01030000
00120000
01030000
10020000
00130000
,
00010000
10000000
01000000
10000000
00010000
00100000
01000000
10000000
00010000
10000000
01000000
00100000
00002000
00000000
00000000
00043000
00000000
00000000
00031000
00100000
01000000
10000000
00000000
00000000
,
01000000
00000000
00000000
00M00000
00000000
00000000
01000000
00000000
00000000
00000000
00000000
00000000
00010000
00000000
00000000
00000000
00000000
00000000
00000000
00000000
00000000
00000000
00000000
00000000
00100000
00000000
00000000
00000000
01000000
00000000
00000000
00000000
10000000
00000000
00000000
00000000
00020000
00000000
00000000
00000000
00000000
00000000
00000000
00000000
00000000
00000000
00000000
00000000
01030000
00000000
00000000
00M00000
00000000
00000000
01000000
00000000
00000000
00000000
00000000
00000000
10000000
00000000
00000000
00000000
00000000
00000000
00000000
00000000
00000000
00000000
00000000
00000000
01000000
00000000
00000000
00000000
00100000
00000000
00000000
00000000
00010000
00000000
00000000
00000000
10000000
00000000
00000000
00000000
00000000
00000000
00000000
00000000
00000000
00000000
00000000
00000000
,
00100000
0M000000
00100000
00000000
00010000
00000000
00000000
00000000
01000000
00000000
00000000
00000000
00001000
00000000
00000000
00000000
00010000
00000000
00000100
00000000
00000010
00000000
00000001
00000000
00001000
00000000
00000010
00000000
00010000
00000000
00000010
00000000
,
00001000
00000100
00001000
00000010
00010000
00001000
01000000
00001000
00010000
00000010
00000100
00000001
00001000
00000100
00010000
00000100
,
00001000
00000010
00001000
00000100
00010000
00001000
00100000
00001000
00120000
00000000
00000000
00000000
00030000
00000000
00000000
00000000
;
