#VERSION:0.83;
#TITLE:OCO LIMBO;
#SUBTITLE:;
#ARTIST:MYUKKE;
#TITLETRANSLIT:;
#SUBTITLETRANSLIT:;
#ARTISTTRANSLIT:;
#GENRE:;
#CREDIT:Maractus;
#MUSIC:song.ogg;
#BANNER:bn.png;
#BACKGROUND:bg-wide.png;
#CDTITLE:;
#SAMPLESTART:18.927000;
#SAMPLELENGTH:18.300000;
#SELECTABLE:YES;
#OFFSET:-0.623000;
#BPMS:0.000000=105.000000;
#STOPS:;
#SPEEDS:0.000000=1.000000=0.000000=0;
#SCROLLS:0.000000=1.000000;
#TICKCOUNTS:0.000000=4;
#TIMESIGNATURES:0.000000=4=4;
#LABELS:0.000000=Song Start;
#COMBOS:0.000000=1;
#ORIGIN:;
#TAGS:;
#PREVIEWVID:;
#JACKET:;
#CDIMAGE:;
#DISCIMAGE:;
#BGCHANGES:;
#FGCHANGES:;

//--------------- dance-single - XB BR XO BU ----------------
#NOTEDATA:;
#STEPSTYPE:dance-single;
#DESCRIPTION:XB BR XO BU;
#DIFFICULTY:Challenge;
#METER:10;
#RADARVALUES:0.729286,0.729968,0.715655,0.429393,1.184806,642,552,90,54,0,3,41,0,0,0.729286,0.729968,0.715655,0.429393,1.184806,642,552,90,54,0,3,41,0,0;
#CHARTNAME:XB More Like DS;
#CHARTHASH:968030548;
#BANNER:;
#CHARTSTYLE:;
#LASTSECONDHINT:124.042572;
#CREDIT:Maractus;
#NOTES:
0000
0000
0000
0000
,
0000
0000
0000
0000
,
1000
0000
0000
0010
0000
0000
0200
0000
0000
0000
0300
0001
1000
0000
0010
0000
0000
0001
0000
0000
1000
0100
0000
0001
,
0010
0000
0000
0100
0000
0000
2000
0000
0000
0000
0000
0000
3001
0000
0100
0001
0000
0010
0000
0000
0001
1000
0000
0000
,
0100
0000
0000
0010
0000
0000
1000
0000
0000
0010
0000
0000
0100
0000
0000
1000
0000
0101
0000
0000
1000
0011
0000
1000
,
0100
0000
1000
0010
0000
0000
1000
0000
0000
0100
0000
0000
0010
0000
0000
0001
0000
1100
0000
0000
0001
1010
0000
0000
,
0002
0000
0000
0003
0000
0000
1000
0000
0000
0001
0000
0100
0010
0000
0000
1000
0000
0101
0000
0000
1000
0011
0000
1000
,
0100
0010
0001
1000
0001
0100
0010
0000
0000
1000
0000
0000
0100
0000
0000
1000
0000
2002
0000
0000
0000
0000
3003
0000
,
1000
0000
0000
0010
0000
0000
2100
0000
0000
0000
0000
3001
1000
0000
0400
0000
0300
1010
0000
0000
0001
0100
0000
0010
,
1000
0000
0000
0400
0000
0300
4010
0000
0000
3000
0000
0001
0400
0000
0000
0300
0000
0014
0000
0003
1000
0104
0000
0000
,
1003
0000
0000
0100
0000
0000
2010
0000
0000
0000
0000
3001
1000
0000
0040
0000
0030
1100
0000
0000
0001
0010
0000
0100
,
1000
0000
0000
0040
0000
0030
4100
0000
0000
3000
0000
0000
0001
0000
1000
0100
0000
1010
0000
0000
0001
1010
0000
0000
,
0001
0000
0000
0100
0000
0000
0012
0000
0000
0000
0000
1003
0001
0000
0040
0000
0030
0101
0000
0000
1000
0100
0000
0010
,
0001
0000
0000
0040
0000
0030
0104
0000
0000
0003
0000
1000
0040
0000
0000
0030
0000
4100
0000
3000
0001
4010
0000
0000
,
3001
0000
0000
0010
0000
0000
0102
0000
0000
0000
0000
1003
0001
0000
0400
0000
0300
0011
0000
0000
1000
0010
0000
0100
,
0001
0000
0000
0400
0000
0300
0014
0000
0000
0003
0000
0000
1000
0000
0001
0010
0000
0101
0000
0000
1000
0101
0000
0000
,
1000
0000
0000
0100
0000
0000
0010
0000
0001
0100
0000
0010
0000
0000
1000
0100
0000
1000
0000
0000
0010
0100
0000
0001
,
0000
0000
0000
0100
0000
0000
0010
0000
0000
0001
0000
0000
0010
0000
0000
0100
0000
0001
0000
0000
1000
0100
0000
0001
,
1000
0000
0010
0001
0000
0000
1000
0000
0001
0010
0000
0001
1000
0000
0010
1000
0000
0001
0100
0010
1000
0001
1000
0100
,
0010
0000
0001
0000
1000
0000
0020
0000
0000
0030
0000
0000
1000
0000
0000
0000
0000
0000
0001
0000
0000
0000
0000
0000
1000
0000
0000
0000
0001
0000
0100
0000
0000
0000
0002
0000
0000
0000
0000
0000
0000
0000
0000
0000
0000
0000
0000
0000
,
0013
0000
0001
1000
0000
0000
0102
0000
0000
2003
0000
3100
0010
0000
0000
0001
0000
0400
0000
0300
0001
4100
0000
3000
,
0001
0000
0100
0001
0000
0000
1010
0000
0001
0010
0000
0001
4000
3000
0001
0100
0000
2000
0000
3000
0001
0010
0000
1000
,
0001
0000
0010
1000
0000
0000
0011
0000
0000
0100
0000
1000
0004
0000
0000
0013
0000
0101
0000
0000
0010
0001
0000
0000
,
0100
0010
0000
4000
0000
0000
3011
0000
0100
0001
0000
0010
0100
0000
1000
0010
0000
4000
0000
3000
0001
0010
0000
1000
,
0001
0000
0100
1000
0000
0000
0012
0000
0000
2003
0000
3010
0100
0000
0000
0001
0000
0040
0000
0030
0001
4010
0000
3000
,
0001
0000
0010
0001
0000
0000
1100
0000
0001
0100
0000
0001
4000
3000
0001
0010
0000
2000
0000
3000
0001
0100
0000
1000
,
0001
0000
0100
1000
0000
0000
0101
0000
0000
0010
0000
1000
0001
0000
0010
0000
0000
0101
0000
0000
1000
0010
0000
0001
,
1000
0000
0000
0100
0000
0001
2010
0000
0000
0000
3000
0000
0001
0000
1000
0010
0000
1100
0000
0000
0001
1100
0000
0000
,
0001
0000
1000
0100
0000
1000
0002
0000
0000
0000
0000
0000
0000
0000
0000
0000
0000
0000
0010
0000
0000
0000
0000
0000
,
0000
0000
0000
1003
0000
0100
2000
0000
0000
0000
0000
0000
0000
0000
0000
3020
0000
0000
0230
0000
0000
0000
0000
0000
,
0000
0000
0000
0302
0000
0000
1003
0000
1000
0010
0000
0100
0010
0000
2000
0000
3000
0002
0000
0003
1000
0001
0000
0100
,
0002
0000
0000
0023
0000
0000
0130
0000
1000
0010
0000
0010
0100
0000
0001
0010
0000
0010
0100
0000
1000
0010
0000
0010
,
0200
0000
0000
0302
0000
0000
1103
0000
0000
0000
0000
0010
1000
0000
0100
0000
0000
1010
0000
0000
0100
1010
0000
0001
,
1100
0000
0000
0001
0000
0000
1010
0000
0000
0000
0000
0001
0200
0000
0300
0000
0000
0011
0000
0000
1000
0101
0000
0000
,
0020
0000
0000
0032
0000
0000
1013
0000
0000
0001
0000
1000
0101
0000
1000
0011
0000
1100
0000
0000
0001
1100
0000
0001
,
0100
0010
1000
0001
1000
0100
0020
0000
0000
0030
0000
0000
0001
0000
0100
0001
0000
2002
0000
0000
0000
0000
3003
0000
,
1000
0000
0000
0001
0000
0000
2010
0000
0000
0000
3000
0001
1000
0000
0400
0000
0300
1010
0000
0000
0001
0100
0000
0010
,
1000
0000
0000
0400
0000
0300
4010
0000
3000
0001
0000
0010
0100
0001
0100
0010
0000
0101
0000
0000
1000
0101
0000
1000
,
0010
0000
1000
0001
0000
0000
2100
0000
0000
0000
0000
3001
1000
0000
0400
0000
0300
1010
0000
0000
0001
0100
0000
0010
,
1000
0000
0000
0400
0000
0300
4010
0000
0000
3000
0000
0000
0001
0000
1000
0010
0000
1100
0000
0000
0001
1100
0000
0000
,
0001
0000
0000
1000
0000
0000
0102
0000
0000
0000
0003
1000
0001
0000
0040
0000
0030
0101
0000
0000
1000
0010
0000
0100
,
0001
0000
0000
0040
0000
0030
0104
0000
0003
1000
0000
0010
0100
1000
0100
0010
0000
1100
0000
0000
0001
1010
0000
0001
,
0100
0000
0001
1000
0000
0000
0012
0000
0000
0000
0000
1003
0001
0000
0040
0000
0030
0101
0000
0000
1000
0010
0000
0100
,
0001
0000
0000
0040
0000
0030
0104
0000
0000
0003
0000
0000
1000
0000
0001
0100
0000
0011
0000
0000
1000
0011
0000
0000
,
1000
0000
0000
0001
0000
0000
0010
0000
0010
0100
0000
1000
0001
0000
0001
0010
0000
0102
0000
0003
0010
0100
0000
0100
,
2000
0000
3001
0100
0010
2000
0000
3000
0000
0010
0000
0010
0100
0000
0001
1000
0000
0014
0000
0003
0100
0010
0000
0010
,
1000
0000
0001
0010
0100
2000
0000
3000
0000
0002
0000
1003
0010
0000
0010
0000
0000
1100
0000
0000
0001
1010
0000
0001
,
1000
0000
1000
0010
0000
1000
0011
0000
0000
0200
0000
0000
0301
0000
0001
0010
0000
0104
0000
0003
1000
0011
0000
1000
,
0100
0000
0100
0010
0000
0001
2000
3000
0000
0010
0000
0000
0100
0000
0100
0001
0000
0001
0010
0000
0010
0100
0000
2000
,
0000
3000
0001
1000
0000
0100
2000
0000
3000
0101
0000
0010
0001
0000
0001
0100
0000
0021
0000
0030
1000
0100
0000
0100
,
0010
0000
0001
0100
0010
1000
0101
0000
0000
2000
0000
0000
3001
0000
0001
0100
0000
0012
0000
0003
0100
0010
0000
1000
,
0001
0000
0001
0000
0000
1000
0101
0000
0000
2000
0000
0000
3010
0000
0010
1000
0001
1100
0000
0000
0001
1100
0000
0001
,
1010
0100
0220
0000
0000
0000
0000
0000
,
0000
0000
0000
0000
,
0330
0000
0000
0000
;
