#VERSION:0.83;
#TITLE:FEEL THE FORCE;
#SUBTITLE:;
#ARTIST:brz1128;
#TITLETRANSLIT:;
#SUBTITLETRANSLIT:;
#ARTISTTRANSLIT:;
#GENRE:;
#CREDIT:;
#MUSIC:song.ogg;
#BANNER:bn.png;
#BACKGROUND:bg-wide.png;
#CDTITLE:;
#SAMPLESTART:74.000000;
#SAMPLELENGTH:18.214000;
#SELECTABLE:YES;
#OFFSET:-1.220000;
#BPMS:0.000000=210.000000
,160.000000=105.000000
,176.000000=210.000000
;
#STOPS:;
#SPEEDS:0.000000=1.000000=0.000000=0;
#SCROLLS:0.000000=1.000000;
#TICKCOUNTS:0.000000=4;
#TIMESIGNATURES:0.000000=4=4;
#LABELS:0.000000=Song Start;
#COMBOS:0.000000=1;
#DISPLAYBPM:210.000000;
#ORIGIN:;
#TAGS:;
#PREVIEWVID:;
#JACKET:;
#CDIMAGE:;
#DISCIMAGE:;
#BGCHANGES:;
#FGCHANGES:;

//--------------- dance-single - XMOD- BR+ FS+ DS XO JA ----------------
#NOTEDATA:;
#STEPSTYPE:dance-single;
#DESCRIPTION:XMOD- BR+ FS+ DS XO JA;
#DIFFICULTY:Challenge;
#METER:13;
#RADARVALUES:1.076859,1.2132,0.719832,0.493368,0.841152,932,843,89,61,65,6,0,0,0,1.076859,1.2132,0.719832,0.493368,0.841152,932,843,89,61,65,6,0,0,0;
#DISPLAYBPM:210.000000:0.000000;
#CHARTNAME:I Should Stop Feeling Forced,;
#CHARTHASH:2147483647;
#BANNER:;
#CHARTSTYLE:;
#LASTSECONDHINT:120.071144;
#CREDIT:Maractus;
#NOTES:
0000
0000
0000
0000
,
0000
0000
0000
0000
,
0000
0000
0000
0000
,
0000
0000
0000
0000
,
0101
0000
1010
0000
0000
0000
0001
1000
0011
0000
1100
0000
00M0
0000
0101
0000
,
1010
0000
0101
0000
2000
0000
0000
0000
3002
0000
0000
0000
1003
0000
0100
00M0
,
1100
0000
0011
0000
0000
0000
1000
0001
1010
0000
0101
0000
00M0
0000
1100
0000
,
0001
0010
0100
1000
0100
0010
0002
0000
,
1003
0000
0010
0000
0100
0000
0001
1000
0001
0000
0010
0000
0100
0000
1000
0000
,
0010
0000
0100
0000
0001
0000
1000
0001
1000
0000
0100
0000
0010
0000
0001
0000
,
0100
0000
0010
0000
1000
0000
0001
1000
0001
0000
0100
0000
0010
0000
1000
0000
,
0100
0010
0002
0100
2003
0100
3002
0100
,
1013
0000
0101
0000
0000
0000
1000
0001
1100
0000
0000
0011
0000
0000
1100
0000
,
00M0
0000
0000
0000
0101
0000
0000
0000
1010
0000
0000
0000
0101
0000
0000
0000
1010
0000
0000
0M00
0000
0000
0011
0000
0000
0000
0000
0000
1001
0000
0000
0000
,
0000
0000
0000
0000
1000
0000
0000
0000
0100
0000
000M
0000
1100
0000
0000
0000
0011
0000
0000
0000
0000
0000
1100
0000
0000
00M0
0000
0000
0101
0000
0000
0000
,
1000
0010
0100
1000
0100
0010
2000
0000
,
3001
0000
1000
0000
0100
0000
0010
0001
1000
0000
0010
0000
0100
0000
0001
1000
,
0001
0100
0001
1000
0001
0000
0010
0000
0100
1000
0001
0000
0010
0000
0100
0000
,
1000
0000
0001
0000
1000
0001
1000
0100
1000
0001
1000
0100
0010
0000
0001
0000
,
1100
0011
2000
0100
3002
0100
2003
0100
,
3001
0000
1000
0000
0010
0000
0100
0001
1000
0000
0100
0000
0010
0000
0001
1000
,
0001
0010
0001
1000
0001
0000
0100
0000
0010
1000
0001
0000
0100
0000
0010
0000
,
1000
0000
0001
0000
1000
0001
1000
0010
1000
0001
1000
0010
0100
0000
0001
0000
,
1010
0101
2000
0010
3002
0010
2003
0010
,
3001
0000
1000
0010
0100
M000
0100
1000
0001
0000
1000
0001
0100
0001
0010
0M00
,
0010
0100
0010
0000
1000
0000
0001
0000
0010
0000
1000
0000
0010
0000
0001
0000
,
1000
0000
0001
0100
0010
000M
0010
0001
1000
0000
0001
1000
0010
1000
0100
00M0
,
0100
0010
0100
0000
0001
0000
1000
0000
0001
0000
0100
0000
1000
0000
0100
0000
,
0001
0000
0100
00M0
0100
0000
0010
0000
0100
00M0
0100
0000
0001
0000
0100
00M0
,
0100
0000
1000
0100
1000
0000
0010
M000
0010
0000
0100
0000
0010
0001
0010
0100
,
1000
0001
0001
1000
0001
0001
0100
0100
,
0001
1000
0002
0010
2003
0010
3002
0010
,
1003
0000
0001
0010
0100
000M
0100
0001
1000
0000
0001
1000
0100
1000
0010
0M00
,
0010
0100
0010
0000
0001
0000
1000
0000
0100
0000
0001
0000
0100
0000
1000
0000
,
0001
0000
1000
0100
0010
M000
0010
1000
0001
0000
1000
0001
0010
0001
0100
00M0
,
0100
0010
0100
0000
1000
0000
0001
0000
1000
0000
0010
0000
0001
0000
0010
0000
,
1000
0000
0010
0M00
0010
0000
0100
0000
0010
0M00
0010
0000
1000
0000
0010
0M00
,
0010
0000
0001
0010
0001
0000
0100
000M
0100
0000
0010
0000
0100
1000
0100
0010
,
0001
1000
1000
0001
1000
1000
0010
0010
,
1000
0002
0000
2003
3100
0010
0002
0000
,
1M03
0000
0000
1000
0000
0000
0000
0000
0010
0000
0000
0010
0000
0000
0100
0000
,
0001
0000
0000
0001
0000
0000
0000
0000
1000
0000
0000
1000
0000
0000
0100
0000
,
0010
0000
0000
0010
0000
0000
0000
0000
0001
0000
0000
0001
0000
0000
1000
0000
,
0010
0000
0000
0010
0000
0000
0000
0000
0100
0000
0000
0100
0000
0000
0001
0000
,
10M0
0000
1000
0000
1000
0000
0001
0100
,
00M0
0100
1000
0001
0010
1000
0010
0100
,
1000
0000
1000
0000
1000
0000
0001
0010
,
0M00
0010
1000
0001
0100
1000
0100
0010
,
1000
0000
0001
0000
0001
0000
0001
0100
,
00M0
0100
1000
0001
0010
1000
0010
0100
,
1000
0000
0001
0000
0001
0000
0001
0010
,
0202
0000
0010
0000
1303
0000
0001
1000
0011
0000
1000
0001
1010
0000
0001
0000
,
1100
0000
0011
0000
0000
0000
1000
0001
1010
0000
0101
0000
0000
0000
1000
0000
,
0100
00M0
1100
0000
0002
0000
0100
0000
2003
0000
0100
0000
3001
1000
0100
0000
,
1010
0000
0101
0000
0000
0000
1000
0001
1100
0000
0011
0000
0M00
0000
1010
0000
,
0101
0000
1010
0000
0002
0000
0000
0000
2003
0000
0000
0000
3001
0000
0010
0M00
,
0011
0000
1100
0000
0000
0000
0001
1000
0101
0000
1010
0000
0M00
0000
0011
0000
,
1100
0011
0M00
1010
0101
1010
0M00
0011
,
1100
1100
0011
0011
1100
1100
0011
0011
,
1000
0000
0010
0000
0M00
0000
0010
0000
0001
0100
0010
1000
0001
0010
0100
1000
,
0001
0000
1000
0100
0010
M000
0010
1000
0001
0000
1000
0001
0010
0001
0100
00M0
,
0100
0010
0100
0000
1000
0000
0001
0000
0010
0000
1000
0000
0010
0000
0001
0000
,
1000
0010
0100
M000
0100
0010
0001
0000
1000
0001
0100
0001
0010
0M00
0010
0000
,
0100
0010
0100
0000
0001
0000
1000
0000
0001
0000
0010
0000
1000
0000
0010
0000
,
0001
0100
0010
000M
0010
0001
1000
0000
0001
1000
0010
1000
0100
00M0
0100
0010
,
1000
0001
0010
0100
1000
0000
0010
0000
0001
0000
0010
0000
1000
0000
0001
0010
,
0100
000M
0100
0010
1000
0000
0001
1000
0100
1000
0001
0010
0100
000M
0100
0001
,
0010
0100
1000
0000
0001
0000
1000
0000
0010
0000
0001
0000
0010
0000
1000
0000
,
0001
0000
1000
0010
0100
M000
0100
1000
0001
0000
1000
0001
0100
0001
0010
0M00
,
0010
0100
0010
0000
1000
0000
0001
0000
0100
0000
1000
0000
0100
0000
0001
0000
,
1000
0100
0010
M000
0010
0100
0001
0000
1000
0001
0010
0001
0100
00M0
0100
0000
,
0010
0100
0010
0000
0001
0000
1000
0000
0001
0000
0100
0000
1000
0000
0100
0000
,
0001
0010
0100
000M
0100
0001
1000
0000
0001
1000
0100
1000
0010
0M00
0010
0100
,
1000
0001
0100
0010
1000
0000
0100
0000
0001
0000
0100
0000
1000
0000
0001
0100
,
0010
000M
0010
0100
1000
0000
0001
1000
0010
1000
0001
0100
0010
000M
0010
0001
,
0100
0010
1000
0000
0001
0000
1000
0000
0100
0000
0001
0000
0100
0000
1000
0000
,
0001
0000
1000
0100
0000
0100
0010
0000
0200
0000
2300
0000
3020
0000
0230
0000
,
0301
0000
1000
0000
0010
0000
0001
0000
0010
0000
0100
0000
0001
0000
0010
0100
,
1000
0000
0001
0100
0000
0100
0010
0000
0200
0000
0302
0000
0023
0000
0230
0000
,
1300
0000
0001
0000
0010
0000
1000
0000
0010
0000
0100
0000
1000
0000
0010
0100
,
0001
0000
1000
0010
0000
0010
0100
0000
0020
0000
2030
0000
3200
0000
0320
0000
,
0031
0000
1000
0000
0100
0000
0001
0000
0100
0000
0010
0000
0001
0000
0100
0010
,
1000
0000
0100
00M0
0100
0000
0001
0100
0010
1000
0001
0000
0010
0000
0100
00M0
,
0100
0000
0001
0010
0100
0000
1000
0010
0100
0000
0001
0010
0100
1000
0100
0010
,
0001
0000
1000
0010
0000
0010
0100
0000
0020
0000
2030
0000
3200
0000
0320
0000
,
0031
0000
1000
0000
0100
0000
0001
0000
0100
0000
0010
0000
0001
0000
0100
0010
,
1000
0000
0001
0010
0000
0010
0100
0000
0020
0000
0032
0000
0203
0000
0320
0000
,
1030
0000
0001
0000
0100
0000
1000
0000
0100
0000
0010
0000
1000
0000
0100
0010
,
0001
0000
1000
0100
0000
0100
0010
0000
0200
0000
2300
0000
3020
0000
0230
0000
,
0301
0000
1000
0000
0010
0000
0001
0000
0010
0000
0100
0000
0001
0000
0010
0100
,
1000
0000
0010
0M00
0010
0000
0001
1000
0100
0010
0001
0000
0100
0000
0010
0M00
,
0010
0000
0001
0100
0010
0000
1000
0100
0010
0000
0001
0000
2000
0000
0000
0000
,
3011
0000
1100
0000
0000
0000
0001
1000
0101
0000
1010
0000
0000
0000
0001
0000
,
0100
00M0
0101
0000
2000
0000
0100
0000
3002
0000
0100
0000
1003
0001
0100
0000
,
0011
0000
1100
0000
0000
0000
0001
1000
0101
0000
1010
0000
0M00
0000
0011
0000
,
1100
0000
0011
0000
2000
0000
0000
0000
3002
0000
0000
0000
1003
0000
0010
0M00
,
1010
0000
0101
0000
0000
0000
1000
0001
1100
0000
0011
0000
0000
0000
1000
0000
,
0100
00M0
1100
0000
0002
0000
0100
0000
2003
0000
0100
0000
3001
1000
0100
0000
,
1010
0000
0101
0000
0000
0000
1000
0001
1100
0000
0011
0000
0M00
0000
1010
0000
,
0001
2000
0000
3100
0010
0001
2200
0022
,
3333
0000
0000
0000
;
