#VERSION:0.83;
#TITLE:Enigma II;
#SUBTITLE:;
#ARTIST:Toromaru;
#TITLETRANSLIT:;
#SUBTITLETRANSLIT:;
#ARTISTTRANSLIT:;
#GENRE:;
#CREDIT:;
#MUSIC:song.ogg;
#BANNER:bn.png;
#BACKGROUND:bg-wide.png;
#CDTITLE:;
#SAMPLESTART:8.315000;
#SAMPLELENGTH:14.000000;
#SELECTABLE:YES;
#OFFSET:0.043000;
#BPMS:0.000000=201.000000;
#STOPS:;
#SPEEDS:0.000000=1.000000=0.000000=0;
#SCROLLS:0.000000=1.000000;
#TICKCOUNTS:0.000000=4;
#TIMESIGNATURES:0.000000=4=4;
#LABELS:0.000000=Song Start;
#COMBOS:0.000000=1;
#ORIGIN:;
#PREVIEWVID:;
#JACKET:;
#CDIMAGE:;
#DISCIMAGE:bg.png;
#BGCHANGES:;
#FGCHANGES:;

//--------------- dance-single - FS+ BR+ DS BU- JA- ----------------
#NOTEDATA:;
#STEPSTYPE:dance-single;
#DESCRIPTION:FS+ BR+ DS BU- JA-;
#DIFFICULTY:Challenge;
#METER:14;
#RADARVALUES:1.352046,1.400998,0.772067,0.624593,1.90848,1091,1002,89,72,62,1,0,0,0,1.352046,1.400998,0.772067,0.624593,1.90848,1091,1002,89,72,62,1,0,0,0;
#CHARTNAME:ENIGMA BALLS!!!;
#CHARTSTYLE:;
#CREDIT:Maractus;
#NOTES:
0000
0000
0000
0000
,
0000
0000
0000
0000
,
0101
0000
0101
0000
0000
0000
1002
0000
0000
0000
1003
0000
0001
0100
0010
1000
,
0011
0000
0011
0000
0000
0000
2001
0000
0000
0000
3001
0000
1000
0010
0100
0001
,
1100
0000
1100
0000
0000
0000
1002
0000
0000
0000
1003
0000
0001
0010
0100
1000
,
0010
0100
0001
0000
0100
0010
1000
0000
0100
0010
0001
0000
0010
0100
1000
0000
,
0010
0100
0001
0010
0100
1000
0001
0100
0001
1000
0100
1000
0002
0000
0003
0000
,
2001
0000
0000
0000
0000
0000
0000
0000
3001
0000
0100
0000
0001
0000
0100
00M0
0100
0000
1000
0000
0100
0000
1000
0000
0002
0000
0000
0000
0010
0000
0000
0000
,
1003
0000
0000
0000
0001
0000
0000
0000
1000
0000
0100
0000
1000
0000
0100
00M0
0100
0000
0001
0000
0100
0000
0001
0000
2000
0000
0000
0000
0010
0000
0000
0000
,
3001
0010
0000
0101
1000
0000
0001
0100
0000
0011
1000
0000
,
0100
0000
0000
0000
0010
0000
0000
0000
0000
0000
0000
0000
0101
0000
0000
0000
1000
0000
0000
0000
0000
0001
0000
0000
1100
0000
0000
0000
0000
0000
0011
0000
0000
0000
0000
0000
1000
0000
0000
0000
0000
0000
1000
0000
0000
0000
0000
0000
,
0100
0000
000M
0000
0100
0000
0000
0000
0001
0000
0010
0000
0001
0000
0010
0M00
0010
0000
1000
0000
0010
0000
1000
0000
0002
0000
0000
0000
0100
0000
0000
0000
,
1003
0000
0000
0000
0001
0000
0000
0000
1000
0000
0010
0000
1000
0000
0010
0M00
0010
0000
0001
0000
0010
0000
0001
0000
2000
0000
0000
0000
0100
0000
0000
0000
,
3001
0000
0100
00M0
0100
0000
1000
0000
0100
0000
0000
0000
1010
0000
0100
000M
0100
0000
0001
0000
0010
0000
0000
0000
0101
0000
0010
M000
0010
0000
1000
0000
,
0010
0000
0000
0000
1100
0000
0010
000M
0010
0000
0001
0000
0020
0000
0000
0000
0131
0000
1000
0000
0010
0000
0100
0000
0001
0000
0100
0000
0010
0000
1000
0000
,
0100
0000
00M0
0000
0100
0000
0000
0000
0001
0000
0010
0000
0001
0000
0010
0M00
0010
0000
1000
0000
0010
0000
1000
0000
0002
0000
0000
0000
0100
0000
0000
0000
,
1003
0000
0000
0000
0001
0000
0000
0000
1000
0000
0010
0000
1000
0000
0010
0M00
0010
0000
0001
0000
0010
0000
0001
0000
2000
0000
0000
0000
0100
0000
0000
0000
,
3001
0000
0000
0000
1000
0000
0000
0000
0100
0000
0000
0000
1010
0000
0000
0000
0001
0000
0000
0000
1000
0000
0000
0000
0010
0000
0000
0000
0100
0000
0000
0000
0001
0000
0000
0000
0010
0000
0000
0100
0000
0000
1000
0000
0000
0001
0000
0000
,
1000
0000
0000
0000
0010
0000
0000
0000
0100
0000
0000
0000
0011
0000
0000
0000
1000
0000
0000
0000
0001
0000
0000
0000
1000
0000
0000
0000
0000
0000
0101
0000
0000
0000
0000
0000
1010
0000
0000
0000
0000
0000
0001
0000
0000
1000
0000
0000
,
0002
0100
1003
1200
0300
0120
0030
2001
,
0000
0000
0000
0000
3010
0000
000M
0000
0010
0000
0000
0000
0100
0000
0000
0000
1000
0000
0010
0000
1000
0000
0000
0000
0100
0000
1000
0000
0100
00M0
0100
0000
,
0011
0000
0100
00M0
0100
0000
1010
0000
0100
00M0
0100
0000
0011
0000
0100
00M0
,
0100
0000
0000
0000
0000
0000
1010
0000
0000
0000
0000
0000
0100
0000
0000
00M0
0000
0000
0100
0000
0000
0000
0000
0000
0001
0000
0000
0000
0100
0000
00M0
0000
0100
0000
0000
0000
1000
0000
0000
0000
0100
0000
00M0
0000
0100
0000
0000
0000
,
0002
0010
1003
0001
2000
0010
3001
0100
,
0001
0000
0010
0000
0100
0000
1000
0000
0010
0000
1000
0000
0200
0000
0310
0001
,
1000
0100
1000
0001
0100
0001
0010
0100
1000
0010
1000
0001
0010
0001
0100
0010
,
1000
0100
1000
0001
0100
0001
0010
0100
1000
0010
1000
0001
1000
0100
1000
0010
,
1000
0001
0100
0001
1000
0100
1000
0010
0100
0001
0010
0001
1000
0010
1000
0100
,
0010
0001
0100
0001
1000
0100
1000
0010
0100
0001
0010
0001
1000
0001
0100
0001
,
0010
0000
0000
0000
0100
0000
0000
0000
1000
0100
1000
0000
0001
0100
0001
0000
,
1000
0010
1000
0000
0001
0010
0001
0000
1000
0100
0010
0000
0001
0100
0010
0000
,
1000
0100
0010
0001
1000
0001
0100
0010
1000
0001
1000
0100
0010
0001
1000
0001
,
0010
0M00
0010
0000
1000
0000
0010
0000
1000
0000
0100
0000
0010
0000
0001
0000
1000
0000
0001
0000
0100
0000
0001
0000
0100
00M0
0100
0000
1000
0000
0100
0000
,
2000
0000
0000
3010
1000
0000
0101
0010
0000
0001
0100
0000
,
0011
0000
0100
0000
0001
1000
0001
0000
0100
0000
0010
0000
1100
0000
0000
0000
0001
0000
0010
0M00
0010
0000
1000
0010
,
2000
0000
0000
3100
1000
0000
0011
0100
0000
0001
0010
0000
,
0101
0000
0010
0000
0001
1000
0001
0000
0010
0000
0100
0000
1010
0000
0000
0000
0001
0000
0100
00M0
0100
0000
1000
0000
,
0020
0100
1030
0002
0010
1003
0001
0010
,
0001
1000
0200
0010
1300
0002
0100
1003
,
0001
0100
0001
1000
0200
0010
1300
0002
,
0100
1003
0001
0010
0001
2000
0100
3001
,
1000
0100
1000
0001
0010
0100
1000
0001
0100
0001
1000
0010
0100
0001
1000
0010
,
1000
0000
0001
0000
0100
0000
0001
0000
0100
00M0
0100
0000
1000
0000
0100
0000
1000
0000
0001
0000
0010
0000
0001
0000
0010
0M00
0010
0000
1000
0000
0010
0000
,
1100
0000
1100
0000
0000
0000
2001
0000
0000
0000
3001
0000
1000
0100
0010
0001
,
1010
0000
1010
0000
0000
0000
1002
0000
0000
0000
1003
0000
0001
0010
0100
1000
,
0101
0000
0101
0000
0000
0000
2001
0000
0000
0000
3001
0000
1000
0100
0010
0001
,
1000
0100
1000
0001
0100
0010
0100
0001
1000
0010
1000
0001
0100
0010
1000
0100
,
1000
0001
0010
0100
0010
0001
1000
0010
1000
0001
0010
0100
1000
0010
1000
0001
,
0010
0100
0010
0001
1000
0100
1000
0001
0010
0100
1000
0010
1000
0001
0100
0010
,
0100
0001
1000
0100
1000
0001
0100
0010
1000
0100
1000
0001
0100
0010
0100
0001
,
1000
0000
0100
0000
0010
0000
0001
0000
0100
0000
0010
0000
1000
0000
0100
00M0
0100
0000
0001
0000
0010
0M00
0010
0000
,
2000
0000
0010
0000
3002
0000
0010
0000
2003
0000
0100
0000
3002
0000
0000
0100
0000
0000
1003
0000
0000
0000
0000
0000
,
1002
0000
0100
0000
1003
0000
0100
00M0
0100
0000
0001
0000
2001
0000
0100
0000
,
3001
0000
0100
00M0
0100
0000
1000
0000
1002
0000
0010
0000
1003
0000
0010
0M00
,
0010
0000
0001
0000
2001
0000
0010
0000
3001
0000
0010
0M00
0010
0000
1000
0000
,
1002
0000
0000
0000
0100
0000
0000
0000
1003
0000
0010
0000
1000
0000
0010
0M00
0010
0000
0001
0000
0010
0000
0001
0000
1010
0000
0000
0000
0100
0000
0000
0000
,
1000
0000
0100
0000
1000
0000
0100
00M0
0100
0000
0001
0000
0100
0000
0001
0000
1100
0000
0000
0000
0010
0000
0000
0000
1000
0000
0010
0000
1000
0000
0010
0M00
,
0010
0001
0010
0001
1010
0000
0100
00M0
0100
0000
0001
0000
0001
0000
1000
0000
,
2001
0000
0100
0000
3001
0000
0100
00M0
0100
0000
1000
0000
1002
0000
0100
0000
,
1003
0000
0100
00M0
0100
0000
0001
0000
2001
0000
0010
0000
3001
0000
0010
0M00
,
0010
0000
1000
0000
1002
0000
0010
0000
1003
0000
0010
0M00
0010
0000
0001
0000
,
2001
0000
0000
0000
0100
0000
0000
0000
3001
0000
0010
0000
0001
0000
0010
0M00
0010
0000
1000
0000
0010
0000
1000
0000
0011
0000
0000
0000
0100
0000
0000
0000
,
0001
0000
0100
0000
0001
0000
0100
00M0
0100
0000
1000
0000
0100
0000
1000
0000
0101
0000
0000
0000
0010
0000
0000
0000
0001
0000
0010
0000
0001
0000
0010
0M00
,
0010
1000
0010
1000
0011
0000
0100
00M0
0100
0000
1000
0100
0010
0001
0010
0100
,
1000
0000
0000
0010
0100
0000
0000
0010
1000
0000
0010
0000
0100
0000
0001
0000
,
2000
0010
3001
0100
0010
0020
1000
2030
,
0100
3200
0010
0320
0001
0032
1000
2003
,
0010
0000
3010
0100
0011
0000
1000
0100
1010
0000
0001
0100
0011
0000
1000
0100
,
1010
0000
0000
0001
0010
0000
0000
0100
1000
0000
0100
0000
0010
0000
0001
0000
,
2000
0100
3001
0010
0100
0200
0010
0310
,
0001
0100
0001
0010
0100
1000
0010
0100
0001
1000
0100
1000
0001
0010
0100
1000
,
0020
0100
1030
0002
0100
1003
0200
0010
1300
0002
0100
1003
,
0000
0000
0000
0000
0001
1000
0010
1000
0001
0100
0001
1000
0100
0010
0100
1000
,
0001
1000
0100
1000
0001
0010
0001
1000
0010
0100
0010
1000
0100
0010
0001
1000
,
0010
1000
0001
0100
0001
1000
0100
0010
0100
1000
0001
1000
0100
1000
0001
0010
,
0001
1000
0010
0100
0010
1000
0100
0010
0001
1000
0001
0100
0001
1000
0100
0010
,
0001
0000
0100
00M0
0100
0000
1020
0000
0000
0000
0000
0000
1030
0000
0100
00M0
0100
0000
0021
0000
0000
0000
0000
0000
,
0031
0000
1100
00M0
0100
0000
0010
0000
0101
M000
0100
0000
0010
0000
1100
000M
0100
0000
0010
0000
0101
M000
0100
0000
,
0010
0000
1000
0000
0010
0M00
0010
0000
0102
0000
0000
0000
0000
0000
0000
0000
0013
0000
0001
0000
0010
0M00
0010
0000
2100
0000
0000
0000
0000
0000
0000
0000
,
3001
0010
0100
1000
0001
0100
0010
1000
0001
1000
0100
0010
0001
1000
0010
0100
,
0001
0000
0000
0000
0000
0000
0100
0000
0001
0000
0100
00M0
0100
0000
1000
0000
0001
0000
0000
0000
2100
0000
0000
0000
0000
0000
0000
0000
3001
0000
0000
0000
,
1000
0000
0000
0000
0000
0000
0100
0000
1000
0000
0100
00M0
0100
0000
0001
0000
1000
0000
0000
0000
0102
0000
0000
0000
0000
0000
0000
0000
1003
0000
0000
0000
,
0101
M000
0100
0000
0001
0000
1100
00M0
0100
0000
1000
0000
0101
M000
0100
0000
0001
0000
1100
00M0
0100
0000
1000
0000
,
0011
0M00
0010
0000
0001
0000
1010
000M
0010
0000
1000
0000
0011
0M00
0010
0000
0001
0000
1010
000M
0010
0000
1000
0000
,
2001
0000
0000
0000
3001
0010
0100
1000
0102
0000
0000
0000
1003
0010
0100
0001
,
2100
0000
0000
0000
3001
0100
0010
1000
0012
0000
0000
0000
1003
0100
0010
0001
,
2010
0000
0000
0000
3001
1000
0010
0100
0001
1000
0100
0010
0001
1000
0001
0100
,
0010
1000
0001
0010
0100
1000
0001
1000
0010
0100
0001
1000
0100
0010
0001
1000
,
0001
0100
0001
1000
0100
1000
0001
0100
0001
1000
0100
1000
0001
0010
0001
1000
,
0010
1000
0001
0010
0001
1000
0010
1000
0001
0100
0010
1000
0100
0010
0001
0100
,
0020
0000
0000
0030
0000
0000
2002
0000
0000
0000
0000
0000
0000
0000
0000
0000
,
0000
0000
0000
0000
,
0000
0000
0000
0000
,
0000
0000
0000
0000
,
0000
0000
0000
0000
,
3003
0000
0000
0000
;

//--------------- dance-single - Old Version ----------------
#NOTEDATA:;
#STEPSTYPE:dance-single;
#DESCRIPTION:Old Version;
#DIFFICULTY:Edit;
#METER:14;
#RADARVALUES:1.357003,1.400998,0.806766,0.633268,1.938842,1095,1002,93,73,70,2,0,0,0,1.357003,1.400998,0.806766,0.633268,1.938842,1095,1002,93,73,70,2,0,0,0;
#CHARTNAME:FS+ BR+ DS BU- JA-;
#CHARTSTYLE:;
#CREDIT:Maractus;
#NOTES:
0000
0000
0000
0000
,
2000
0000
0000
0000
,
3101
0000
0101
0000
0000
0000
1002
0000
0000
0000
1003
0000
0001
0100
0010
1000
,
0011
0000
0011
0000
0000
0000
2001
0000
0000
0000
3001
0000
1000
0010
0100
0001
,
1100
0000
1100
0000
0000
0000
1002
0000
0000
0000
1003
0000
0001
0010
0100
1000
,
0010
0100
0001
0000
0100
0010
1000
0000
0100
0010
0001
0000
0010
0100
1000
0000
,
0010
0100
0001
0010
0100
1000
0001
0100
0001
1000
0100
1000
0002
0000
0003
0000
,
2001
0000
0000
0000
0000
0000
0000
0000
3001
0000
0100
0000
0001
0000
0100
00M0
0100
0000
1000
0000
0100
0000
1000
0000
0002
0000
0000
0000
0010
0000
0000
0000
,
1003
0000
0000
0000
0001
0000
0000
0000
1000
0000
0100
0000
1000
0000
0100
00M0
0100
0000
0001
0000
0100
0000
0001
0000
2000
0000
0000
0000
0010
0000
0000
0000
,
3001
0010
0000
0101
1000
0000
0001
0100
0000
0011
1000
0000
,
0100
0000
0000
0000
0010
0000
0000
0000
0000
0000
0000
0000
0101
0000
0000
0000
1000
0000
0000
0000
0000
0000
0000
0000
0101
0000
0000
00M0
0000
0000
1100
0000
0000
0000
0000
0000
0101
0000
0000
0000
0000
0000
1100
0000
0000
0000
0000
0000
,
0100
0000
000M
0000
0100
0000
0000
0000
0001
0000
0010
0000
0001
0000
0010
0M00
0010
0000
1000
0000
0010
0000
1000
0000
0002
0000
0000
0000
0100
0000
0000
0000
,
1003
0000
0000
0000
0001
0000
0000
0000
1000
0000
0010
0000
1000
0000
0010
0M00
0010
0000
0001
0000
0010
0000
0001
0000
2000
0000
0000
0000
0100
0000
0000
0000
,
3001
0000
0010
0M00
0010
0000
1000
0000
0010
0000
0000
0000
1100
0000
0010
000M
0010
0000
0001
0000
0010
0000
0000
0000
0101
0000
0010
M000
0010
0000
1000
0000
,
0001
0000
0000
0000
1100
0000
0010
000M
0010
0000
0001
0000
0020
0000
0000
0000
0131
0000
1000
0000
0010
0000
0100
0000
0001
0000
0100
0000
0010
0000
1000
0000
,
0100
0000
00M0
0000
0100
0000
0000
0000
0001
0000
0010
0000
0001
0000
0010
0M00
0010
0000
1000
0000
0010
0000
1000
0000
0002
0000
0000
0000
0100
0000
0000
0000
,
1003
0000
0000
0000
0001
0000
0000
0000
1000
0000
0010
0000
1000
0000
0010
0M00
0010
0000
0001
0000
0010
0000
0001
0000
2000
0000
0000
0000
0100
0000
0000
0000
,
3001
0000
0000
0000
1000
0000
0000
0000
0010
0000
0000
0000
1100
0000
000M
0000
0100
0000
0000
0000
1000
0000
0000
0000
0010
0000
0000
0000
0100
0000
0000
0000
0001
0000
0000
0000
0010
0000
0000
0100
0000
0000
1000
0000
0000
0001
0000
0000
,
1000
0000
0000
0000
0100
0000
0000
0000
0010
0000
0000
0000
0101
0000
M000
0000
0100
0000
0000
0000
0001
0000
0000
0000
1100
0000
0000
00M0
0000
0000
0101
0000
0000
0000
0000
0000
1100
0000
0000
0000
0000
0000
0101
0000
0000
1000
0000
0000
,
0002
0100
1003
1200
0300
0120
0030
2001
,
0000
0000
0000
0000
3010
0000
000M
0000
0010
0000
0000
0000
0100
0000
0000
0000
1000
0000
0010
0000
1000
0000
0000
0000
0100
0000
1000
0000
0100
00M0
0100
0000
,
0011
0000
0100
00M0
0100
0000
1010
0000
0100
00M0
0100
0000
0011
0000
0100
00M0
,
0100
0000
0000
0000
0000
0000
1010
0000
0000
0000
0000
0000
0100
0000
0000
00M0
0000
0000
0100
0000
0000
0000
0000
0000
0001
0000
0000
0000
0100
0000
00M0
0000
0100
0000
0000
0000
1000
0000
0000
0000
0100
0000
00M0
0000
0100
0000
0000
0000
,
0002
0010
1003
0001
2000
0010
3001
0100
,
0001
0000
0010
0000
0100
0000
1000
0000
0010
0000
1000
0000
0200
0000
0310
0001
,
1000
0100
1000
0001
0100
0001
0010
0100
1000
0010
1000
0001
0010
0001
0100
0010
,
1000
0100
1000
0001
0100
0001
0010
0100
1000
0010
1000
0001
1000
0100
1000
0010
,
1000
0001
0100
0001
1000
0100
1000
0010
0100
0001
0010
0001
1000
0010
1000
0100
,
0010
0001
0100
0001
1000
0100
1000
0010
0100
0001
0010
0001
1000
0001
0100
0001
,
0010
0000
0000
0000
0000
0000
0000
0000
0100
0000
0000
0000
0000
0000
0000
0000
1000
0000
0100
00M0
0100
0000
0000
0000
0001
0000
0100
00M0
0100
0000
0000
0000
,
1000
0000
0010
0M00
0010
0000
0000
0000
0001
0000
0010
0M00
0010
0000
0000
0000
1000
0000
0100
00M0
0100
0000
0000
0000
0001
0000
0100
00M0
0100
0000
0000
0000
,
1000
0100
0010
0001
1000
0001
0100
0010
1000
0001
1000
0100
0010
0001
1000
0001
,
0010
0M00
0010
0000
1000
0000
0010
0000
1000
0000
0100
0000
0010
0000
0001
0000
1000
0000
0001
0000
0100
0000
0001
0000
0100
00M0
0100
0000
1000
0000
0100
0000
,
2000
0000
0000
3001
0010
0000
0101
1000
0000
0001
0100
0000
,
0011
0000
1000
0000
0001
0100
0001
0000
1000
0000
0000
0000
0101
0000
1000
0000
0010
0M00
0010
0000
0001
0000
0100
0001
,
2000
0000
0000
3001
0100
0000
0011
1000
0000
0001
0010
0000
,
0101
0000
1000
0000
0001
0010
0001
0000
1000
0000
0000
0000
0011
0000
1000
0000
0100
00M0
0100
0000
0001
0000
1000
0000
,
0020
0100
1030
0002
0010
1003
0001
0010
,
0001
1000
0200
0010
1300
0002
0100
1003
,
0001
0100
0001
1000
0200
0010
1300
0002
,
0100
1003
0001
0010
0001
2000
0100
3001
,
1000
0100
1000
0001
0010
0100
1000
0001
0100
0001
1000
0010
0100
0001
1000
0010
,
1000
0000
0001
0000
0100
0000
0001
0000
0100
00M0
0100
0000
1000
0000
0100
0000
1000
0000
0001
0000
0010
0000
0001
0000
0010
0M00
0010
0000
1000
0000
0010
0000
,
1100
0000
1100
0000
0000
0000
2001
0000
0000
0000
3001
0000
1000
0100
0010
0001
,
1010
0000
1010
0000
0000
0000
1002
0000
0000
0000
1003
0000
0001
0010
0100
1000
,
0101
0000
0101
0000
0000
0000
2001
0000
0000
0000
3001
0000
1000
0100
0010
0001
,
1000
0100
1000
0001
0100
0010
0100
0001
1000
0010
1000
0001
0100
0010
1000
0100
,
1000
0001
0010
0100
0010
0001
1000
0010
1000
0001
0010
0100
1000
0010
1000
0001
,
0010
0100
0010
0001
1000
0100
1000
0001
0010
0100
1000
0010
1000
0001
0100
0010
,
0100
0001
1000
0100
1000
0001
0100
0010
1000
0100
1000
0001
0100
0010
0100
0001
,
1000
0000
0100
0000
0010
0000
0001
0000
0100
0000
0010
0000
1000
0000
0100
00M0
0100
0000
0001
0000
0010
0M00
0010
0000
,
2000
0000
0010
0000
3002
0000
0010
0000
2003
0000
0100
0000
3002
0000
0000
0100
0000
0000
1003
0000
0000
0000
0000
0000
,
1002
0000
0100
0000
1003
0000
0100
00M0
0100
0000
0001
0000
2001
0000
0100
0000
,
3001
0000
0100
00M0
0100
0000
1000
0000
1002
0000
0010
0000
1003
0000
0010
0M00
,
0010
0000
0001
0000
2001
0000
0010
0000
3001
0000
0010
0M00
0010
0000
1000
0000
,
1002
0000
0000
0000
0100
0000
0000
0000
1003
0000
0010
0000
1000
0000
0010
0M00
0010
0000
0001
0000
0010
0000
0001
0000
1010
0000
0000
0000
0100
0000
0000
0000
,
1000
0000
0100
0000
1000
0000
0100
00M0
0100
0000
0001
0000
0100
0000
0001
0000
1100
0000
0000
0000
0010
0000
0000
0000
1000
0000
0010
0000
1000
0000
0010
0M00
,
0010
0001
0010
0001
1010
0000
0100
00M0
0100
0000
0001
0000
0001
0000
1000
0000
,
2001
0000
0100
0000
3001
0000
0100
00M0
0100
0000
1000
0000
1002
0000
0100
0000
,
1003
0000
0100
00M0
0100
0000
0001
0000
2001
0000
0010
0000
3001
0000
0010
0M00
,
0010
0000
1000
0000
1002
0000
0010
0000
1003
0000
0010
0M00
0010
0000
0001
0000
,
2001
0000
0000
0000
0100
0000
0000
0000
3001
0000
0010
0000
0001
0000
0010
0M00
0010
0000
1000
0000
0010
0000
1000
0000
0011
0000
0000
0000
0100
0000
0000
0000
,
0001
0000
0100
0000
0001
0000
0100
00M0
0100
0000
1000
0000
0100
0000
1000
0000
0101
0000
0000
0000
0010
0000
0000
0000
0001
0000
0010
0000
0001
0000
0010
0M00
,
0010
1000
0010
1000
0011
0000
0100
00M0
0100
0000
1000
0100
0010
0001
0010
0100
,
1000
0000
0000
0010
0100
0000
0000
0010
1000
0000
0010
0000
0100
0000
0001
0000
,
2000
0010
3001
0100
0010
0020
1000
2030
,
0100
3200
0010
0320
0001
0032
1000
2003
,
0010
0000
3010
0100
0011
0000
1000
0100
1010
0000
0001
0100
0011
0000
1000
0100
,
1010
0000
0000
0001
0010
0000
0000
0100
1000
0000
0100
0000
0010
0000
0001
0000
,
2000
0100
3001
0010
0100
0200
0010
0310
,
0001
0100
0001
0010
0100
1000
0010
0100
0001
1000
0100
1000
0001
0010
0100
1000
,
0020
0100
1030
0002
0100
1003
0200
0010
1300
0002
0100
1003
,
0000
0000
0000
0000
0001
1000
0010
1000
0001
0100
0001
1000
0100
0010
0100
1000
,
0001
1000
0100
1000
0001
0010
0001
1000
0010
0100
0010
1000
0100
0010
0001
1000
,
0010
1000
0001
0100
0001
1000
0100
0010
0100
1000
0001
1000
0100
1000
0001
0010
,
0001
1000
0010
0100
0010
1000
0100
0010
0001
1000
0001
0100
0001
1000
0100
0010
,
0001
0000
0100
00M0
0100
0000
1020
0000
0000
0000
0000
0000
1030
0000
0100
00M0
0100
0000
0021
0000
0000
0000
0000
0000
,
0031
0000
1100
00M0
0100
0000
0010
0000
0101
M000
0100
0000
0010
0000
1100
000M
0100
0000
0010
0000
0101
M000
0100
0000
,
0010
0000
1000
0000
0010
0M00
0010
0000
0102
0000
0000
0000
0000
0000
0000
0000
0013
0000
0001
0000
0010
0M00
0010
0000
2100
0000
0000
0000
0000
0000
0000
0000
,
3001
0010
0100
1000
0001
0100
0010
1000
0001
1000
0100
0010
0001
1000
0010
0100
,
0001
0000
0000
0100
0001
0100
0100
1000
0001
0000
2100
0000
0000
0000
3001
0000
,
1000
0000
0000
0100
1000
0100
0100
0001
1000
0000
0102
0000
0000
0000
1003
0000
,
0101
M000
0100
0000
0001
0000
1100
00M0
0100
0000
1000
0000
0101
M000
0100
0000
0001
0000
1100
00M0
0100
0000
1000
0000
,
0011
0M00
0010
0000
0001
0000
1010
000M
0010
0000
1000
0000
0011
0M00
0010
0000
0001
0000
1010
000M
0010
0000
1000
0000
,
2001
0000
0000
0000
3001
0010
0100
1000
0102
0000
0000
0000
1003
0010
0100
0001
,
2100
0000
0000
0000
3001
0100
0010
1000
0012
0000
0000
0000
1003
0100
0010
0001
,
2010
0000
0000
0000
3001
1000
0010
0100
0001
1000
0100
0010
0001
1000
0001
0100
,
0010
1000
0001
0010
0100
1000
0001
1000
0010
0100
0001
1000
0100
0010
0001
1000
,
0001
0100
0001
1000
0100
1000
0001
0100
0001
1000
0100
1000
0001
0010
0001
1000
,
0010
1000
0001
0010
0001
1000
0010
1000
0001
0100
0010
1000
0100
0010
0001
0100
,
0020
0000
0000
0030
0000
0000
2002
0000
0000
0000
0000
0000
0000
0000
0000
0000
,
0000
0000
0000
0000
,
0000
0000
0000
0000
,
0000
0000
0000
0000
,
0000
0000
0000
0000
,
3003
0000
0000
0000
;
