#TITLE:ERRORCODE 0;
#SUBTITLE:;
#ARTIST:DOIN && SUNNY;
#TITLETRANSLIT:;
#SUBTITLETRANSLIT:;
#ARTISTTRANSLIT:;
#GENRE:;
#CREDIT:;
#MUSIC:DOIN && SUNNY - ERRORCODE 0.ogg;
#BANNER:;
#BACKGROUND:;
#CDTITLE:;
#SAMPLESTART:0.000;
#SAMPLELENGTH:0.000;
#SELECTABLE:YES;
#OFFSET:-0.645;
#BPMS:0.000=200.106
,22.500=400.212
,24.000=200.106
,27.000=400.212
,27.500=100.053
,27.750=400.212
,32.000=200.106
,44.000=400.212
,48.000=200.106
,52.000=400.212
,54.000=200.106
,59.000=400.212
,59.500=100.053
,59.750=200.106
,102.000=400.212
,104.000=200.106
,110.000=400.212
,112.000=200.106
,120.000=400.212
,127.000=200.106
,136.000=400.212
,142.000=200.106
,152.000=400.212
,160.000=200.106
,220.000=400.212
,223.000=200.106
,270.500=800.424
,292.000=200.106
,322.000=400.212
,370.000=200.106
,397.000=400.212
,398.000=200.106
,448.500=400.212
,450.000=200.106
,494.000=400.212
,496.000=200.106
,513.000=400.212
,514.000=200.106
,561.000=400.212
,562.000=200.106
,576.000=400.212
,578.000=200.106
;
#STOPS:22.500=0.037
,22.750=0.037
,23.000=0.037
,23.250=0.037
,23.500=0.037
,23.750=0.037
,24.000=0.037
,28.000=0.037
,28.250=0.037
,28.500=0.037
,28.750=0.037
,29.000=0.037
,29.250=0.037
,29.500=0.037
,29.750=0.037
,30.000=0.037
,30.250=0.037
,30.500=0.037
,30.750=0.037
,31.000=0.037
,31.250=0.037
,31.500=0.037
,31.750=0.037
,44.000=0.075
,44.500=0.075
,45.000=0.075
,45.500=0.075
,46.000=0.075
,46.500=0.075
,47.000=0.075
,47.500=0.075
,52.000=0.075
,52.500=0.075
,53.000=0.075
,53.500=0.075
,96.000=0.015
,102.000=0.075
,102.500=0.075
,103.000=0.075
,103.500=0.075
,110.250=0.075
,110.750=0.075
,111.000=0.037
,111.250=0.037
,111.500=0.037
,111.750=0.037
,120.000=0.037
,120.250=0.037
,120.500=0.037
,120.750=0.037
,121.000=0.037
,121.250=0.037
,121.500=0.037
,121.750=0.037
,122.000=0.037
,122.250=0.037
,122.500=0.037
,122.750=0.037
,123.000=0.037
,123.250=0.037
,123.500=0.037
,123.750=0.037
,124.000=0.037
,124.250=0.037
,124.500=0.037
,124.750=0.037
,125.000=0.037
,125.250=0.037
,125.500=0.037
,125.750=0.037
,126.000=0.037
,126.250=0.037
,126.500=0.037
,126.750=0.037
,136.000=0.037
,136.250=0.037
,136.500=0.037
,136.750=0.037
,137.000=0.037
,137.250=0.037
,137.500=0.037
,137.750=0.037
,138.000=0.037
,138.250=0.037
,138.500=0.037
,138.750=0.037
,139.000=0.037
,139.250=0.037
,139.500=0.037
,139.750=0.037
,140.000=0.037
,140.250=0.037
,140.500=0.037
,140.750=0.037
,141.000=0.037
,141.250=0.037
,141.500=0.037
,141.750=0.037
,152.000=0.037
,152.250=0.037
,152.500=0.037
,152.750=0.037
,153.000=0.037
,153.250=0.037
,153.500=0.037
,153.750=0.037
,154.000=0.037
,154.250=0.037
,154.500=0.037
,154.750=0.037
,155.000=0.037
,155.250=0.037
,155.500=0.037
,155.750=0.037
,156.000=0.037
,156.250=0.037
,156.500=0.037
,156.750=0.037
,157.000=0.037
,157.250=0.037
,157.500=0.037
,157.750=0.037
,158.000=0.037
,158.250=0.037
,158.500=0.037
,158.750=0.037
,159.000=0.037
,159.250=0.037
,159.500=0.037
,159.750=0.037
,220.000=0.075
,220.500=0.075
,221.000=0.075
,221.500=0.075
,222.000=0.075
,222.500=0.075
,270.500=0.296
,273.000=0.148
,273.500=0.148
,275.000=0.074
,275.250=0.074
,275.500=0.074
,276.000=0.148
,278.000=0.148
,278.750=0.037
,279.000=0.037
,279.250=0.037
,279.500=0.037
,279.750=0.037
,280.000=0.037
,280.750=0.296
,281.750=0.296
,283.000=0.037
,283.125=0.037
,283.250=0.037
,283.750=0.074
,284.500=0.148
,285.000=0.148
,286.000=0.148
,288.000=0.074
,290.000=0.148
,291.000=0.074
,291.250=0.074
,291.500=0.074
,291.750=0.074
,322.000=0.056
,322.375=0.056
,322.750=0.056
,323.125=0.056
,323.500=0.056
,323.875=0.056
,324.250=0.056
,324.625=0.056
,325.000=0.056
,325.375=0.056
,325.750=0.056
,326.125=0.056
,326.500=0.056
,326.875=0.056
,327.250=0.056
,327.625=0.056
,328.000=0.056
,328.375=0.056
,328.750=0.056
,329.125=0.056
,329.500=0.056
,329.875=0.056
,330.250=0.056
,330.625=0.056
,331.000=0.056
,331.375=0.056
,331.750=0.056
,332.125=0.056
,332.500=0.056
,332.875=0.056
,333.250=0.056
,333.625=0.056
,334.000=0.056
,334.375=0.056
,334.750=0.056
,335.125=0.056
,335.500=0.056
,335.875=0.056
,336.250=0.056
,336.625=0.056
,337.000=0.056
,337.375=0.056
,337.750=0.056
,338.125=0.056
,338.500=0.056
,338.875=0.056
,339.250=0.056
,339.625=0.056
,340.000=0.056
,340.375=0.056
,340.750=0.056
,341.125=0.056
,341.500=0.056
,341.875=0.056
,342.250=0.056
,342.625=0.056
,343.000=0.056
,343.375=0.056
,343.750=0.056
,344.125=0.056
,344.500=0.056
,344.875=0.056
,345.250=0.056
,345.625=0.056
,346.000=0.056
,346.375=0.056
,346.750=0.056
,347.125=0.056
,347.500=0.056
,347.875=0.056
,348.250=0.056
,348.625=0.056
,349.000=0.056
,349.375=0.056
,349.750=0.056
,350.125=0.056
,350.500=0.056
,350.875=0.056
,351.250=0.056
,351.625=0.056
,352.000=0.056
,352.375=0.056
,352.750=0.056
,353.125=0.056
,353.500=0.056
,353.875=0.056
,354.250=0.056
,354.625=0.056
,355.000=0.056
,355.375=0.056
,355.750=0.056
,356.125=0.056
,356.500=0.056
,356.875=0.056
,357.250=0.056
,357.625=0.056
,358.000=0.056
,358.375=0.056
,358.750=0.056
,359.125=0.056
,359.500=0.056
,359.875=0.056
,360.250=0.056
,360.625=0.056
,361.000=0.056
,361.375=0.056
,361.750=0.056
,362.125=0.056
,362.500=0.056
,362.875=0.056
,363.250=0.056
,363.625=0.056
,364.000=0.056
,364.375=0.056
,364.750=0.056
,365.125=0.056
,365.500=0.056
,365.875=0.056
,366.250=0.056
,366.625=0.056
,367.000=0.056
,367.375=0.056
,367.750=0.056
,368.125=0.056
,368.500=0.056
,368.875=0.056
,369.250=0.056
,369.625=0.056
,397.000=0.037
,397.250=0.037
,397.500=0.037
,397.750=0.037
,448.500=0.075
,449.000=0.075
,449.500=0.075
,494.000=0.075
,494.500=0.075
,495.000=0.075
,495.500=0.075
,513.000=0.037
,513.250=0.037
,513.500=0.037
,513.750=0.037
,561.000=0.037
,561.250=0.037
,561.500=0.037
,561.750=0.037
,576.000=0.075
,576.500=0.075
,577.000=0.075
,577.500=0.075
;
#DISPLAYBPM:200.100;
#BGCHANGES:;
#FGCHANGES:;

//--------------- dance-single - ??? ----------------
#NOTES:
     dance-single:
     ???:
     Challenge:
     19:
     0,0,0,0,0:
0000
0000
0000
0000
,
0000
0000
0000
0000
,
0000
0000
0000
0000
,
0000
0000
0000
0000
,
2000
0000
3000
0000
0000
0000
2000
0000
3000
0000
0020
0030
0020
0030
0000
0000
,
0200
0300
0200
0300
0000
0000
0002
0003
0000
0000
1000
0100
0010
0001
0100
0010
,
2000
0000
3000
0000
0000
0000
2000
0000
3000
0000
0200
0300
0200
0000
0000
0300
,
1000
0100
0010
0001
1000
0010
0100
0010
1000
0001
0010
0100
0010
0001
1000
0010
,
0100
0001
0010
0001
0100
0010
0100
0001
,
1000
0000
0010
0000
0100
0000
0001
0000
1000
0000
0001
0010
0100
1000
0010
0100
,
0001
1000
0100
0010
0100
1000
0001
1000
,
0020
0032
0023
2030
3200
0302
0203
2300
,
3010
0100
0001
0010
0100
0010
0001
1000
,
0200
0000
0000
2300
0000
0000
3200
0000
0000
2300
0000
0000
3001
0000
0000
1000
0000
0000
0001
0100
0001
0100
0000
0000
,
0001
1000
0001
0100
0010
0100
0002
0000
,
1003
0000
0010
0000
0100
0000
0001
0000
2000
0000
3001
0010
0100
1000
0010
0100
,
0001
0010
1000
0002
0000
1003
0010
0100
,
1000
0001
0100
0001
1000
0001
0010
0001
,
1000
0100
0001
2000
0000
3001
0100
0010
,
0001
0000
1000
0000
0100
0000
1000
0000
0001
0100
0010
1000
0010
0100
0001
1000
,
0001
0100
1000
0002
0000
1003
0100
0010
,
1000
0100
1000
0001
1000
0010
1000
0001
,
1000
0100
0001
2000
0000
3001
0100
0010
,
0001
0010
0100
1000
0100
0010
0001
1000
0010
0100
0010
1000
0001
0100
0010
0100
,
0001
0010
0001
0010
,
0001
0000
0010
0000
0002
0203
0320
2030
,
3010
1000
0010
1000
,
0010
0000
0000
0000
1000
0000
0000
0000
0002
0000
2003
0000
3100
0010
0100
0010
,
0001
0100
0001
0100
0010
1000
0010
1000
,
0001
0010
0001
0010
0100
1000
0100
1000
,
0001
0100
0010
1000
0001
1000
0010
0100
0001
1000
0001
0010
0100
1000
0001
1000
,
0100
0000
0000
0010
0000
0000
0001
0000
0000
1000
0000
0000
0100
0000
0000
0010
0000
0000
0100
0000
0000
1000
0000
0000
0001
0000
0000
0010
0000
0000
0100
0000
0000
0010
0000
0000
0001
0000
1000
0000
0001
0000
1000
0000
0001
0000
1000
0000
,
0002
0000
0100
0103
0000
0000
0001
0010
,
0002
0003
0000
0100
0002
0000
0003
0000
,
1000
0010
0100
0001
0010
0100
0010
0001
0100
0010
1000
0100
0010
0100
1000
0010
,
0100
0001
0010
0100
1000
0100
0010
0001
1000
0000
0002
0000
0000
0000
0000
0000
,
2003
0000
0010
3010
0000
0000
1000
0100
,
2000
3000
0000
0010
2000
0000
3000
0000
,
0001
0010
0100
1000
0010
0100
0010
1000
0100
0010
0001
0100
0010
0100
0001
0010
,
0100
1000
0010
0100
0001
0100
0010
1000
0001
0000
2000
0000
0000
0000
3000
0000
,
1001
0001
0100
1000
0001
0010
1000
1010
,
1010
0100
0001
0010
1000
0001
0100
1000
,
0001
0100
0010
1000
0100
0010
0100
1000
0010
0100
0001
0010
0100
1000
0010
0100
,
0010
1000
0100
0010
0001
0100
0010
0100
0001
0010
0100
1000
0001
0010
0100
0010
,
0001
0010
1000
0001
0100
1000
0001
0101
,
0101
0010
1000
0001
0100
1000
0001
0010
,
1000
0100
0010
0001
0100
0010
0100
0001
0010
0100
1000
0010
0100
0001
0010
0100
,
0010
0001
0100
0010
1000
0100
0010
0100
1000
0010
0100
0001
1000
0010
0100
0010
,
2000
0000
3010
0100
2000
0000
3100
0020
,
0000
0000
0030
0000
1001
0000
1001
0000
1000
0000
0010
0000
1010
0000
0010
0100
,
0002
0000
0103
0010
0002
0000
0013
0200
,
0000
0300
1001
1001
0001
0010
0011
1001
,
2000
0000
3100
0010
2000
0000
3010
0200
,
0000
0000
0300
0000
1001
0000
1001
0000
0001
0000
1000
0000
1100
0000
0100
0010
,
0002
0000
0013
0100
0002
0000
0103
0010
,
0002
0000
0203
0000
0302
0000
2003
0000
3200
0000
2300
0000
3002
0000
0000
0003
,
1000
0100
0010
0001
1000
0100
0010
0100
1000
0001
0010
0100
1000
0010
0100
0001
,
0010
0001
1000
0010
1000
0001
0100
0001
1000
0100
1000
0010
0100
0001
0010
0100
,
1000
0010
0100
0001
1000
0010
0100
0010
1000
0001
0100
0010
1000
0100
1000
0001
,
0100
0001
1000
0100
1000
0001
0100
0001
0010
0100
1000
0010
0100
0001
0010
0100
,
1000
0001
0100
0010
0100
0001
1000
0100
0010
0001
0100
0010
1000
0100
1000
0001
,
0100
0001
1000
0010
1000
0001
0010
0001
1000
0010
0100
0001
0010
0100
1000
0010
,
0100
0001
0010
0100
0010
0001
1000
0010
0100
0001
0010
0001
1000
0010
1000
0001
,
0100
0001
1000
0100
1000
0010
0100
0001
0010
0100
1000
0010
0100
0001
0010
0100
,
2000
0000
3000
0002
0000
0003
0202
0000
,
0303
0020
0000
0000
0000
0000
0000
0030
,
2020
0000
3030
2000
0000
3000
2200
0000
,
0000
0000
3300
0000
0000
MMMM
0000
0000
,
0000
0000
0000
0000
MMMM
0000
MMMM
0000
0000
0000
0000
0000
MMMM
MMMM
MMMM
0000
,
MMMM
0000
0000
0000
0000
0000
0000
0000
MMMM
0000
0000
MMMM
MMMM
MMMM
MMMM
MMMM
,
MMMM
0000
0000
0000
0000
0000
MMMM
0000
0000
0000
0000
0000
0000
0000
MMMM
0000
0000
0000
0000
0000
0000
0000
0000
0000
MMMM
MMMM
MMMM
0000
0000
0000
MMMM
0000
,
0000
MMMM
MMMM
0000
MMMM
0000
0000
0000
,
MMMM
0000
0000
0000
0000
0000
0000
0000
MMMM
0000
0000
0000
MMMM
MMMM
MMMM
MMMM
,
0001
1000
0100
0010
0001
0100
0010
1000
0002
0000
0000
0000
0000
0000
0000
0000
,
0000
0000
0000
0000
,
0000
0000
0000
0000
,
0000
0000
0000
0000
,
0000
0000
0000
0000
0003
0000
0000
0000
1000
0000
0000
0100
0000
0000
1000
0000
,
0000
0100
0000
0000
0010
0000
0000
0001
0000
0000
0010
0000
0000
0001
0000
0000
,
0101
0000
0000
1010
0000
0000
1100
0000
0000
0011
0000
0000
0110
0000
0000
1100
,
0000
0000
0000
0000
1001
0000
0000
0000
0000
0000
0101
0000
0000
0000
0000
0000
1000
0000
0000
0100
0000
0000
0001
0000
0000
0100
0000
0000
0001
0000
0000
0100
,
0000
0000
1000
0000
0000
0010
0000
0000
0001
0000
0000
0010
0000
0000
0001
0000
0000
0010
0000
0000
1000
0000
0000
0001
0000
0000
0010
0000
0000
1000
0000
0000
,
0001
0000
0000
0100
0000
0000
1000
0000
0000
0001
0000
0000
0100
0000
0000
1000
0000
0000
0100
0000
0000
1000
0000
0000
0100
0000
0000
0001
0000
0000
0010
0000
,
0000
1000
0000
0000
0001
0000
0000
0100
0000
0000
1000
0000
0000
0001
0000
0000
1000
0000
0000
0010
0000
0000
0001
0000
0000
0010
0000
0000
0001
0000
0000
0010
,
0000
0000
1000
0000
0000
0100
0000
0000
0001
0000
0000
0100
0000
0000
0001
0000
0000
0100
0000
0000
1000
0000
0000
0001
0000
0000
0100
0000
0000
1000
0000
0000
,
0001
0000
0000
0010
0000
0000
1000
0000
0000
0001
0000
0000
0010
0000
0000
1000
0000
0000
0010
0000
0000
1000
0000
0000
1010
0000
0000
0000
0000
0000
0011
0000
,
0000
0000
0000
0000
1100
0000
0000
0000
0000
0000
0101
0000
0000
0000
0000
0000
1000
0000
0000
0010
0000
0000
0001
0000
0000
0010
0000
0000
0001
0000
0000
0010
,
0000
0000
1000
0000
0000
0100
0000
0000
0001
0000
0000
0100
0000
0000
0001
0000
0000
0100
0000
0000
1000
0000
0000
0001
0000
0000
0100
0000
0000
1000
0000
0000
,
0001
0000
0000
0010
0000
0000
1000
0000
0000
0001
0000
0000
0010
0000
0000
1000
0000
0000
0010
0000
0000
1000
0000
0000
0010
0000
0000
0001
0000
0000
0100
0000
,
0000
1000
0000
0000
0001
0000
0000
0010
0000
0000
1000
0000
0000
0001
0000
0000
1000
0000
0000
0100
0000
0000
0001
0000
0000
0100
0000
0000
0001
0000
0000
0100
,
0000
0000
1000
0000
0000
0010
0000
0000
0001
0000
0000
0010
0000
0000
0001
0000
0000
0010
0000
0000
1000
0000
0000
0001
0000
0000
0010
0000
0000
1000
0000
0000
,
0001
0000
0000
0100
0000
0000
1000
0000
0000
0001
0000
0000
0100
0000
0000
1000
0000
0000
0100
0000
0000
1000
0000
0000
1100
0000
0000
0000
0000
0000
0101
0000
,
0000
0000
1010
0000
0000
0011
0000
0000
2002
0000
0000
0000
0000
0000
0000
0000
,
0000
0000
0000
0000
,
0000
0000
0000
0000
,
0000
0000
0000
0000
,
0000
0000
0000
0000
3003
0000
0000
0000
1000
0010
0100
0010
1000
0001
0010
0100
,
1000
0001
0100
0010
0100
0001
1000
0010
0100
0001
1000
0100
0010
0100
1000
0001
,
0100
0010
1000
0001
0010
0100
0010
0001
1000
0100
0010
0001
1000
0010
0100
0010
,
1000
0100
1000
0001
0010
0100
0010
0001
0100
0001
1000
0010
0100
0010
1000
0100
,
1000
0000
0000
0001
0000
0000
0010
0000
0000
0100
0000
0000
1000
0000
0001
0000
1000
0000
0001
0000
1000
0000
0001
0000
1000
0000
0000
0000
0000
0000
0010
0000
0000
0000
0000
0000
1010
0000
0000
0000
0000
0000
1000
0000
0000
0000
0000
0000
,
0100
0010
0011
0101
0001
0100
0110
0010
,
1000
0000
0001
0000
1001
0000
1000
0010
0100
0000
0001
0000
0101
0000
0001
0000
,
0010
0100
1100
1010
1000
0010
0110
0100
,
0001
0000
1000
0000
1001
0000
0001
0010
0100
0000
1000
0000
1100
0000
1000
0000
,
0010
0100
0101
0011
0001
0100
0110
0010
,
1000
0000
0001
0000
1001
0000
1000
0100
0010
0000
0001
0000
0011
0000
0001
0000
,
0100
0000
0010
0000
1010
0000
1000
0000
1001
0000
0001
0100
0001
0000
1000
0010
,
1000
0100
0010
0001
0100
0001
0010
0100
1000
0000
0010
0000
0001
0000
2000
0000
,
0000
3010
0200
0000
1300
0100
0001
2000
,
0000
0000
3010
0100
0001
0000
0100
0000
0001
0000
1000
0000
0100
0000
0002
0000
,
0000
0103
0020
0000
0130
1000
0020
0100
,
0000
0100
0100
0130
0001
0010
1000
0002
,
0000
1003
0020
0000
0130
1000
0001
0200
,
0000
0000
0310
1000
0001
0000
0010
0000
0001
0000
0100
0000
1000
0000
0002
0000
,
0000
0000
0013
0000
0200
0000
0301
0000
1000
0100
1000
0010
0100
0001
0010
0001
,
0100
0010
1000
0001
2000
0000
3000
0000
1001
0000
1001
0000
0001
0000
0100
0000
,
1000
0100
0001
1000
0010
0001
0010
1000
,
0001
0010
0100
1000
0001
0000
0010
0100
,
0010
0000
0001
1000
0001
0000
0100
0010
,
0100
0000
0000
0001
0000
0000
1000
0000
0000
0100
0010
0100
0010
0000
0000
0001
0000
0000
0010
0000
0000
1000
0000
0000
,
0010
0000
0001
0000
0100
0000
1000
0000
0100
0000
0001
0000
1000
0100
1000
0010
,
0100
0001
0010
0001
0100
0010
1000
0001
1000
0000
0100
0000
0010
0000
0011
0000
,
0001
0100
0010
1000
1100
1000
1001
0001
,
0101
0000
0000
0000
0000
0000
0001
0000
0000
0000
0000
0000
1000
0000
0001
0000
1000
0000
0001
0000
1000
0000
0001
0000
1000
0000
0000
0001
0000
0000
0010
0000
0000
0100
0000
0000
1000
0000
0000
0010
0000
0000
0100
0000
0000
0010
0000
0000
,
1000
0001
0010
0100
0010
0001
1000
0010
0001
0000
MMMM
0000
0001
0010
1000
0000
,
MMMM
0000
1000
0001
1000
0010
0100
0010
1000
0001
0010
0100
0010
0001
0100
0010
,
1000
0100
1000
0010
0100
0001
0010
0001
0100
0010
1000
0100
0010
0001
0010
0100
,
1000
0001
1000
0010
0100
0001
1000
0001
0100
0010
1000
0100
0010
0100
1000
0001
,
0100
0010
0100
0001
0010
0100
1000
0010
0001
0000
MMMM
0000
0001
0010
1000
0000
,
MMMM
0000
1000
0001
1000
0010
0100
0010
1000
0001
0010
0100
0010
0001
0100
0010
,
1000
0100
1000
0010
0100
0001
0010
0001
0100
0010
1000
0100
0010
0001
0010
0100
,
1000
0001
1000
0010
0100
0001
0100
0010
1000
0010
0001
0010
0100
0001
0010
0100
,
0001
0100
0010
0001
0100
0010
0001
0010
0100
0001
1000
0000
MMMM
0000
1000
0010
,
0001
0000
MMMM
0000
0001
0010
1000
0000
MMMM
0000
0001
0010
0001
0100
0001
1000
,
0001
0100
0001
0010
0001
1000
0100
1000
0010
1000
0001
1000
0010
1000
0100
1000
,
0001
0010
0100
1000
0010
0100
0001
1000
0010
0100
1000
0100
0010
1000
0100
0010
,
1000
0010
0100
1000
0010
0100
1000
0100
0010
1000
0001
0000
MMMM
0000
0001
0100
,
1000
0000
MMMM
0000
1000
0100
0001
0000
MMMM
0000
0001
0100
0001
0010
0001
1000
,
0001
0010
0001
0100
0001
1000
0010
1000
0100
1000
0001
1000
0100
1000
0010
1000
,
0001
0100
0010
1000
0001
1000
0100
0010
0001
0100
0010
0001
0010
0100
0001
1000
,
0100
0010
1000
0010
0100
1000
0010
0001
0010
1000
0001
0000
MMMM
0000
0001
0010
,
1000
0000
MMMM
0000
0001
0010
0100
1000
0001
1000
0010
0100
0001
0010
0001
0100
,
0001
1000
0001
1000
0100
1000
0010
1000
0001
1000
0100
0010
0001
0100
0010
1000
,
0001
0000
0010
0000
0100
0000
1000
0000
0001
0100
0010
0001
0010
0100
0001
1000
,
0100
0010
1000
0010
0100
1000
0010
0001
0010
1000
0001
0100
1000
0100
0001
0000
,
1000
0000
0010
0000
0100
0000
0001
0000
1000
0000
0001
0100
0010
0100
2000
0000
,
3100
0010
0100
0001
2000
0000
3001
0010
0100
0010
2000
0000
3010
0100
0010
0001
,
2000
0002
0000
0000
0000
0000
0000
0000
,
0000
0000
0000
0000
,
0000
0000
0000
0000
,
0000
0000
0000
0000
,
3003
0000
0000
0000
;
